#TITLE:Inspector Gadget;
#SUBTITLE:(Techno Remix);
#ARTIST:Dj Inferior;
#TITLETRANSLIT:;
#SUBTITLETRANSLIT:;
#ARTISTTRANSLIT:;
#GENRE:DWI Palace Max Extreme;
#CREDIT:;
#BANNER:Inspectortech bn2.png;
#BACKGROUND:Inspectortech bg.png;
#LYRICSPATH:;
#CDTITLE:;
#MUSIC:Inspector Gadget (Techno Remix).mp3;
#OFFSET:-0.140000;
#SAMPLESTART:12.120000;
#SAMPLELENGTH:12.000000;
#SELECTABLE:YES;
#BPMS:0.000000=159.919998
,96.000000=159.699997
,104.000000=159.500000
,105.000000=159.899994
,112.000000=159.960007
,160.000000=81.599998
,161.000000=81.900002
,162.000000=82.699997
,163.000000=83.599998
,164.000000=85.199997
,165.000000=86.199997
,166.000000=87.300003
,167.000000=89.199997
,168.000000=89.699997
,169.000000=90.000000
,170.000000=90.400002
,171.000000=90.199997
,172.000000=92.599998
,173.000000=93.400002
,174.000000=94.699997
,175.000000=96.000000
,176.000000=97.099998
,177.000000=98.199997
,178.000000=99.900002
,179.000000=100.400002
,180.000000=101.199997
,181.000000=102.300003
,182.000000=103.500000
,183.000000=105.199997
,184.000000=105.500000
,185.000000=106.300003
,186.000000=106.599998
,187.000000=107.500000
,188.000000=108.500000
,189.000000=108.699997
,190.000000=111.400002
,191.000000=112.000000
,192.000000=113.599998
,193.000000=116.000000
,194.000000=118.500000
,195.000000=121.300003
,196.000000=124.500000
,198.000000=124.999992
,199.000000=125.199997
,200.000000=126.999992
,201.000000=129.699997
,202.000000=131.699997
,203.000000=133.899994
,204.000000=136.000000
,205.000000=139.300003
,206.000000=142.199997
,207.000000=145.399994
,208.000000=146.500000
,209.000000=147.600006
,210.000000=148.000000
,211.000000=149.000000
,212.000000=150.300003
,213.000000=154.199997
,214.000000=158.100006
,215.000000=162.100006
,216.000000=163.100006
,217.000000=164.000000
,218.000000=165.699997
,219.000000=166.800003
,220.000000=168.600006
,221.000000=169.399994
,222.000000=170.500000
,223.000000=172.000000
,224.000000=177.100006
;
#STOPS:
;
#BGCHANGES:;
#KEYSOUNDS:;
#ATTACKS:;

//---------------dance-single - ----------------
#NOTES:
     dance-single:
     :
     Easy:
     5:
     0.368009,0.428744,0.342274,0.171137,0.000000,286.000000,248.000000,38.000000,19.000000,0.000000,0.000000,0.368009,0.428744,0.342274,0.171137,0.000000,286.000000,248.000000,38.000000,19.000000,0.000000,0.000000:
// measure 0
0000
0000
0000
0000
,  // measure 1
0000
0000
0000
0000
,  // measure 2
0000
0000
0000
0000
,  // measure 3
0000
0000
0000
0000
,  // measure 4
1000
0000
1000
0000
,  // measure 5
0001
1000
0100
0001
,  // measure 6
0010
0000
0100
0000
,  // measure 7
1001
0000
1001
1001
,  // measure 8
0100
0010
0001
0001
,  // measure 9
1000
1000
0100
0100
,  // measure 10
1000
0001
0010
0010
,  // measure 11
0100
0100
1000
1000
,  // measure 12
0001
0100
0010
0010
,  // measure 13
1000
1000
0100
0100
,  // measure 14
1000
0100
0010
0010
,  // measure 15
0001
1000
2002
3003
,  // measure 16
1000
0100
0010
1001
,  // measure 17
0100
1000
0001
0110
,  // measure 18
0001
0100
0010
1001
,  // measure 19
0100
0001
1000
0110
,  // measure 20
0010
1001
0010
1010
,  // measure 21
0100
1001
0001
0110
,  // measure 22
1001
1000
0010
0001
,  // measure 23
0110
1000
2002
3003
,  // measure 24
1000
0001
0020
0000
,  // measure 25
0230
0000
2300
0000
,  // measure 26
3001
0100
0020
0000
,  // measure 27
0230
0000
0302
0000
,  // measure 28
1003
0100
0010
1001
,  // measure 29
0010
0010
0100
1000
,  // measure 30
0001
0100
0010
1001
,  // measure 31
1000
0100
0001
0010
,  // measure 32
1001
0000
0001
0000
1000
0001
1000
0000
,  // measure 33
0010
1001
0100
0100
,  // measure 34
1001
0000
1000
0000
0001
1000
0001
0000
,  // measure 35
0010
1001
0100
0100
,  // measure 36
1001
0000
0100
0000
0010
0100
0010
0000
,  // measure 37
0100
1001
0100
1001
,  // measure 38
0001
1000
0001
0000
0010
0000
0100
0000
,  // measure 39
1000
0001
1000
0000
2002
0000
3003
0000
,  // measure 40
1000
0000
0001
0000
,  // measure 41
0100
0000
0100
0000
,  // measure 42
0001
0000
1000
0000
,  // measure 43
0010
0000
0010
0000
,  // measure 44
1000
0100
0010
0001
,  // measure 45
0100
1000
0010
0010
,  // measure 46
0001
0100
0010
1000
,  // measure 47
0001
0001
0100
0100
,  // measure 48
0010
1000
0001
0001
,  // measure 49
0100
0000
0100
0000
0010
0100
0010
0000
,  // measure 50
1000
0001
0010
0010
,  // measure 51
0100
0000
0100
0000
1000
0001
1000
0000
,  // measure 52
0100
0010
0001
1000
,  // measure 53
0010
0100
0001
1000
,  // measure 54
0001
0100
0010
0010
,  // measure 55
1000
0001
1000
0000
2002
0000
3003
0000
,  // measure 56
1000
0001
0010
0010
,  // measure 57
0100
1001
0100
0010
,  // measure 58
0001
1000
0010
0001
,  // measure 59
0100
0010
0100
0000
2002
0000
3003
0000
,  // measure 60
0001
0110
1000
1001
,  // measure 61
0001
0011
0100
1100
,  // measure 62
0001
1001
0010
0110
,  // measure 63
1000
0001
1000
0000
0220
0000
0330
0000
,  // measure 64
1001
0000
0100
0000
1000
0100
1000
0000
,  // measure 65
0001
0100
1000
0000
0100
0001
0010
0000
,  // measure 66
1001
0000
0100
0000
0001
1000
0001
0000
,  // measure 67
0010
0100
0010
0100
0020
0000
0130
0000
,  // measure 68
1001
0000
0000
0000
;

//---------------dance-single - ----------------
#NOTES:
     dance-single:
     :
     Medium:
     7:
     0.422053,0.489993,0.171137,0.135108,0.000000,328.000000,309.000000,19.000000,15.000000,0.000000,0.000000,0.422053,0.489993,0.171137,0.135108,0.000000,328.000000,309.000000,19.000000,15.000000,0.000000,0.000000:
// measure 0
0000
0000
0000
0000
,  // measure 1
0000
0000
0000
0000
,  // measure 2
0000
0000
0000
0000
,  // measure 3
0000
0000
0000
0000
,  // measure 4
1000
0100
0001
0001
,  // measure 5
0010
0010
0100
0100
,  // measure 6
0001
0100
1000
0010
,  // measure 7
1001
0000
1001
1001
,  // measure 8
0100
0010
0001
0000
1000
0000
1000
0000
,  // measure 9
0010
0010
0100
0100
,  // measure 10
0001
0100
0010
0000
1000
0000
1000
0000
,  // measure 11
0010
0010
0100
0100
,  // measure 12
0001
1000
0010
0000
1000
0000
1000
0000
,  // measure 13
0010
0010
0100
0100
,  // measure 14
0001
1000
0010
0000
1000
0000
0001
0000
,  // measure 15
0010
0100
0010
0100
0020
0000
0130
0000
,  // measure 16
1000
0100
0001
0000
0010
0000
1000
0000
,  // measure 17
0001
0001
1000
1000
,  // measure 18
0001
0100
1000
0000
0010
0000
0001
0000
,  // measure 19
1000
1000
0001
0001
,  // measure 20
1000
0010
0001
0000
0100
0000
1000
0000
,  // measure 21
0001
0001
1000
1000
,  // measure 22
0001
0010
1000
0000
0100
0000
0001
0000
,  // measure 23
0010
0100
0010
0100
0020
0000
0130
0000
,  // measure 24
2000
3001
0020
0130
,  // measure 25
2000
0000
3002
0000
,  // measure 26
0203
0310
2000
3001
,  // measure 27
0020
0000
0230
0000
,  // measure 28
1300
1001
0010
0011
,  // measure 29
0100
0000
1001
0000
1000
0000
0001
0100
,  // measure 30
0010
1000
1001
0010
,  // measure 31
1001
0110
1010
0101
,  // measure 32
1001
0000
0001
1000
0010
0000
0100
0000
,  // measure 33
0010
1001
0010
0110
,  // measure 34
1001
0000
1000
0001
0010
0000
0100
0000
,  // measure 35
0010
1001
0100
0110
,  // measure 36
1000
0000
0010
0000
1000
0001
1000
0000
,  // measure 37
0001
0100
0001
0000
0010
1000
0010
0000
,  // measure 38
1001
0010
1000
0100
,  // measure 39
0001
1000
0001
1000
0002
0000
1003
0000
,  // measure 40
1000
0001
0010
0010
,  // measure 41
0100
0100
1000
1000
,  // measure 42
0001
1000
0010
0010
,  // measure 43
0100
0100
0001
0001
,  // measure 44
1000
0000
0010
0000
0100
0001
0100
0000
,  // measure 45
0001
0000
0010
0000
0100
1000
0100
0000
,  // measure 46
0001
0000
1000
0000
0001
0010
0001
0000
,  // measure 47
1000
0000
0001
0000
1000
0010
1000
0000
,  // measure 48
0001
0100
0010
0000
1000
0000
1000
0000
,  // measure 49
0001
0100
0001
0000
1000
0000
0001
0000
,  // measure 50
1000
0100
0010
0000
0001
0000
0001
0000
,  // measure 51
1000
0100
1000
0000
0001
0000
1000
0000
,  // measure 52
0001
0100
1000
0000
0001
0010
1000
0000
,  // measure 53
0001
0010
1000
0000
0001
0100
1000
0000
,  // measure 54
0001
0100
0010
0000
1000
0100
1000
0000
,  // measure 55
0010
0100
0010
0100
0020
0000
0130
0000
,  // measure 56
0001
0100
0010
0100
0001
0000
0001
0000
,  // measure 57
1000
1000
0100
0100
,  // measure 58
1000
0100
0010
0100
1000
0000
1000
0000
,  // measure 59
0010
0100
0010
0100
0020
0000
0130
0000
,  // measure 60
0001
1000
0100
1000
0001
0000
0001
0000
,  // measure 61
1000
0000
1000
0000
0010
1000
0001
0000
,  // measure 62
1000
0001
0100
0001
1000
0000
1000
0000
,  // measure 63
0010
0100
0010
0100
0020
0000
1030
0000
,  // measure 64
0100
0010
0001
0000
0001
0100
0001
0000
,  // measure 65
0100
0010
1000
0000
1000
0100
1000
0000
,  // measure 66
0100
0010
0001
0000
1000
0001
1000
0000
,  // measure 67
0010
0100
0010
0100
0020
0000
0130
0000
,  // measure 68
1001
0000
0000
0000
;

//---------------dance-single - ----------------
#NOTES:
     dance-single:
     :
     Hard:
     8:
     0.518559,0.551242,0.027022,0.117094,0.018014,403.000000,400.000000,3.000000,13.000000,0.000000,0.000000,0.518559,0.551242,0.027022,0.117094,0.018014,403.000000,400.000000,3.000000,13.000000,0.000000,0.000000:
// measure 0
0000
0000
0000
0000
,  // measure 1
0000
0000
0000
0000
,  // measure 2
0000
0000
0000
0000
,  // measure 3
0000
0000
0000
0000
,  // measure 4
1000
0000
1000
0000
0001
0100
0010
0100
,  // measure 5
0001
0000
0001
0000
1000
0100
0010
0100
,  // measure 6
1000
0000
0001
0000
1000
0010
0100
0001
,  // measure 7
0010
0000
1001
1001
,  // measure 8
0100
0010
0001
0000
0001
0100
0001
0000
,  // measure 9
0010
0100
1000
0000
1000
0100
1000
0000
,  // measure 10
0001
0100
0010
0000
0010
0100
0010
0000
,  // measure 11
1000
0100
0010
0000
0010
0100
0010
0000
,  // measure 12
0001
1000
0010
0000
0100
0001
0100
0000
,  // measure 13
0001
1000
0001
0000
1000
0100
1000
0000
,  // measure 14
0001
0100
0010
0000
1000
0001
1000
0000
,  // measure 15
0010
0100
0010
0100
0020
0000
0130
0000
,  // measure 16
0001
0100
0010
1000
0001
0100
0001
0000
,  // measure 17
0010
0100
0010
0000
0100
1000
0100
0000
,  // measure 18
1000
0100
0010
0001
1000
0100
1000
0000
,  // measure 19
0100
0010
0100
0000
0010
0001
0010
0000
,  // measure 20
0100
1000
0001
0010
0001
0100
0001
0000
,  // measure 21
1000
0100
1000
0000
0010
0100
0010
0000
,  // measure 22
0100
0001
0010
0001
1000
0100
1000
0000
,  // measure 23
0010
0100
0010
0100
0020
0000
0130
0000
,  // measure 24
0002
2003
3020
0130
,  // measure 25
0020
1000
0230
0001
,  // measure 26
0301
0000
0010
0000
0000
0000
0001
0000
0000
0000
1000
0000
0000
0000
0010
1000
,  // measure 27
0002
1000
0203
0010
,  // measure 28
0301
0000
1000
0000
0000
0000
0100
0000
0000
0000
1000
0000
0000
0000
0001
0100
,  // measure 29
0001
0000
0010
0000
0000
0000
0001
0000
0000
0000
1000
0000
0000
0000
0100
0010
,  // measure 30
0100
0000
1000
0000
0000
0000
0001
0000
0000
0000
1000
0000
0000
0000
0010
1000
,  // measure 31
0001
1000
0100
1000
0001
0010
0100
1000
,  // measure 32
0001
0100
0010
0100
0001
1000
0001
0000
,  // measure 33
1000
0100
1000
0000
0001
0100
0001
0000
,  // measure 34
1000
0100
0010
0100
1000
0001
1000
0000
,  // measure 35
0001
0100
0001
0000
1000
0100
1000
0000
,  // measure 36
0001
0100
0010
1000
0001
0010
0001
0000
,  // measure 37
1000
0001
1000
0000
0010
0100
0010
0000
,  // measure 38
1000
0100
0010
0001
1000
0001
1000
0010
,  // measure 39
0100
0001
0100
0010
2000
0000
3001
0000
,  // measure 40
1000
0000
0010
0000
1000
0100
1000
0000
,  // measure 41
0001
0000
0100
0000
0001
1000
0001
0000
,  // measure 42
0100
0000
0010
0000
1000
0001
1000
0000
,  // measure 43
0100
0000
0010
0000
0001
0100
0001
0000
,  // measure 44
0100
0010
1000
0000
0001
0010
0001
0000
,  // measure 45
0010
0100
0010
0000
0100
1000
0001
0000
,  // measure 46
0100
0010
1000
0000
0001
1000
0001
0000
,  // measure 47
0010
0100
0010
0000
0100
1000
0001
0000
,  // measure 48
1000
0100
0010
0001
1000
0000
1000
0000
,  // measure 49
0001
0100
0001
0000
1000
0100
1000
0000
,  // measure 50
0001
0100
0010
1000
0001
0000
0001
0000
,  // measure 51
1000
0100
1000
0000
0001
0100
0001
0000
,  // measure 52
1000
0001
0100
0010
1000
0001
0001
0000
,  // measure 53
1000
0100
0001
0000
1000
0100
0001
0000
,  // measure 54
0001
1000
0100
0010
0001
0100
0010
1000
,  // measure 55
0001
0100
0001
0100
0020
0000
0130
0000
,  // measure 56
0001
0100
1000
0100
0001
1000
0001
0000
,  // measure 57
1000
0100
0001
0000
1000
0010
0001
0000
,  // measure 58
1000
0001
0100
0010
0100
0001
1000
0010
,  // measure 59
0100
0001
1000
0100
2000
0000
3001
0000
,  // measure 60
1000
0100
0001
0100
1000
0010
0100
0000
,  // measure 61
0001
0010
1000
0000
0001
0100
1000
0000
,  // measure 62
0001
1000
0001
0010
1000
0010
0001
1000
,  // measure 63
0100
0010
0001
1000
0002
0000
1003
0000
,  // measure 64
0001
0100
1000
0100
0001
1000
0001
0100
,  // measure 65
1000
0100
0001
0010
1000
0010
0001
0100
,  // measure 66
0001
1000
0100
0001
0100
1000
0010
0001
,  // measure 67
0010
1000
0001
1000
0100
0010
0001
0100
,  // measure 68
1001
0000
0000
0000
;
