#TITLE:In The Depths;
#SUBTITLE:(Speed Mix);
#ARTIST:Dave Phaneuf;
#TITLETRANSLIT:;
#SUBTITLETRANSLIT:;
#ARTISTTRANSLIT:;
#GENRE:;
#CREDIT:;
#BANNER:Depths speed bn.png;
#BACKGROUND:Depths speed bg.png;
#LYRICSPATH:;
#CDTITLE:;
#MUSIC:In The Depths (Speed Mix).mp3;
#OFFSET:-0.050000;
#SAMPLESTART:19.219999;
#SAMPLELENGTH:12.000000;
#SELECTABLE:YES;
#BPMS:0.000000=200.000000
;
#STOPS:208.000000=0.895000
;
#BGCHANGES:;
#KEYSOUNDS:;
#ATTACKS:;

//---------------dance-single - ----------------
#NOTES:
     dance-single:
     :
     Easy:
     6:
     0.431006,0.639305,0.512812,0.017094,0.017094,353.000000,293.000000,60.000000,2.000000,0.000000,0.000000,0.431006,0.639305,0.512812,0.017094,0.017094,353.000000,293.000000,60.000000,2.000000,0.000000,0.000000:
// measure 0
0000
0000
0000
0000
,  // measure 1
0000
0000
0000
0000
,  // measure 2
0000
0000
0000
0000
,  // measure 3
0000
0000
0000
0000
,  // measure 4
0000
0000
0000
0000
,  // measure 5
0000
0000
0000
0000
,  // measure 6
0000
0000
0000
0000
,  // measure 7
0000
0000
0000
0000
,  // measure 8
1000
0000
0001
0000
,  // measure 9
1000
0000
0001
0000
,  // measure 10
0010
0000
0100
0000
,  // measure 11
0010
0000
0100
0000
,  // measure 12
1000
0000
0100
0000
,  // measure 13
0001
0000
0010
0000
,  // measure 14
0001
0000
0100
0000
,  // measure 15
1000
0001
1000
0001
,  // measure 16
1001
0001
0010
1000
,  // measure 17
0100
1000
0010
0001
,  // measure 18
1001
0100
1000
0010
,  // measure 19
0001
0100
0001
0010
,  // measure 20
1001
0010
0100
0001
,  // measure 21
0110
1000
0100
0010
,  // measure 22
1001
0100
0010
1000
,  // measure 23
0110
0001
0100
0010
,  // measure 24
1001
0100
0001
1000
,  // measure 25
0010
0100
0001
1000
,  // measure 26
0010
0001
0100
1000
,  // measure 27
0100
0001
0010
1000
,  // measure 28
0110
0001
1000
0100
,  // measure 29
0010
0001
1000
0001
,  // measure 30
0100
1000
0010
0001
,  // measure 31
0010
1000
0100
0001
,  // measure 32
1100
0001
0010
1000
,  // measure 33
0011
0100
1000
0010
,  // measure 34
0101
1000
0010
0100
,  // measure 35
1010
0100
0001
1000
,  // measure 36
1001
0100
0010
0001
,  // measure 37
1000
0100
0001
0010
,  // measure 38
1001
0010
0100
1000
,  // measure 39
0001
0010
1000
0100
,  // measure 40
1100
1000
0100
1000
,  // measure 41
0011
0010
0001
0010
,  // measure 42
0101
0001
0100
0001
,  // measure 43
1010
0010
1000
0010
,  // measure 44
0100
0001
0010
0001
,  // measure 45
0100
1000
0010
1000
,  // measure 46
0100
0001
0010
0001
,  // measure 47
0100
1000
0010
1000
,  // measure 48
1001
0100
0001
0000
,  // measure 49
0110
1000
0100
0010
,  // measure 50
1001
0100
0001
0000
,  // measure 51
0110
0001
1000
0010
,  // measure 52
1001
1001
1001
0110
,  // measure 53
0110
1001
0000
0000
,  // measure 54
0001
1001
0000
0000
,  // measure 55
1000
1001
0000
0000
,  // measure 56
0110
1001
0000
0000
,  // measure 57
0110
1001
0000
0100
,  // measure 58
0010
1001
0000
1000
,  // measure 59
0001
0110
0000
0010
,  // measure 60
0100
1001
0000
0001
,  // measure 61
1000
0110
0110
0110
,  // measure 62
0110
1001
1001
1001
,  // measure 63
1001
0010
0001
0100
,  // measure 64
1000
0100
0001
0010
,  // measure 65
1000
0010
0001
0100
,  // measure 66
1000
0100
0001
0010
,  // measure 67
1000
0010
0100
0001
,  // measure 68
1000
0100
0010
1000
,  // measure 69
0001
0100
0010
1000
,  // measure 70
0001
0000
0000
0000
1000
0000
0000
0000
1000
0000
0000
1000
0000
1000
0000
0000
,  // measure 71
1000
1001
0100
0010
,  // measure 72
0011
1001
0010
0100
,  // measure 73
1100
0110
0001
1000
,  // measure 74
1010
0110
1000
0001
,  // measure 75
0101
1001
0100
1000
,  // measure 76
0110
1001
0010
0001
,  // measure 77
0110
1001
0100
1000
,  // measure 78
0110
0000
0000
0000
0001
0000
0000
0000
0001
0000
0000
0001
0000
0001
0000
0000
,  // measure 79
0001
1000
0001
0000
0100
0000
1000
0000
,  // measure 80
0010
1000
0100
0001
,  // measure 81
0010
1000
0100
0001
,  // measure 82
0010
0001
0100
1000
,  // measure 83
0010
0100
0010
0001
,  // measure 84
1000
0100
1000
0001
,  // measure 85
0100
0010
0001
1000
,  // measure 86
0010
0001
0100
1000
,  // measure 87
0010
2002
0000
0000
,  // measure 88
3003
0000
0000
0000
;

//---------------dance-single - ----------------
#NOTES:
     dance-single:
     :
     Medium:
     7:
     0.477403,0.676911,0.376062,0.017094,0.008547,391.000000,347.000000,44.000000,2.000000,0.000000,0.000000,0.477403,0.676911,0.376062,0.017094,0.008547,391.000000,347.000000,44.000000,2.000000,0.000000,0.000000:
// measure 0
0000
0000
0000
0000
,  // measure 1
0000
0000
0000
0000
,  // measure 2
0000
0000
0000
0000
,  // measure 3
0000
0000
0000
0000
,  // measure 4
0000
0000
0000
0000
,  // measure 5
0000
0000
0000
0000
,  // measure 6
0000
0000
0000
0000
,  // measure 7
0000
0000
0000
0000
,  // measure 8
1000
0100
0001
0100
,  // measure 9
1000
0010
0001
0010
,  // measure 10
1000
0100
0001
0100
,  // measure 11
1000
0010
0001
0010
,  // measure 12
1000
0001
1000
0001
,  // measure 13
0100
0010
0100
0010
,  // measure 14
1000
0100
1000
0100
,  // measure 15
0010
0100
0010
0000
1000
0001
1000
0000
,  // measure 16
1001
1000
0001
0010
,  // measure 17
0100
0001
0010
0001
,  // measure 18
0100
1000
0010
1000
,  // measure 19
0100
0000
0001
0000
0010
0000
0001
1000
,  // measure 20
0100
0010
0001
1000
,  // measure 21
0010
0100
0001
1000
,  // measure 22
0001
0010
0100
0010
,  // measure 23
0100
0000
0001
0000
1000
0000
0100
0001
,  // measure 24
0100
1000
0010
0001
,  // measure 25
0010
1000
0100
0001
,  // measure 26
0100
1000
0010
0001
,  // measure 27
0100
1000
0010
1001
,  // measure 28
1001
0100
0101
1100
,  // measure 29
1001
0010
1010
0011
,  // measure 30
1001
0100
0100
0100
,  // measure 31
1001
0010
0010
0010
,  // measure 32
1001
0000
0100
0000
0001
0000
0100
1000
,  // measure 33
0010
0000
0100
0000
0001
0000
0010
1000
,  // measure 34
0100
0000
0001
0000
,  // measure 35
0100
0000
1000
0000
,  // measure 36
0110
0000
1000
0000
0100
0000
0001
0100
,  // measure 37
1000
0000
0001
0000
0100
0000
0010
0001
,  // measure 38
0100
0000
1001
0000
,  // measure 39
1100
0000
0101
0000
,  // measure 40
1001
1100
0101
0110
,  // measure 41
1001
0011
1010
0110
,  // measure 42
1001
0101
1100
0110
,  // measure 43
1001
1010
0011
0110
,  // measure 44
0001
0000
1000
0000
0001
1000
0001
0000
,  // measure 45
0100
0000
0010
0000
0100
0010
0100
0000
,  // measure 46
0001
0000
1000
0000
0001
1000
0001
0000
,  // measure 47
0010
0000
0100
0000
0010
0100
0010
0000
,  // measure 48
1000
0000
0100
0000
1000
0100
1000
0000
,  // measure 49
0001
0000
0010
0000
0001
0010
0001
0000
,  // measure 50
1000
0000
0001
0000
1000
0001
1000
0000
,  // measure 51
0010
0000
0100
0000
0010
0100
0010
0000
,  // measure 52
1001
0000
1000
0100
0001
0000
0100
1000
,  // measure 53
0010
1001
0100
0001
,  // measure 54
0010
0100
1000
0001
,  // measure 55
0010
0100
1000
0001
,  // measure 56
0010
0001
0100
0001
,  // measure 57
0010
1000
0010
0001
,  // measure 58
0100
1000
0010
0001
,  // measure 59
0100
0001
0010
1000
,  // measure 60
0100
0001
0010
1000
,  // measure 61
0100
1001
0100
1001
,  // measure 62
1001
0110
1000
0110
,  // measure 63
1000
0001
1000
0000
0100
0000
0001
0000
,  // measure 64
0010
0001
0100
1000
,  // measure 65
0100
0001
0100
0001
,  // measure 66
0100
1000
0100
1000
,  // measure 67
0100
1000
0010
0001
,  // measure 68
0010
1000
0100
0001
,  // measure 69
0100
1000
0100
1000
,  // measure 70
0100
0001
0100
0001
,  // measure 71
0100
1001
0100
0001
,  // measure 72
1000
0110
1000
0001
,  // measure 73
0100
1001
0010
1000
,  // measure 74
0001
0110
0001
1000
,  // measure 75
0010
1001
0100
0010
,  // measure 76
0100
0010
0100
0000
0010
0000
0100
0000
,  // measure 77
0010
0001
1000
0001
,  // measure 78
0100
0000
0000
0000
0001
0000
0000
0000
1000
0000
0000
0001
0000
1000
0000
0000
,  // measure 79
0001
0000
1000
0100
0001
0000
0100
1000
,  // measure 80
0010
0000
1000
0001
0100
0000
0001
1000
,  // measure 81
0010
0000
1000
0010
0100
0000
0010
1000
,  // measure 82
0001
0000
0100
1000
0010
0000
0100
0001
,  // measure 83
0010
0000
1000
0100
0001
0000
0001
0100
,  // measure 84
1000
0000
1000
0100
0001
0000
0001
0100
,  // measure 85
1000
0000
1000
0001
1000
0000
0001
0100
,  // measure 86
0001
0000
0010
0100
0010
0000
1000
0010
,  // measure 87
1000
2002
0000
0000
,  // measure 88
3003
0000
0000
0000
;

//---------------dance-single - ----------------
#NOTES:
     dance-single:
     :
     Hard:
     9:
     0.621479,0.676911,0.059828,0.017094,0.051281,509.000000,502.000000,7.000000,2.000000,0.000000,0.000000,0.621479,0.676911,0.059828,0.017094,0.051281,509.000000,502.000000,7.000000,2.000000,0.000000,0.000000:
// measure 0
0000
0000
0000
0000
,  // measure 1
0000
0000
0000
0000
,  // measure 2
0000
0000
0000
0000
,  // measure 3
0000
0000
0000
0000
,  // measure 4
0000
0000
0000
0000
,  // measure 5
0000
0000
0000
0000
,  // measure 6
0000
0000
0000
0000
,  // measure 7
0000
0000
0000
0000
,  // measure 8
0001
0010
0100
0000
1000
0100
0010
0000
,  // measure 9
0001
0010
0100
0000
1000
0100
0010
0000
,  // measure 10
0001
0100
1000
0000
0100
0001
0010
0000
,  // measure 11
1000
0100
0001
0000
0100
1000
0010
0000
,  // measure 12
1000
0001
0100
0000
0001
1000
0010
0000
,  // measure 13
1000
0001
0100
0000
0001
1000
0010
0000
,  // measure 14
0010
0100
0010
0000
1000
0001
1000
0000
,  // measure 15
1000
0001
1000
0010
1000
0001
1000
0100
,  // measure 16
1000
0000
0001
0000
0100
0000
0010
0001
,  // measure 17
0001
0000
1000
0000
0010
0000
0100
1000
,  // measure 18
1000
0000
0001
0000
0100
0000
0010
0001
,  // measure 19
0001
0000
1000
0000
0010
0000
0100
1000
,  // measure 20
0100
0000
0001
0000
0010
0000
1000
0100
,  // measure 21
0001
0000
0100
0000
1000
0000
0010
0001
,  // measure 22
0100
0000
0001
0000
0010
0000
1000
0100
,  // measure 23
0001
0000
0100
0000
1000
0000
0010
0001
,  // measure 24
0100
0000
0010
0000
0100
1000
0001
1000
,  // measure 25
0010
0000
0100
0000
0010
0001
1000
0001
,  // measure 26
0100
0000
0010
0000
1000
0100
0001
0100
,  // measure 27
1000
0000
0010
0000
1000
0100
0001
0100
,  // measure 28
1000
0000
1000
0001
0100
0010
1000
0100
,  // measure 29
1000
0000
0001
1000
0010
0100
0001
1000
,  // measure 30
0010
0000
0100
1000
0001
0010
0100
0010
,  // measure 31
0001
0000
0100
1000
0010
0100
0001
1000
,  // measure 32
0010
0000
0100
0000
0010
0000
0001
0100
,  // measure 33
1000
0001
1000
0010
,  // measure 34
1000
0100
1000
0100
0001
0100
0001
0100
,  // measure 35
1000
0100
1000
0100
0001
0100
0001
0100
,  // measure 36
0100
0000
0010
0000
0100
0000
0001
0010
,  // measure 37
1000
0001
1000
0100
,  // measure 38
0001
0010
0001
0010
1000
0010
1000
0010
,  // measure 39
0001
0010
0001
0010
1000
0010
1000
0010
,  // measure 40
0100
1000
0001
0100
0001
1000
0100
1000
,  // measure 41
0001
0100
0001
1000
0100
1000
0001
0100
,  // measure 42
0001
1000
0100
1000
0001
0100
0001
1000
,  // measure 43
0100
1000
0001
0100
0001
1000
0100
0000
,  // measure 44
1000
0100
0001
0100
1000
0100
0001
0100
,  // measure 45
1000
0010
0001
0010
1000
0010
0001
0010
,  // measure 46
1000
0100
0001
0100
1000
0100
0001
0100
,  // measure 47
1000
0010
0001
0010
1000
0010
0001
0010
,  // measure 48
0100
0000
0001
0000
1000
0010
0100
0001
,  // measure 49
0010
0000
1000
0000
0001
0100
0010
1000
,  // measure 50
0100
0000
0001
0000
1000
0010
0100
0001
,  // measure 51
0010
0000
1000
0000
0001
0100
0010
1000
,  // measure 52
1000
0000
0000
0000
0001
0000
1000
0000
0010
0100
0000
0100
0000
0010
0000
0001
,  // measure 53
1000
0100
1001
0000
0100
0000
0010
0000
,  // measure 54
0100
1001
0010
0100
,  // measure 55
0010
1001
0100
0010
,  // measure 56
0100
1001
0010
0100
,  // measure 57
0010
0000
0001
1000
0010
0100
0001
1000
,  // measure 58
0010
1000
0100
1000
0100
0010
0001
1000
,  // measure 59
0100
0010
0001
1000
0010
1000
0010
1000
,  // measure 60
0001
1000
0001
0001
1000
1000
0100
0100
,  // measure 61
0010
1001
0000
0000
,  // measure 62
0000
1001
0000
0000
,  // measure 63
0000
0000
1000
0000
0001
0000
1000
0100
,  // measure 64
1000
0001
0010
0000
0100
0000
0010
1000
,  // measure 65
0010
0100
0001
0000
1000
0000
0001
0010
,  // measure 66
0001
1000
0100
0000
0010
0000
0100
0001
,  // measure 67
0100
0010
1000
0000
0001
0000
1000
0000
,  // measure 68
0001
0100
0010
0100
,  // measure 69
0010
1000
0001
1000
,  // measure 70
0001
0000
0000
0000
0010
0000
1000
0000
0001
0100
0000
1000
0000
0100
0000
0010
,  // measure 71
0100
0010
0100
0000
0010
0000
0100
0001
,  // measure 72
0010
0000
0010
0000
0100
0000
0010
1000
,  // measure 73
0100
0000
0001
0100
1000
0000
0100
0001
,  // measure 74
0010
0000
0100
0001
0100
0000
0010
1000
,  // measure 75
0010
0000
0001
1000
0001
0100
1000
0010
,  // measure 76
1000
0001
0100
0010
0100
0001
1000
0100
,  // measure 77
1000
0010
0001
1000
0001
0010
0100
0010
,  // measure 78
0100
0000
0000
0000
0010
0000
1000
0000
0001
0100
0000
1000
0000
0100
0000
0010
,  // measure 79
0100
0010
0100
1000
0010
1000
0001
0010
,  // measure 80
0100
1000
0010
1000
0010
1000
0001
1000
,  // measure 81
0001
1000
0100
0010
0100
1000
0001
1000
,  // measure 82
0010
1000
0001
0100
0010
1000
0001
1000
,  // measure 83
0010
1000
0001
0001
1000
1000
0010
0010
,  // measure 84
0100
0100
1000
1000
0001
0001
0010
0010
,  // measure 85
0100
0100
1000
0001
1000
0001
1000
0010
,  // measure 86
0010
0010
1000
0001
0001
1000
0010
1000
,  // measure 87
0100
0100
2002
0000
0000
0000
0000
0000
,  // measure 88
3003
0000
0000
0000
;
