#VERSION:0.83;
#TITLE:In The Depths;
#SUBTITLE:(DWI Version);
#ARTIST:Dave Phaneuf;
#TITLETRANSLIT:;
#SUBTITLETRANSLIT:;
#ARTISTTRANSLIT:;
#GENRE:;
#ORIGIN:;
#CREDIT:;
#BANNER:Depths DWI bn.png;
#BACKGROUND:Depths DWI Bg.png;
#PREVIEWVID:;
#JACKET:;
#CDIMAGE:;
#DISCIMAGE:;
#LYRICSPATH:;
#CDTITLE:;
#MUSIC:In The Depths (DWI Version).mp3;
#OFFSET:-0.035000;
#SAMPLESTART:73.874992;
#SAMPLELENGTH:12.000000;
#SELECTABLE:YES;
#BPMS:0.000=130.000;
#STOPS:;
#DELAYS:;
#WARPS:;
#TIMESIGNATURES:0.000=4=4;
#TICKCOUNTS:0.000=4;
#COMBOS:0.000=1;
#SPEEDS:0.000=1.000=0.000=0;
#SCROLLS:0.000=1.000;
#FAKES:;
#LABELS:0.000=Song Start;
#BGCHANGES:;
#KEYSOUNDS:;
#ATTACKS:
;

//---------------dance-single - ----------------
#NOTEDATA:;
#CHARTNAME:;
#STEPSTYPE:dance-single;
#DESCRIPTION:;
#CHARTSTYLE:;
#DIFFICULTY:Easy;
#METER:2;
#RADARVALUES:0.157257,0.246579,0.105677,0.000000,0.000000,125.000000,113.000000,12.000000,0.000000,0.000000,0.000000,0.000000,0.000000,0.000000,0.157257,0.246579,0.105677,0.000000,0.000000,125.000000,113.000000,12.000000,0.000000,0.000000,0.000000,0.000000,0.000000,0.000000;
#CREDIT:;
#NOTES:
// measure 0
0000
0000
0000
0000
,  // measure 1
0000
0000
0000
0000
,  // measure 2
0000
0000
0000
0000
,  // measure 3
0000
0000
0000
0000
,  // measure 4
1000
0000
0000
0000
,  // measure 5
1000
0000
0000
0000
,  // measure 6
0001
0000
0000
0000
,  // measure 7
0001
0000
0000
0000
,  // measure 8
0010
0000
0000
0000
,  // measure 9
0100
0000
0000
0000
,  // measure 10
0010
0000
0000
0000
,  // measure 11
1000
0000
0001
0000
,  // measure 12
1001
0000
1000
0000
,  // measure 13
0001
0000
0001
0000
,  // measure 14
0100
0000
0100
0000
,  // measure 15
0010
0000
0010
0000
,  // measure 16
1000
0000
1000
0000
,  // measure 17
0001
0000
1000
0000
,  // measure 18
0100
0000
0100
0000
,  // measure 19
0010
0000
0100
0000
,  // measure 20
1001
0000
0100
0000
,  // measure 21
0001
0000
0010
0000
,  // measure 22
0001
0000
1000
0000
,  // measure 23
0100
0000
1000
0000
,  // measure 24
0010
0000
0001
0000
,  // measure 25
0100
0000
0001
0000
,  // measure 26
1000
0000
0100
0000
,  // measure 27
0001
0000
0010
0100
,  // measure 28
1001
0000
1000
0000
,  // measure 29
0001
0000
0100
0000
,  // measure 30
0010
0000
1000
0000
,  // measure 31
0010
0000
0001
0000
,  // measure 32
0100
0000
1000
0000
,  // measure 33
0010
0000
0001
0000
,  // measure 34
0010
0000
1000
0000
,  // measure 35
0100
0001
0010
1000
,  // measure 36
1001
0000
0000
0000
,  // measure 37
1000
0000
0000
0000
,  // measure 38
0001
0000
0000
0000
,  // measure 39
1001
0000
0000
0000
,  // measure 40
1000
0000
1000
0000
,  // measure 41
0001
0000
0001
0000
,  // measure 42
1000
0000
1000
0000
,  // measure 43
0001
0000
0001
0000
,  // measure 44
0010
0000
1001
0000
,  // measure 45
0110
0000
0001
0000
,  // measure 46
0110
0000
1001
0000
,  // measure 47
0010
0000
0100
0000
,  // measure 48
1001
0100
0010
1000
,  // measure 49
0001
0100
1000
0100
,  // measure 50
0001
0010
1000
0010
,  // measure 51
0001
0100
1000
0100
,  // measure 52
1001
0010
1000
0100
,  // measure 53
0001
0010
1000
0100
,  // measure 54
0001
0100
1000
0010
,  // measure 55
0001
0100
1000
0010
,  // measure 56
1001
0000
0000
0000
;

//---------------dance-single - ----------------
#NOTEDATA:;
#CHARTNAME:;
#STEPSTYPE:dance-single;
#DESCRIPTION:;
#CHARTSTYLE:;
#DIFFICULTY:Medium;
#METER:5;
#RADARVALUES:0.354771,0.419184,0.246579,0.070451,0.000000,282.000000,254.000000,28.000000,8.000000,0.000000,0.000000,0.000000,0.000000,0.000000,0.354771,0.419184,0.246579,0.070451,0.000000,282.000000,254.000000,28.000000,8.000000,0.000000,0.000000,0.000000,0.000000,0.000000;
#CREDIT:;
#NOTES:
// measure 0
0000
0000
0000
0000
,  // measure 1
0000
0000
0000
0000
,  // measure 2
0000
0000
0000
0000
,  // measure 3
0000
0000
0000
0000
,  // measure 4
1001
0100
0001
0010
,  // measure 5
1001
0010
1000
0001
,  // measure 6
0110
1000
0010
0001
,  // measure 7
0110
0001
0100
0010
,  // measure 8
1100
0100
1000
0100
,  // measure 9
0011
0001
0010
0001
,  // measure 10
0110
0010
1001
0001
,  // measure 11
1010
0101
1001
0110
,  // measure 12
1001
0000
0100
0000
0010
0000
0001
1000
,  // measure 13
0001
0000
1000
0000
0001
0000
0100
0010
,  // measure 14
0100
0000
0010
0000
0100
0000
1000
0001
,  // measure 15
1000
0001
1000
0010
,  // measure 16
1000
0000
0100
0000
0001
0000
0100
1000
,  // measure 17
0010
0000
0001
0000
0100
0000
0001
0010
,  // measure 18
1000
0000
0100
0000
0001
0000
1000
0100
,  // measure 19
0010
0000
1000
0000
0100
0000
0001
1000
,  // measure 20
0100
0010
0100
1001
,  // measure 21
1000
0001
1000
1001
,  // measure 22
0010
0100
0010
0110
,  // measure 23
0001
0100
0010
1001
,  // measure 24
0010
0000
0001
0000
1000
0000
0100
0010
,  // measure 25
0001
0000
1000
0000
0010
0000
0100
1000
,  // measure 26
0001
0010
0100
0110
,  // measure 27
1000
0001
0001
0000
1000
0001
0001
0000
,  // measure 28
1001
0000
0100
0000
0001
0000
0100
1000
,  // measure 29
0001
0000
0010
0000
0100
0000
0001
0100
,  // measure 30
0001
1000
0010
0100
,  // measure 31
0010
0001
0010
0100
,  // measure 32
1001
0000
0001
0000
1000
0000
0001
0100
,  // measure 33
1000
0000
0100
0000
0010
0000
1000
0010
,  // measure 34
1000
0001
0100
0010
,  // measure 35
0100
1000
0100
0010
,  // measure 36
0100
0000
0110
0000
0001
0100
1000
0100
,  // measure 37
0001
0000
1001
0000
0100
1000
0010
1000
,  // measure 38
0100
0000
0110
0000
1000
0010
0001
0010
,  // measure 39
1000
0000
1001
0000
0010
0001
0100
0001
,  // measure 40
0010
0100
0001
1000
,  // measure 41
0100
0001
0010
1000
,  // measure 42
0010
0001
0100
1000
,  // measure 43
0010
0001
0100
1000
,  // measure 44
0100
0010
0001
0000
1000
0100
0001
0000
,  // measure 45
0100
1000
0010
0000
1000
0001
0100
0000
,  // measure 46
1000
0100
1000
0000
0010
1000
0010
0000
,  // measure 47
0001
0010
0001
0000
0100
0001
0100
0000
,  // measure 48
1001
0000
0110
0000
0100
0010
0001
0000
,  // measure 49
1000
0010
0100
0000
1000
0001
0100
0000
,  // measure 50
1001
0000
0110
0000
1000
0100
0001
0000
,  // measure 51
0100
1000
0010
0000
0100
0001
0010
0000
,  // measure 52
0002
0203
2300
3020
,  // measure 53
0032
2003
3002
2003
,  // measure 54
3001
0100
0010
1000
0010
1000
0100
1000
,  // measure 55
0010
1000
0100
1000
0010
0001
0100
0001
,  // measure 56
0010
0000
0000
0000
;

//---------------dance-single - ----------------
#NOTEDATA:;
#CHARTNAME:;
#STEPSTYPE:dance-single;
#DESCRIPTION:;
#CHARTSTYLE:;
#DIFFICULTY:Hard;
#METER:8;
#RADARVALUES:0.459190,0.468500,0.272998,0.000000,0.088064,365.000000,334.000000,31.000000,0.000000,0.000000,0.000000,0.000000,0.000000,0.000000,0.459190,0.468500,0.272998,0.000000,0.088064,365.000000,334.000000,31.000000,0.000000,0.000000,0.000000,0.000000,0.000000,0.000000;
#CREDIT:;
#NOTES:
// measure 0
0000
0000
0000
0000
,  // measure 1
0000
0000
0000
0000
,  // measure 2
0000
0000
0000
0000
,  // measure 3
0000
0000
0000
0000
,  // measure 4
0001
0010
0100
0000
1000
0100
0010
0000
,  // measure 5
0001
0010
0100
0000
1000
0100
0010
0000
,  // measure 6
0001
0100
1000
0000
0100
0001
0010
0000
,  // measure 7
1000
0100
0001
0000
0100
1000
0010
0000
,  // measure 8
1000
0001
0100
0000
0001
1000
0010
0000
,  // measure 9
1000
0001
0100
0000
0001
1000
0010
0000
,  // measure 10
0010
0100
0010
0000
1000
0001
1000
0000
,  // measure 11
0010
1000
0001
1000
0100
1000
0001
1000
,  // measure 12
0001
0100
0001
0100
1000
0100
1000
0100
,  // measure 13
0001
0100
0001
0100
1000
0100
1000
0100
,  // measure 14
0010
0001
0010
0001
0010
1000
0010
1000
,  // measure 15
0010
0001
0010
0001
0010
1000
0010
1000
,  // measure 16
0001
0100
1000
0100
0001
0100
1000
0100
,  // measure 17
0001
0100
0001
0100
1000
0100
1000
0100
,  // measure 18
0001
0010
1000
0010
0001
0010
1000
0010
,  // measure 19
0001
0010
0001
0010
1000
0010
1000
0010
,  // measure 20
1001
0000
0000
0000
0100
0000
0000
0000
0010
0000
0000
0000
1000
0100
0001
0000
,  // measure 21
0110
0000
0000
0000
0001
0000
0000
0000
1000
0000
0000
0000
0100
1000
0010
0000
,  // measure 22
1001
0000
0000
0000
0010
0000
0000
0000
0100
0000
0000
0000
0001
0100
1000
0000
,  // measure 23
0110
0000
0000
0000
1000
0000
0000
0000
0001
0000
0000
0000
0010
0001
0100
0000
,  // measure 24
1001
0100
0010
1000
0001
0010
0100
1000
,  // measure 25
0010
0100
0010
1000
0001
0010
0001
1000
,  // measure 26
0010
0100
0001
1000
0100
0010
0001
1000
,  // measure 27
0010
0100
0010
1000
0001
1000
0100
0010
,  // measure 28
1001
0000
1100
0000
0011
0000
1000
0100
,  // measure 29
0001
0000
0000
0000
0100
0000
0000
0000
0010
0000
0000
0000
0001
1000
0100
0010
,  // measure 30
0001
0000
1001
0000
,  // measure 31
0110
0000
1001
0000
,  // measure 32
0110
0000
1010
0000
0101
0000
0010
1000
,  // measure 33
0100
0000
0000
0000
0001
0000
0000
0000
1000
0000
0000
0000
0100
0010
0001
1000
,  // measure 34
0100
1001
0010
1001
,  // measure 35
0100
1001
0010
0000
,  // measure 36
1001
0000
0000
0110
0000
0100
0010
0100
,  // measure 37
1001
0000
0000
0110
0000
0010
0100
0010
,  // measure 38
1001
0000
0000
0110
0000
0001
1000
0001
,  // measure 39
1001
0000
0000
0110
0000
1000
0001
1000
,  // measure 40
1000
0000
0000
0010
0100
0000
0010
0000
0100
0000
0000
0001
1000
0000
0001
0000
,  // measure 41
1000
0000
0000
0010
0100
0000
0010
0000
0100
0000
0000
0001
1000
0000
0001
0000
,  // measure 42
1000
0000
0000
0100
1000
0000
0100
0000
0010
0000
0000
0001
0010
0000
0001
0000
,  // measure 43
1000
0000
0000
0100
1000
0000
0100
0000
0010
0000
0000
0001
0010
0000
0001
0000
,  // measure 44
1000
0001
1000
0010
1000
0100
1000
0010
,  // measure 45
0100
0010
1000
0100
0001
0100
0010
0000
,  // measure 46
1001
1100
0101
1001
,  // measure 47
1000
0000
1000
0000
1000
0001
0000
0100
0000
0010
0000
0100
0010
0000
0001
0000
,  // measure 48
0000
1000
0000
0001
0000
0100
0000
0010
,  // measure 49
0000
0001
0000
0100
0000
1000
0000
0100
,  // measure 50
0000
0001
0000
0010
0000
0100
0000
1000
,  // measure 51
0000
0010
0000
0100
0000
1000
0000
0100
,  // measure 52
1001
0100
0010
0100
0001
1000
0001
1000
,  // measure 53
0010
0100
0010
0100
0001
1000
0001
1000
,  // measure 54
0010
0001
0100
0001
0010
1000
0100
1000
,  // measure 55
0010
0001
0010
1000
0100
0001
0100
0100
,  // measure 56
1001
0000
0000
0000
;
