#TITLE:Imax;
#SUBTITLE:;
#ARTIST:Dj Phyreus;
#TITLETRANSLIT:;
#SUBTITLETRANSLIT:;
#ARTISTTRANSLIT:;
#GENRE:;
#CREDIT:;
#BANNER:imaxlogo.PNG;
#BACKGROUND:imaxbg.PNG;
#LYRICSPATH:;
#CDTITLE:;
#MUSIC:imax.mp3;
#OFFSET:-0.045000;
#SAMPLESTART:60.820000;
#SAMPLELENGTH:12.000000;
#SELECTABLE:YES;
#BPMS:0.000000=150.000000
;
#STOPS:
;
#BGCHANGES:;
#KEYSOUNDS:;
#ATTACKS:;

//---------------dance-single - ----------------
#NOTES:
     dance-single:
     :
     Easy:
     3:
     0.247792,0.365555,0.147436,0.017345,0.000000,200.000000,183.000000,17.000000,2.000000,0.000000,0.000000,0.247792,0.365555,0.147436,0.017345,0.000000,200.000000,183.000000,17.000000,2.000000,0.000000,0.000000:
// measure 0
0000
0000
0000
0000
,  // measure 1
0000
0000
0000
0000
,  // measure 2
0000
0000
0000
0000
,  // measure 3
0000
0000
0000
0000
,  // measure 4
0000
0000
0000
0000
,  // measure 5
0000
0000
0000
0000
,  // measure 6
1000
0000
0001
0000
,  // measure 7
1000
0000
0001
0000
,  // measure 8
0010
0000
0100
0000
,  // measure 9
0010
0000
0100
0100
,  // measure 10
1000
0000
1000
0000
,  // measure 11
0001
0000
0001
0000
,  // measure 12
0010
0000
0010
0000
,  // measure 13
0100
0000
0100
0100
,  // measure 14
0010
0000
1000
0000
,  // measure 15
0001
0000
0100
0000
,  // measure 16
0001
0000
0010
0000
,  // measure 17
0001
0000
0100
0100
,  // measure 18
1000
0000
0100
0000
,  // measure 19
0001
0000
0100
0000
,  // measure 20
0001
0000
0010
0000
,  // measure 21
0100
0000
1000
0010
,  // measure 22
0100
0001
1000
0000
,  // measure 23
0010
1000
0001
0000
,  // measure 24
0010
0100
1000
0000
,  // measure 25
0010
0100
0001
0000
,  // measure 26
1000
0000
0010
0000
,  // measure 27
1000
0000
0100
0000
,  // measure 28
0001
0001
0100
1000
,  // measure 29
0010
0010
1000
0001
,  // measure 30
0010
0000
0100
0000
,  // measure 31
1000
0000
0001
0000
,  // measure 32
0100
0000
0010
0000
,  // measure 33
1000
0001
1000
0001
,  // measure 34
0010
0000
0100
0000
,  // measure 35
0010
0000
1000
0000
,  // measure 36
0001
0000
0100
0000
,  // measure 37
0001
1000
0001
1000
,  // measure 38
0010
0100
1000
0001
,  // measure 39
0100
0010
1000
0100
,  // measure 40
0001
0100
1000
0010
,  // measure 41
0100
0001
0010
0100
,  // measure 42
1000
1000
0010
0100
,  // measure 43
0001
0010
0100
1000
,  // measure 44
0010
0010
0001
0010
,  // measure 45
0100
0100
1000
0100
,  // measure 46
1001
0000
0000
0000
,  // measure 47
0010
0100
0001
0100
,  // measure 48
1000
0000
0000
0000
,  // measure 49
0010
0100
0001
0010
,  // measure 50
1001
0000
0000
0000
,  // measure 51
1100
0000
0101
0000
,  // measure 52
1001
0000
0100
0100
0000
0000
0000
0000
,  // measure 53
1001
0000
1001
0110
,  // measure 54
1000
0001
0010
0100
,  // measure 55
0100
0010
0001
0010
,  // measure 56
1000
0010
0001
0100
,  // measure 57
1000
1000
0000
0010
,  // measure 58
1000
0100
0001
0100
,  // measure 59
1000
0010
1000
0001
,  // measure 60
0010
0100
1000
0100
,  // measure 61
1000
0010
0100
0001
,  // measure 62
1001
0000
0000
0000
,  // measure 63
1000
0010
0100
0001
,  // measure 64
0100
0000
0000
0000
,  // measure 65
0010
0010
0100
0100
,  // measure 66
1001
0000
0100
0000
,  // measure 67
1001
0000
0110
0000
,  // measure 68
1001
0000
0100
0100
0000
0000
0000
0000
,  // measure 69
1001
0000
1001
0110
,  // measure 70
2002
3003
0000
0000
;

//---------------dance-single - ----------------
#NOTES:
     dance-single:
     :
     Medium:
     5:
     0.387795,0.426481,0.260182,0.017345,0.000000,313.000000,283.000000,30.000000,2.000000,0.000000,0.000000,0.387795,0.426481,0.260182,0.017345,0.000000,313.000000,283.000000,30.000000,2.000000,0.000000,0.000000:
// measure 0
0000
0000
0000
0000
,  // measure 1
0000
0000
0000
0000
,  // measure 2
0000
0000
0000
0000
,  // measure 3
0000
0000
0000
0000
,  // measure 4
0000
0000
0000
0000
,  // measure 5
0000
0000
0000
0000
,  // measure 6
1000
0001
0010
0001
,  // measure 7
1000
0001
0010
0001
,  // measure 8
1000
0001
0100
0001
,  // measure 9
1000
0001
0100
0001
,  // measure 10
1000
0001
0100
0001
,  // measure 11
1000
0001
0010
0001
,  // measure 12
1000
0100
1000
0010
,  // measure 13
1000
0001
0100
0010
,  // measure 14
1001
0000
0001
1000
0000
0010
0000
0100
,  // measure 15
0000
0001
0000
0010
0000
0100
1000
0100
,  // measure 16
1000
0010
0100
0001
,  // measure 17
0100
0000
1001
0000
0000
1000
0001
0000
,  // measure 18
0010
0100
0000
1000
0000
0010
0000
0100
,  // measure 19
0000
0001
0000
0100
0000
0001
0000
0100
,  // measure 20
1000
0000
0010
0100
0000
0001
0000
0010
,  // measure 21
0100
0000
1000
0010
0000
0010
0000
0010
,  // measure 22
0100
0010
0000
1000
0001
0000
0010
0000
,  // measure 23
0000
0100
0000
1000
0001
0000
0100
0000
,  // measure 24
0010
0000
0000
1000
0100
0000
0000
0010
,  // measure 25
0001
0000
0000
0100
0010
0000
0100
0000
,  // measure 26
1001
0000
0000
0010
0100
0000
1000
0000
,  // measure 27
1001
0000
0000
0010
0100
0000
0001
0000
,  // measure 28
1000
1010
0001
0011
,  // measure 29
1000
1100
0001
0101
,  // measure 30
1001
0100
0010
0001
,  // measure 31
0100
0010
0100
0100
,  // measure 32
1001
0000
1000
0010
0000
0100
0001
0000
,  // measure 33
0100
0000
1001
0000
0000
0100
1000
0010
,  // measure 34
0100
0001
0000
0001
0000
1000
0000
0010
,  // measure 35
0000
1000
0000
1000
0000
0001
0000
0010
,  // measure 36
0001
0001
0010
0100
,  // measure 37
1000
1000
0010
0100
,  // measure 38
1001
0000
1000
0000
0010
0000
0100
0001
,  // measure 39
0010
0000
0100
0000
1000
0000
0100
0001
,  // measure 40
0010
0000
0100
0000
1000
0000
0010
0100
,  // measure 41
0001
0000
1000
0000
0001
0000
0010
0100
,  // measure 42
1000
0000
0010
0000
0100
0000
0001
1000
,  // measure 43
0100
0000
0001
0000
0010
0000
0100
0001
,  // measure 44
1000
0000
0100
0000
0001
0000
1000
0001
,  // measure 45
0010
0000
0100
0000
0000
1000
0010
0100
,  // measure 46
0001
1000
0001
0010
,  // measure 47
0100
1000
0000
0001
0000
0010
0000
0100
,  // measure 48
0000
0000
0010
0000
1000
0000
1000
0001
,  // measure 49
0010
0000
0010
0100
1000
0000
0010
0000
,  // measure 50
1001
0100
0100
0000
,  // measure 51
1001
0010
1001
0000
,  // measure 52
1001
0000
1000
0100
0000
0000
0000
0000
,  // measure 53
1001
0100
1001
0110
,  // measure 54
1000
0001
0010
0000
0001
1000
0100
0000
,  // measure 55
0010
0000
0100
0000
0010
0000
0001
1000
,  // measure 56
0010
0000
0100
0000
0000
0001
0010
0100
,  // measure 57
1000
0000
1000
0000
0000
0001
0010
0100
,  // measure 58
1000
0100
0000
1000
0000
0010
0000
0100
,  // measure 59
0000
0001
0000
0010
0000
0100
0000
1000
,  // measure 60
0001
0000
0010
0000
1001
0000
0000
0001
,  // measure 61
1000
0100
1001
0010
,  // measure 62
1001
0000
1000
0010
0000
0100
0001
0000
,  // measure 63
0010
0000
0100
1000
0000
0010
0100
0000
,  // measure 64
0001
0000
0010
0100
0000
1000
0001
0000
,  // measure 65
0100
0000
0010
1000
0000
0100
0010
0000
,  // measure 66
1001
0000
1000
0010
0000
0100
0001
0000
,  // measure 67
1001
0010
1001
0100
,  // measure 68
1001
0000
1000
0100
0000
0000
0010
0000
,  // measure 69
0110
0000
1001
0110
,  // measure 70
2002
3003
0000
0000
;

//---------------dance-single - ----------------
#NOTES:
     dance-single:
     :
     Hard:
     7:
     0.486912,0.548333,0.216818,0.017345,0.047700,393.000000,368.000000,25.000000,2.000000,0.000000,0.000000,0.486912,0.548333,0.216818,0.017345,0.047700,393.000000,368.000000,25.000000,2.000000,0.000000,0.000000:
// measure 0
0000
0000
0000
0000
,  // measure 1
0000
0000
0000
0000
,  // measure 2
0000
0000
0000
0000
,  // measure 3
0000
0000
0000
0000
,  // measure 4
0000
0000
0000
0000
,  // measure 5
0000
0000
0000
0000
,  // measure 6
1000
1000
0100
1000
,  // measure 7
0001
0001
0100
0001
,  // measure 8
1000
1000
0010
1000
,  // measure 9
0001
0001
0010
0001
,  // measure 10
0010
1000
0100
1000
,  // measure 11
0100
0001
0100
1000
,  // measure 12
0010
0010
1000
0100
,  // measure 13
1000
1000
0001
0010
,  // measure 14
0010
0001
0100
0001
0000
1000
0100
1000
,  // measure 15
0000
0010
1000
0010
0000
0100
0001
0010
,  // measure 16
0001
0000
0010
0010
0000
0100
1000
0100
,  // measure 17
0000
0000
0010
0000
0000
1000
0010
0100
,  // measure 18
0001
1000
0000
0100
0000
0011
0000
1001
,  // measure 19
0000
0010
0000
0100
0000
1001
0000
1000
,  // measure 20
0010
0100
0001
0100
0000
0001
0010
0100
,  // measure 21
1000
0001
0100
0001
0000
0001
0010
0100
,  // measure 22
1000
0000
0010
0000
0000
0000
1000
0001
0000
0000
0010
0000
0100
0000
1000
0000
,  // measure 23
0000
0000
0100
0000
0000
0000
1000
0001
0000
0000
0100
0000
0010
0000
1000
0000
,  // measure 24
0001
0010
0001
0010
0001
0100
0001
0010
,  // measure 25
0001
1000
0001
1000
0100
1000
0001
1000
,  // measure 26
0000
0000
0001
0000
0000
0000
0001
1000
0000
0000
0001
0000
0010
0000
0100
0000
,  // measure 27
0000
0000
1000
0000
0000
0000
1000
0001
0000
0000
1000
0000
0010
0000
0100
0000
,  // measure 28
0001
0010
0100
1000
0001
0010
0100
1000
,  // measure 29
0001
1000
0010
0100
0001
1000
0010
0100
,  // measure 30
1000
0010
0100
0001
0000
0001
0100
0010
,  // measure 31
0000
0010
0100
0001
0000
0001
0100
0010
,  // measure 32
1000
0000
0100
0100
0000
0010
0001
0100
,  // measure 33
0010
0000
1001
0000
0000
1000
0010
0100
,  // measure 34
0001
0010
0000
0100
0000
1000
0000
1001
,  // measure 35
0000
0110
0000
1001
0000
1000
0000
1000
,  // measure 36
0010
1000
0100
1000
0000
1000
0010
1000
,  // measure 37
0010
0100
0001
0010
0000
0001
0010
0100
,  // measure 38
1000
0000
0000
0000
0010
0000
0000
0100
0000
0000
0001
0000
0010
0000
0000
0000
,  // measure 39
0001
0000
0000
0000
0010
0000
0000
0100
0000
0000
1000
0000
0010
0000
0000
0000
,  // measure 40
1000
0000
0000
0000
0100
0000
0000
0010
0000
0000
0001
0000
0100
0000
0000
0000
,  // measure 41
0001
0000
0000
0000
0100
0000
0000
0010
0000
0000
1000
0000
0100
0000
0000
0000
,  // measure 42
1000
0001
0000
0001
0010
0100
0000
1000
,  // measure 43
0000
0010
0000
1000
0010
1000
0000
1000
,  // measure 44
0010
0100
0001
0010
0000
0100
1000
0010
,  // measure 45
0000
0100
0001
0010
0000
0100
0010
0001
,  // measure 46
0100
0000
0000
0000
0010
0000
0000
1000
0000
0000
0001
0000
1000
0000
0000
0000
,  // measure 47
0010
0100
0000
0001
0000
0010
0000
0100
,  // measure 48
0000
0000
1001
0000
0000
0000
0000
1000
,  // measure 49
0001
0010
0100
1000
0001
0010
0100
1000
,  // measure 50
1001
0000
0000
0000
1000
0000
0001
1000
0000
0001
1000
0000
0001
0000
0000
0000
,  // measure 51
1001
0100
1001
0010
,  // measure 52
1001
0000
1000
0010
0000
0100
0001
0000
,  // measure 53
1001
0100
1001
0110
,  // measure 54
1001
1000
0100
0010
0000
0001
0010
0100
,  // measure 55
0100
1000
0010
0100
0100
0001
0100
0010
,  // measure 56
1000
0000
0100
0100
0000
0010
0001
0100
,  // measure 57
0010
0000
1001
0000
0000
0100
1000
0001
,  // measure 58
0100
0001
0000
0010
0100
1000
0000
0100
,  // measure 59
0000
0001
0000
0010
1000
0010
0000
0010
,  // measure 60
0100
0001
0010
0100
0000
1000
1000
0010
,  // measure 61
0100
0001
0010
0100
0000
1000
0010
1000
,  // measure 62
0001
0100
1000
0100
0001
1000
0100
0010
,  // measure 63
0001
1000
0100
0001
0100
1000
0010
0100
,  // measure 64
0001
0010
0001
0000
1000
0100
1000
0010
,  // measure 65
0100
0001
1000
0100
0010
0001
0100
0010
,  // measure 66
1001
0000
1000
0010
0100
0000
0001
0000
,  // measure 67
1001
0000
0100
0000
1001
0000
1000
0010
,  // measure 68
1001
0000
0010
1000
0000
0100
0010
0000
,  // measure 69
1001
0010
1001
0110
,  // measure 70
2002
3003
0000
0000
;
