#VERSION:0.83;
#TITLE:Imax;
#SUBTITLE:(Hyper FST Mix);
#ARTIST:Dj Phyreus feat. Dj Slash;
#TITLETRANSLIT:;
#SUBTITLETRANSLIT:;
#ARTISTTRANSLIT:;
#GENRE:;
#ORIGIN:;
#CREDIT:;
#BANNER:Imaxfbn2.png;
#BACKGROUND:imaxrfbg.png;
#PREVIEWVID:;
#JACKET:;
#CDIMAGE:;
#DISCIMAGE:;
#LYRICSPATH:;
#CDTITLE:;
#MUSIC:Imax (Hyper FST Mix).mp3;
#OFFSET:-0.040000;
#SAMPLESTART:54.165001;
#SAMPLELENGTH:12.000000;
#SELECTABLE:YES;
#BPMS:0.000=168.450;
#STOPS:;
#DELAYS:;
#WARPS:;
#TIMESIGNATURES:0.000=4=4;
#TICKCOUNTS:0.000=4;
#COMBOS:0.000=1;
#SPEEDS:0.000=1.000=0.000=0;
#SCROLLS:0.000=1.000;
#FAKES:;
#LABELS:0.000=Song Start;
#BGCHANGES:;
#KEYSOUNDS:;
#ATTACKS:
;

//---------------dance-single - ----------------
#NOTEDATA:;
#CHARTNAME:;
#STEPSTYPE:dance-single;
#DESCRIPTION:;
#CHARTSTYLE:;
#DIFFICULTY:Easy;
#METER:5;
#RADARVALUES:0.327017,0.414228,0.151168,0.053989,0.000000,212.000000,198.000000,14.000000,5.000000,0.000000,0.000000,0.000000,0.000000,0.000000,0.327017,0.414228,0.151168,0.053989,0.000000,212.000000,198.000000,14.000000,5.000000,0.000000,0.000000,0.000000,0.000000,0.000000;
#CREDIT:;
#NOTES:
// measure 0
0000
0000
0000
0000
,  // measure 1
0000
0000
0000
0000
,  // measure 2
0000
0000
0000
0000
,  // measure 3
0000
0000
0000
0000
,  // measure 4
0000
0000
0000
0000
,  // measure 5
1000
1000
0010
0100
,  // measure 6
0001
0001
0010
0100
,  // measure 7
1000
1000
0010
0100
,  // measure 8
0001
0100
1000
0010
,  // measure 9
1001
0100
0001
0100
,  // measure 10
1001
1000
0100
1000
,  // measure 11
1001
1000
0010
1000
,  // measure 12
1001
0010
0001
0010
,  // measure 13
1001
0010
0100
0010
,  // measure 14
1001
0100
0010
0100
,  // measure 15
0001
1000
0100
0001
,  // measure 16
0010
0001
0100
1000
,  // measure 17
1001
1000
0010
0001
,  // measure 18
0001
0010
0100
1000
,  // measure 19
0010
0001
0000
1000
,  // measure 20
0100
0000
0100
0000
0010
0010
0010
0000
,  // measure 21
1001
0000
0000
0000
,  // measure 22
1000
0000
0001
0000
,  // measure 23
0010
0000
0100
1000
0000
0000
0000
0000
,  // measure 24
0010
0000
0100
0100
,  // measure 25
0000
0000
0000
0000
,  // measure 26
0010
0000
0000
0000
,  // measure 27
1000
0000
0001
0000
,  // measure 28
0010
0000
0100
1000
0000
0000
0000
0000
,  // measure 29
0010
0000
0100
0001
,  // measure 30
1000
0010
0000
0100
0000
0001
0000
0010
,  // measure 31
0000
0100
0000
1000
0000
0001
0000
1000
,  // measure 32
0001
0010
0100
0100
,  // measure 33
0010
0010
0100
0100
,  // measure 34
0001
0010
0100
1000
,  // measure 35
0010
0100
0001
0010
,  // measure 36
0001
0000
1000
0000
0001
1000
0001
0000
,  // measure 37
1000
0000
0001
0000
1000
0001
1000
0000
,  // measure 38
1001
1000
0001
0000
,  // measure 39
0010
0000
0100
0000
0010
0010
0010
0000
,  // measure 40
1001
1000
0001
0000
,  // measure 41
0100
0000
0010
0000
0100
0100
0100
0000
,  // measure 42
1001
0001
0010
0001
,  // measure 43
0100
0000
0010
0000
1000
0000
0100
0100
,  // measure 44
0100
0001
0010
0100
,  // measure 45
1000
0010
0100
0100
,  // measure 46
1001
0100
0010
0100
,  // measure 47
1001
1000
0010
0100
,  // measure 48
0001
0001
0010
0001
,  // measure 49
0100
0001
1000
0001
,  // measure 50
0010
1000
0100
0001
,  // measure 51
0010
0001
0100
1000
,  // measure 52
0010
0010
1000
0100
,  // measure 53
0001
0001
0100
0001
,  // measure 54
0010
0001
0100
1000
,  // measure 55
0100
0001
0100
1000
,  // measure 56
0010
0000
0010
0000
,  // measure 57
0100
0000
0100
0000
,  // measure 58
0002
0000
0000
0000
,  // measure 59
2003
0000
0000
3000
,  // measure 60
2002
0000
0000
3003
,  // measure 61
0020
0000
0000
0000
,  // measure 62
0000
0000
0000
0000
,  // measure 63
0000
0000
0000
0000
0000
0000
0000
0000
0000
0000
0000
0000
0000
0000
0000
0030
;

//---------------dance-single - ----------------
#NOTEDATA:;
#CHARTNAME:;
#STEPSTYPE:dance-single;
#DESCRIPTION:;
#CHARTSTYLE:;
#DIFFICULTY:Medium;
#METER:6;
#RADARVALUES:0.411857,0.586823,0.356325,0.053989,0.000000,267.000000,234.000000,33.000000,5.000000,0.000000,0.000000,0.000000,0.000000,0.000000,0.411857,0.586823,0.356325,0.053989,0.000000,267.000000,234.000000,33.000000,5.000000,0.000000,0.000000,0.000000,0.000000,0.000000;
#CREDIT:;
#NOTES:
// measure 0
0000
0000
0000
0000
,  // measure 1
0000
0000
0000
0000
,  // measure 2
0000
0000
0000
0000
,  // measure 3
0000
0000
0000
0000
,  // measure 4
0000
0000
0000
0000
,  // measure 5
0100
1001
0010
1001
,  // measure 6
1000
1100
0001
0101
,  // measure 7
1000
0110
0001
0110
,  // measure 8
1000
1010
0001
0011
,  // measure 9
1000
0000
0001
0000
1000
0000
0001
0100
,  // measure 10
0010
0000
0100
0000
0100
0000
0010
0100
,  // measure 11
0001
0000
1000
0000
0001
0000
1000
0010
,  // measure 12
0100
0000
0010
0000
0010
0000
0100
0010
,  // measure 13
1000
0110
0001
0110
,  // measure 14
0010
1000
0100
0001
,  // measure 15
0001
0110
1000
0110
,  // measure 16
0010
0001
0100
1000
,  // measure 17
0100
0010
0000
0001
0000
1000
0000
0010
,  // measure 18
0100
0001
0000
1000
0000
0100
0000
0010
,  // measure 19
0001
0100
0000
0010
0000
1000
0000
0100
,  // measure 20
1000
0010
0000
0100
0000
0001
0000
0010
,  // measure 21
0100
0000
0000
0000
,  // measure 22
1001
0000
0110
0000
,  // measure 23
1010
0000
0001
0100
0000
0000
0000
0000
,  // measure 24
1001
0000
1001
0110
,  // measure 25
1001
0010
0100
0100
,  // measure 26
1001
0000
0000
0000
,  // measure 27
0110
0000
1010
0000
,  // measure 28
0101
0000
0001
0010
0000
0000
0000
0000
,  // measure 29
0110
0000
1100
0101
,  // measure 30
1000
0001
1000
0001
0000
0010
0100
0010
,  // measure 31
0000
0001
1000
0001
0000
0010
0100
0010
,  // measure 32
0100
0001
1000
0001
,  // measure 33
0100
0001
1000
0001
,  // measure 34
0100
0001
0010
0001
,  // measure 35
0100
0010
1000
0100
,  // measure 36
1000
0001
1000
0001
1000
0001
1000
0001
,  // measure 37
1000
0001
1000
0001
1000
0001
1000
0001
,  // measure 38
1000
0010
0100
0100
,  // measure 39
0010
0001
0010
0100
,  // measure 40
1001
1000
0001
0010
,  // measure 41
0100
1000
0010
0100
,  // measure 42
1001
0100
0001
0100
,  // measure 43
1000
0100
1000
0000
0010
0000
0100
0100
,  // measure 44
0000
0010
1001
1000
,  // measure 45
0001
0100
0001
0100
0010
0000
0110
0000
,  // measure 46
1001
0000
1000
0010
0100
0000
0001
0000
,  // measure 47
1001
0000
0100
1000
0010
0000
0001
0010
,  // measure 48
0100
0000
1000
0010
0100
0000
0100
0000
,  // measure 49
0010
1000
0001
0100
,  // measure 50
0001
0010
1000
0100
,  // measure 51
1000
0010
1000
0000
0001
0100
0001
0000
,  // measure 52
1000
0010
1000
0000
0001
0100
0001
0000
,  // measure 53
0100
0100
0001
0100
,  // measure 54
1000
1000
0100
1000
,  // measure 55
0010
0010
1000
0010
,  // measure 56
0001
0001
0010
0001
,  // measure 57
0010
0010
0100
0100
,  // measure 58
0020
0000
0000
0000
,  // measure 59
0032
0000
0000
0003
,  // measure 60
2002
0000
0000
3003
,  // measure 61
0200
0000
0000
0000
,  // measure 62
0000
0000
0000
0000
,  // measure 63
0000
0000
0000
0000
0000
0000
0000
0000
0000
0000
0000
0000
0000
0000
0000
0300
;

//---------------dance-single - ----------------
#NOTEDATA:;
#CHARTNAME:;
#STEPSTYPE:dance-single;
#DESCRIPTION:;
#CHARTSTYLE:;
#DIFFICULTY:Hard;
#METER:8;
#RADARVALUES:0.516749,0.621342,0.356325,0.064786,0.000000,335.000000,302.000000,33.000000,6.000000,0.000000,0.000000,0.000000,0.000000,0.000000,0.516749,0.621342,0.356325,0.064786,0.000000,335.000000,302.000000,33.000000,6.000000,0.000000,0.000000,0.000000,0.000000,0.000000;
#CREDIT:;
#NOTES:
// measure 0
0000
0000
0000
0000
,  // measure 1
0000
0000
0000
0000
,  // measure 2
0000
0000
0000
0000
,  // measure 3
0000
0000
0000
0000
,  // measure 4
0000
0000
0000
0000
,  // measure 5
1001
0110
1100
0101
,  // measure 6
1001
0110
1010
0011
,  // measure 7
1001
0110
0101
1100
,  // measure 8
1001
0110
0011
1010
,  // measure 9
0000
0001
0000
0010
0100
1000
0010
0100
,  // measure 10
0000
0001
0000
0100
0010
1000
0100
0010
,  // measure 11
0100
1000
0100
0000
1000
0010
1000
0000
,  // measure 12
0010
0001
0010
0000
0001
0100
0001
0000
,  // measure 13
0000
1000
0000
0010
0100
0010
0100
0010
,  // measure 14
0000
1000
0000
0100
0010
0100
0010
0100
,  // measure 15
1000
0010
0100
0001
1000
0001
1000
0100
,  // measure 16
1000
0001
0100
0010
1000
0100
0010
0000
,  // measure 17
0010
0001
0100
0000
0001
0100
1000
0000
,  // measure 18
0100
0001
0010
0000
0100
1000
0010
0000
,  // measure 19
0100
0001
1000
0001
0100
0001
1000
0010
,  // measure 20
0100
0001
1000
0100
1000
0001
0010
0100
,  // measure 21
0010
1001
1000
0001
,  // measure 22
0110
1000
1001
1000
,  // measure 23
0001
0000
0010
0100
0000
0000
1000
0000
,  // measure 24
1000
0001
1001
0110
,  // measure 25
1001
0100
0100
0100
,  // measure 26
1001
0000
1000
0000
0001
0000
1000
0100
,  // measure 27
0001
0100
1100
1000
,  // measure 28
1001
0000
1000
0100
0000
0000
0100
0000
,  // measure 29
1001
0010
1001
0110
,  // measure 30
1001
1000
0010
0100
0000
0001
0010
0100
,  // measure 31
0000
1000
0010
0100
0000
0001
0010
0100
,  // measure 32
1000
0000
0010
0010
0000
1000
0010
0100
,  // measure 33
0001
0000
0010
0000
1000
0100
0010
0001
,  // measure 34
0100
0010
0000
1000
0000
0001
0000
0100
,  // measure 35
0000
0001
0000
1000
0000
0001
1000
0001
,  // measure 36
1000
0100
0001
0100
1000
0100
0001
0100
,  // measure 37
1000
0100
0001
0100
1000
0100
0001
0100
,  // measure 38
1000
0100
1000
0010
0000
0100
0001
0010
,  // measure 39
0000
0100
1000
0001
0000
1000
0001
0010
,  // measure 40
0100
0100
0010
0100
,  // measure 41
0010
1000
0000
0100
0000
0001
0000
0100
,  // measure 42
1000
0001
0010
0000
0100
1000
0010
0000
,  // measure 43
1000
0001
0100
0000
0001
0010
0100
0000
,  // measure 44
1000
0010
0100
0001
0010
0100
1000
0000
,  // measure 45
0001
0000
1000
0100
1000
0000
0001
0000
,  // measure 46
1001
0000
0010
1000
0100
0010
0001
0000
,  // measure 47
1001
0000
1000
0001
0010
0100
1000
0001
,  // measure 48
0100
0001
0100
0001
1000
0010
1000
0010
,  // measure 49
0100
0001
0010
0000
0100
1000
0001
0000
,  // measure 50
1000
0001
0010
0000
0001
0100
0010
0000
,  // measure 51
1000
0010
0100
0001
0010
0100
0010
0100
,  // measure 52
0010
0001
1000
0010
0100
0010
0100
0010
,  // measure 53
0100
1000
0001
0010
,  // measure 54
0100
0100
0001
0100
,  // measure 55
1000
1000
1000
0100
,  // measure 56
0010
0001
0010
0100
,  // measure 57
1000
1000
0010
0010
,  // measure 58
0020
0000
0000
0000
,  // measure 59
0230
0000
0000
0300
,  // measure 60
2002
0000
0000
3003
,  // measure 61
2002
0000
0000
0000
,  // measure 62
0000
0000
0000
0000
,  // measure 63
0000
0000
0000
0000
0000
0000
0000
0000
0000
0000
0000
0000
0000
0000
0000
3003
;
