#VERSION:0.83;
#TITLE:Ika Uka;
#SUBTITLE:(e=mc² mix);
#ARTIST:Jenny Rom;
#TITLETRANSLIT:;
#SUBTITLETRANSLIT:(E=MC2 Mix);
#ARTISTTRANSLIT:;
#GENRE:;
#ORIGIN:;
#CREDIT:;
#BANNER:ika uka bn2.png;
#BACKGROUND:ika uka bg.png;
#PREVIEWVID:;
#JACKET:;
#CDIMAGE:;
#DISCIMAGE:;
#LYRICSPATH:;
#CDTITLE:;
#MUSIC:Jenny Rom - Ika Uka (E=MC2 Mix) (Short Mix)fixed.mp3;
#OFFSET:-0.900000;
#SAMPLESTART:51.709999;
#SAMPLELENGTH:12.000000;
#SELECTABLE:YES;
#BPMS:0.000=170.000;
#STOPS:;
#DELAYS:;
#WARPS:;
#TIMESIGNATURES:0.000=4=4;
#TICKCOUNTS:0.000=4;
#COMBOS:0.000=1;
#SPEEDS:0.000=1.000=0.000=0;
#SCROLLS:0.000=1.000;
#FAKES:;
#LABELS:0.000=Song Start;
#BGCHANGES:;
#KEYSOUNDS:;
#ATTACKS:
;

//---------------dance-single - ----------------
#NOTEDATA:;
#CHARTNAME:;
#STEPSTYPE:dance-single;
#DESCRIPTION:;
#CHARTSTYLE:;
#DIFFICULTY:Easy;
#METER:4;
#RADARVALUES:0.422654,0.511266,0.518855,0.055197,0.000000,268.000000,221.000000,47.000000,5.000000,0.000000,0.000000,0.000000,0.000000,0.000000,0.422654,0.511266,0.518855,0.055197,0.000000,268.000000,221.000000,47.000000,5.000000,0.000000,0.000000,0.000000,0.000000,0.000000;
#CREDIT:;
#NOTES:
// measure 0
0000
0000
0000
0000
,  // measure 1
0000
0000
0000
0000
,  // measure 2
0000
0000
0000
0000
,  // measure 3
0000
0000
0000
0000
,  // measure 4
1000
1000
0010
0010
,  // measure 5
0100
0100
0001
0001
,  // measure 6
1000
1000
0001
0001
,  // measure 7
0010
0010
0100
0100
,  // measure 8
1000
1001
0001
1001
,  // measure 9
0010
0010
0100
0100
,  // measure 10
1000
1001
0001
1001
,  // measure 11
0010
0010
0100
0100
,  // measure 12
1001
1000
0010
1000
,  // measure 13
0001
0001
0010
0001
,  // measure 14
0100
0100
0010
1000
,  // measure 15
0001
0001
1000
0100
,  // measure 16
0010
0010
0001
0100
,  // measure 17
0010
0010
1000
0001
,  // measure 18
1000
1000
0010
0100
,  // measure 19
0001
0010
1001
0110
,  // measure 20
1001
1000
0100
1000
,  // measure 21
0001
0001
0100
0010
,  // measure 22
1000
1000
0100
0001
,  // measure 23
0100
1000
0010
0001
,  // measure 24
0100
0100
0010
1000
,  // measure 25
0001
0001
0010
0100
,  // measure 26
1000
1000
0010
0100
,  // measure 27
0001
0001
1000
1000
,  // measure 28
0001
0001
0001
0010
,  // measure 29
0100
0100
0100
1000
,  // measure 30
0010
0010
0010
0100
,  // measure 31
0001
1001
1000
1001
,  // measure 32
0001
0001
0001
0010
,  // measure 33
0100
0100
0100
1000
,  // measure 34
0010
0100
0010
1000
,  // measure 35
0110
0110
1001
0110
,  // measure 36
1001
0100
1000
0001
,  // measure 37
0100
0010
1001
0000
,  // measure 38
1001
1000
0200
0300
,  // measure 39
0010
0001
1000
0110
,  // measure 40
1001
0100
0010
0001
,  // measure 41
1000
0100
1001
0000
,  // measure 42
1001
0010
0200
0300
,  // measure 43
1000
0010
1001
0100
,  // measure 44
1001
0100
1000
1000
,  // measure 45
0001
0010
1001
0000
,  // measure 46
1001
0001
0200
0300
,  // measure 47
0001
1000
0001
0110
,  // measure 48
1001
1000
0100
0100
,  // measure 49
0010
0010
1001
0000
,  // measure 50
1001
0100
0020
0030
,  // measure 51
0001
0010
1000
0100
,  // measure 52
1001
0100
0010
0010
,  // measure 53
1001
0010
1001
0000
,  // measure 54
1001
0001
2000
3000
,  // measure 55
0010
0100
1001
0110
,  // measure 56
1001
0100
0010
0010
,  // measure 57
1001
0010
1001
0000
,  // measure 58
1001
0100
1100
1000
,  // measure 59
1001
0001
0101
0001
,  // measure 60
1001
1000
1001
0110
,  // measure 61
1001
0010
0100
1001
;

//---------------dance-single - ----------------
#NOTEDATA:;
#CHARTNAME:;
#STEPSTYPE:dance-single;
#DESCRIPTION:;
#CHARTSTYLE:;
#DIFFICULTY:Medium;
#METER:6;
#RADARVALUES:0.504662,0.511266,0.529895,0.011039,0.000000,320.000000,272.000000,48.000000,1.000000,0.000000,0.000000,0.000000,0.000000,0.000000,0.504662,0.511266,0.529895,0.011039,0.000000,320.000000,272.000000,48.000000,1.000000,0.000000,0.000000,0.000000,0.000000,0.000000;
#CREDIT:;
#NOTES:
// measure 0
0000
0000
0000
0000
,  // measure 1
0000
0000
0000
0000
,  // measure 2
0000
0000
0000
0000
,  // measure 3
0000
0000
0000
0000
,  // measure 4
1000
1001
0001
1001
,  // measure 5
0010
0010
0100
0100
,  // measure 6
1000
1001
0010
0110
,  // measure 7
0100
0100
0001
0001
,  // measure 8
0010
1001
0010
1001
,  // measure 9
0010
0000
1000
0001
1000
0000
0100
0000
,  // measure 10
0010
1001
0010
1001
,  // measure 11
0001
1000
0001
1000
0001
0000
0110
0000
,  // measure 12
1000
0000
0100
1000
0000
0100
1000
0000
,  // measure 13
0010
0000
0100
0001
0000
0100
0001
0000
,  // measure 14
0010
0000
0100
1000
0000
0100
1000
0000
,  // measure 15
0001
0001
1000
0110
,  // measure 16
1001
0000
1000
0010
0000
1000
0010
0000
,  // measure 17
0100
0000
0001
0010
0000
0001
0010
0000
,  // measure 18
0100
0000
1000
0001
0000
1000
0001
0000
,  // measure 19
0010
0100
1001
0110
,  // measure 20
1001
0000
1000
0001
0000
1000
0001
0000
,  // measure 21
0010
0000
0001
1000
0000
0001
1000
0000
,  // measure 22
0010
0000
1000
0001
0000
1000
0001
0000
,  // measure 23
0010
0100
1000
0110
,  // measure 24
0001
0000
0100
0001
0000
0100
0001
0000
,  // measure 25
1000
0000
0100
1000
0000
0100
1000
0000
,  // measure 26
0010
0000
0100
0010
0000
0100
0001
0000
,  // measure 27
1000
0001
0010
0110
,  // measure 28
0100
0000
1000
0100
1000
0000
0001
0010
,  // measure 29
0001
0000
1000
0100
1000
0000
0001
0010
,  // measure 30
0001
0000
1000
0010
1000
0000
0001
0100
,  // measure 31
0001
0010
0100
0110
,  // measure 32
0010
0000
0001
0010
0001
0000
1000
0010
,  // measure 33
1000
0000
0001
0100
0001
0000
0010
0100
,  // measure 34
1000
0001
1000
0010
,  // measure 35
0100
0100
1001
0110
,  // measure 36
1001
0100
1001
0100
,  // measure 37
1000
0000
0001
1000
0001
0000
0010
0000
,  // measure 38
0100
1100
1000
1001
,  // measure 39
0001
0011
0010
0110
,  // measure 40
1001
0100
1001
0100
,  // measure 41
0001
0000
1000
0001
1000
0000
0010
0000
,  // measure 42
0100
0101
0001
1001
,  // measure 43
1000
0000
0010
0100
0001
0000
0100
0000
,  // measure 44
0010
1001
0010
1001
,  // measure 45
0001
0000
1000
0100
1000
0000
0010
0000
,  // measure 46
0100
0101
0001
0011
,  // measure 47
0010
0110
0100
1001
,  // measure 48
0100
1001
0100
1001
,  // measure 49
1000
0000
0001
0010
0001
0000
0100
0000
,  // measure 50
0010
0000
1001
0000
1000
0001
0000
1000
,  // measure 51
0001
0000
0010
0100
1000
0000
0001
0000
,  // measure 52
1001
1001
0110
0110
,  // measure 53
1000
0000
0001
1000
0001
0000
0010
0000
,  // measure 54
0100
1000
0001
0000
0020
0000
0000
0130
,  // measure 55
1000
0001
1000
0110
,  // measure 56
1001
1001
0110
0110
,  // measure 57
0001
0000
1000
0001
1000
0000
0100
0010
,  // measure 58
0001
0000
1000
0000
0001
0010
0000
0001
,  // measure 59
1000
0000
0001
0000
1000
0010
0000
1000
,  // measure 60
0001
0000
1000
0000
0001
0010
0000
0001
,  // measure 61
1000
0000
0010
0100
0001
0000
1001
0000
;

//---------------dance-single - ----------------
#NOTEDATA:;
#CHARTNAME:;
#STEPSTYPE:dance-single;
#DESCRIPTION:;
#CHARTSTYLE:;
#DIFFICULTY:Hard;
#METER:8;
#RADARVALUES:0.649752,0.613519,0.662369,0.044158,0.044158,412.000000,352.000000,60.000000,4.000000,0.000000,0.000000,0.000000,0.000000,0.000000,0.649752,0.613519,0.662369,0.044158,0.044158,412.000000,352.000000,60.000000,4.000000,0.000000,0.000000,0.000000,0.000000,0.000000;
#CREDIT:;
#NOTES:
// measure 0
0000
0000
0000
0000
,  // measure 1
0000
0000
0000
0000
,  // measure 2
0000
0000
0000
0000
,  // measure 3
0000
0000
0000
0000
,  // measure 4
1000
0000
0000
1000
0000
0000
1000
0000
0001
0000
0000
0001
0000
0000
0001
0000
,  // measure 5
0010
0000
0000
0010
0000
0000
0010
0000
0100
0000
0000
0100
0000
0000
0100
0000
,  // measure 6
1000
0000
0000
1000
0000
0000
1000
0000
0010
0000
0000
0010
0000
0000
0010
0000
,  // measure 7
0100
0000
0000
0100
0000
0000
0100
0000
0001
0000
0000
0001
0000
0000
0001
0000
,  // measure 8
1001
1100
1001
1100
,  // measure 9
1000
0001
0100
0010
0100
0000
1001
0000
,  // measure 10
0101
1010
0101
1010
,  // measure 11
0001
1000
0100
0010
0001
0000
0110
0000
,  // measure 12
1000
0000
0100
1000
0000
0100
1000
0010
,  // measure 13
0100
0000
0001
0100
0000
0001
0100
0010
,  // measure 14
1000
0000
0100
1000
0000
0001
1000
0010
,  // measure 15
0100
0001
0100
0010
1000
0000
0110
0000
,  // measure 16
0001
0000
0100
0001
0000
0100
0001
1000
,  // measure 17
0100
1000
0001
1000
0000
1000
0100
0010
,  // measure 18
0001
0000
1000
0001
0000
1000
0001
0010
,  // measure 19
0100
1000
0001
0000
1001
0000
0110
0000
,  // measure 20
1001
0000
1000
0100
0000
0010
0001
1000
,  // measure 21
0010
0100
0001
0100
0000
0001
1000
0100
,  // measure 22
0010
0100
1000
0001
0000
1000
0010
0100
,  // measure 23
0001
1000
0001
0010
0100
0000
0110
0000
,  // measure 24
1001
0000
1000
0001
0000
0100
0010
1000
,  // measure 25
0001
0010
0001
1000
0000
0100
0010
0001
,  // measure 26
1000
0001
0100
0010
0000
0100
0010
1000
,  // measure 27
0001
0100
0001
1000
1001
0000
0110
0000
,  // measure 28
1000
0100
1000
0010
0100
0001
1000
0010
,  // measure 29
0100
0001
1000
0100
1000
0001
0010
0001
,  // measure 30
1000
0010
0100
0010
1000
0001
0010
0100
,  // measure 31
1000
0000
0100
0010
0000
0001
1000
0001
,  // measure 32
0010
0001
1000
0100
1000
0010
0100
0001
,  // measure 33
0100
0010
1000
0001
1000
0100
0010
0001
,  // measure 34
1000
0000
0001
1000
0000
0001
1000
0001
,  // measure 35
1001
0110
1001
0110
,  // measure 36
1001
1100
1001
0101
,  // measure 37
0001
1000
0001
1000
1010
0000
0001
0000
,  // measure 38
1000
0100
1000
0010
0200
0000
0000
0301
,  // measure 39
0010
0001
1000
0010
0100
0000
0110
0000
,  // measure 40
1001
1010
1001
0011
,  // measure 41
0001
1000
0001
0100
0101
0000
0100
0000
,  // measure 42
0001
1000
0001
0100
0010
0020
0000
0130
,  // measure 43
0001
1000
0001
0010
0100
0000
0010
0000
,  // measure 44
1001
0110
1001
0110
,  // measure 45
1000
0100
1000
0001
1001
0000
0100
0000
,  // measure 46
1000
0001
0010
0001
2000
0000
0000
3100
,  // measure 47
0010
0001
1000
0010
0100
0000
0110
0000
,  // measure 48
1001
0110
1001
0110
,  // measure 49
0001
0010
0001
1000
1001
0000
0100
0000
,  // measure 50
1000
0001
0010
0100
1000
0002
0000
0103
,  // measure 51
0010
1000
0001
0010
0100
0000
0010
0000
,  // measure 52
1001
0110
1001
1010
,  // measure 53
0001
0010
0001
1000
1010
0000
0001
0000
,  // measure 54
1000
0010
0100
0001
1000
0001
0010
0100
,  // measure 55
1000
0001
1000
0010
0100
0000
0110
0000
,  // measure 56
1001
0110
1001
0011
,  // measure 57
1000
0001
1000
0010
1001
0000
1000
0001
,  // measure 58
1000
0100
0010
0001
1000
1001
0000
1000
,  // measure 59
0001
0010
0100
1000
0001
1001
0000
1000
,  // measure 60
0001
0010
0100
1000
0010
1001
0000
1000
,  // measure 61
0001
0010
0001
1000
0110
0000
1001
0000
;
