#VERSION:0.83;
#TITLE:If You Were Here;
#SUBTITLE:(Quiqman Mix);
#ARTIST:Jennifer;
#TITLETRANSLIT:;
#SUBTITLETRANSLIT:;
#ARTISTTRANSLIT:;
#GENRE:;
#ORIGIN:;
#CREDIT:;
#BANNER:iywh QM bn2.png;
#BACKGROUND:iywh QM bg.png;
#PREVIEWVID:;
#JACKET:;
#CDIMAGE:;
#DISCIMAGE:;
#LYRICSPATH:;
#CDTITLE:;
#MUSIC:Jennifer - If You Were Here (Quiqman Mix)(Short Mix).mp3;
#OFFSET:-1.250000;
#SAMPLESTART:38.404999;
#SAMPLELENGTH:12.000000;
#SELECTABLE:YES;
#BPMS:0.000=155.000;
#STOPS:;
#DELAYS:;
#WARPS:;
#TIMESIGNATURES:0.000=4=4;
#TICKCOUNTS:0.000=4;
#COMBOS:0.000=1;
#SPEEDS:0.000=1.000=0.000=0;
#SCROLLS:0.000=1.000;
#FAKES:;
#LABELS:0.000=Song Start;
#BGCHANGES:;
#KEYSOUNDS:;
#ATTACKS:
;

//---------------dance-single - ----------------
#NOTEDATA:;
#CHARTNAME:;
#STEPSTYPE:dance-single;
#DESCRIPTION:;
#CHARTSTYLE:;
#DIFFICULTY:Easy;
#METER:4;
#RADARVALUES:0.371615,0.439531,0.302738,0.179400,0.000000,232.000000,205.000000,27.000000,16.000000,0.000000,0.000000,0.000000,0.000000,0.000000,0.371615,0.439531,0.302738,0.179400,0.000000,232.000000,205.000000,27.000000,16.000000,0.000000,0.000000,0.000000,0.000000,0.000000;
#CREDIT:;
#NOTES:
// measure 0
0000
0000
0000
0000
,  // measure 1
0000
0000
0000
0000
,  // measure 2
0000
0000
0000
0000
,  // measure 3
0000
0000
0000
0000
,  // measure 4
2000
3000
0001
0001
,  // measure 5
0200
0300
0010
0010
,  // measure 6
2000
3000
0001
0001
,  // measure 7
0100
0100
0010
0010
,  // measure 8
1000
1000
0001
0010
,  // measure 9
1000
0100
1001
0000
,  // measure 10
0001
0001
0010
1000
,  // measure 11
0001
0100
1001
0000
,  // measure 12
0100
0100
0010
0001
,  // measure 13
1000
0100
1001
0000
,  // measure 14
0001
1000
0010
0100
,  // measure 15
0001
0100
1001
0110
,  // measure 16
1001
2000
0000
0000
,  // measure 17
3001
0010
0100
0100
,  // measure 18
1000
0001
0010
0001
,  // measure 19
1000
0010
0100
0110
,  // measure 20
1001
0002
0000
0000
,  // measure 21
0013
0100
1000
0001
,  // measure 22
1000
0110
0001
0110
,  // measure 23
1000
0100
1001
0110
,  // measure 24
1001
1000
0020
0130
,  // measure 25
0001
0020
0230
0320
,  // measure 26
0031
2000
3200
0320
,  // measure 27
0031
0100
1001
0100
,  // measure 28
1001
1000
0020
0130
,  // measure 29
0001
2000
3200
0320
,  // measure 30
0031
1000
0010
0100
,  // measure 31
0010
1000
0001
0000
1001
0000
0100
0000
,  // measure 32
1000
0000
0000
0010
0000
0000
0100
0000
,  // measure 33
0000
0001
0000
0000
1000
0000
0100
0000
,  // measure 34
0010
0001
1000
0000
0010
0000
0100
0000
,  // measure 35
0001
1000
0001
0000
1001
0000
0100
0000
,  // measure 36
0001
0000
0000
0010
0000
0000
0100
0000
,  // measure 37
0000
1000
0000
0000
0001
0000
0010
0000
,  // measure 38
0001
1000
0100
0000
0010
0000
0001
0000
,  // measure 39
1000
0001
1000
0000
1001
0000
0100
0000
,  // measure 40
1001
0001
0010
0010
,  // measure 41
0100
1000
0001
1000
,  // measure 42
0001
0001
0010
0010
,  // measure 43
0001
1000
0010
0010
,  // measure 44
1001
0100
0001
0001
,  // measure 45
0100
0010
1000
1000
,  // measure 46
0001
0001
0010
0010
,  // measure 47
0100
1001
0100
1001
,  // measure 48
1001
0100
0010
0010
,  // measure 49
0001
0000
1000
0000
0010
0100
0001
0000
,  // measure 50
1000
0001
0100
0100
,  // measure 51
0001
0000
1000
0000
0100
0100
0100
0000
,  // measure 52
1001
0100
0010
0010
,  // measure 53
1000
0000
0001
0000
0010
0100
1000
0000
,  // measure 54
0001
1001
1000
1010
,  // measure 55
0010
0100
0001
0000
0010
0100
1000
0000
,  // measure 56
1001
0000
0000
0000
;

//---------------dance-single - ----------------
#NOTEDATA:;
#CHARTNAME:;
#STEPSTYPE:dance-single;
#DESCRIPTION:;
#CHARTSTYLE:;
#DIFFICULTY:Medium;
#METER:6;
#RADARVALUES:0.414863,0.502321,0.235463,0.280313,0.000000,259.000000,238.000000,21.000000,25.000000,0.000000,0.000000,0.000000,0.000000,0.000000,0.414863,0.502321,0.235463,0.280313,0.000000,259.000000,238.000000,21.000000,25.000000,0.000000,0.000000,0.000000,0.000000,0.000000;
#CREDIT:;
#NOTES:
// measure 0
0000
0000
0000
0000
,  // measure 1
0000
0000
0000
0000
,  // measure 2
0000
0000
0000
0000
,  // measure 3
0000
0000
0000
0000
,  // measure 4
1000
0000
1000
0000
0001
0001
0001
0000
,  // measure 5
0100
0000
0100
0000
0010
0010
0010
0000
,  // measure 6
1000
0000
1000
0000
0001
0001
0001
0000
,  // measure 7
0100
0000
0100
0000
0010
0010
0010
0000
,  // measure 8
1000
0000
0110
0000
0001
0010
0000
0001
,  // measure 9
1000
0000
0100
0010
0001
0000
1000
0000
,  // measure 10
0001
0100
0001
0000
1000
0000
0010
0000
,  // measure 11
0001
0100
0001
0000
1001
0000
0100
0000
,  // measure 12
1000
0000
0110
0000
0001
0010
0000
0010
,  // measure 13
0100
0000
1000
0001
0000
1000
0000
0100
,  // measure 14
0010
0000
0001
0100
0010
0000
1000
0000
,  // measure 15
0010
0100
0000
0100
0001
0000
1001
0000
,  // measure 16
1000
0100
2000
0000
3010
0100
0000
0002
,  // measure 17
0000
0013
0200
0000
0300
1000
0001
0000
,  // measure 18
0010
0000
0100
0000
0010
0001
0000
1000
,  // measure 19
0000
0010
0000
0100
0000
0001
1000
0000
,  // measure 20
0001
0010
0002
0000
0013
0100
0000
1001
,  // measure 21
0000
0010
0000
0100
0000
0001
1000
0000
,  // measure 22
0100
1001
0110
1010
,  // measure 23
1001
0011
0110
1100
,  // measure 24
1000
0000
0000
0020
0000
0000
0130
0000
,  // measure 25
0000
0002
0000
0000
2003
0000
3020
0000
,  // measure 26
1030
0100
0000
0010
0000
0001
0000
0010
,  // measure 27
0000
0100
1000
0002
0000
0000
0003
0000
,  // measure 28
0100
0000
0000
0020
0000
0000
1030
0000
,  // measure 29
0000
0002
0000
0000
0203
0000
0320
0000
,  // measure 30
1030
0100
0000
1000
0000
0001
0000
0010
,  // measure 31
0000
0100
0000
2002
0000
0000
3003
0000
,  // measure 32
0001
0000
0000
0020
0000
0000
0130
0000
,  // measure 33
0000
2000
0000
0000
3002
0000
0023
0000
,  // measure 34
0031
1000
0000
0100
0000
0010
0000
0001
,  // measure 35
0000
0010
0100
2000
0000
0000
3001
0000
,  // measure 36
1001
0000
0000
0002
0000
0000
0103
0000
,  // measure 37
0000
0020
0000
0000
2030
0000
3002
0000
,  // measure 38
0013
0100
0000
1000
0000
0100
0000
0010
,  // measure 39
0000
0001
0100
2000
0000
0000
3100
0000
,  // measure 40
0001
0000
0001
0000
0010
0010
0010
0000
,  // measure 41
0100
0000
0100
0000
1000
1000
1000
0000
,  // measure 42
0100
0000
0100
0000
0010
0010
0010
0000
,  // measure 43
0001
0000
0001
0000
1000
1000
1000
0000
,  // measure 44
0100
0000
0100
0000
0010
0010
0010
0000
,  // measure 45
0001
0000
0001
0000
1000
1000
1000
0000
,  // measure 46
0010
0000
0010
0000
0100
0100
0100
0000
,  // measure 47
0001
0000
0001
0000
1000
1000
1000
0000
,  // measure 48
0001
0010
0001
0000
0010
0100
1000
0000
,  // measure 49
0100
1001
0100
1001
,  // measure 50
1000
0010
1000
0000
0010
0100
0001
0000
,  // measure 51
0100
1001
0100
1001
,  // measure 52
0001
1000
0001
0000
0100
0010
1000
0000
,  // measure 53
0100
1001
0010
1001
,  // measure 54
1000
0010
1000
0000
0001
0100
0001
0000
,  // measure 55
0010
1000
0001
1000
0010
0100
0001
0000
,  // measure 56
1001
0000
0000
0000
;

//---------------dance-single - ----------------
#NOTEDATA:;
#CHARTNAME:;
#STEPSTYPE:dance-single;
#DESCRIPTION:;
#CHARTSTYLE:;
#DIFFICULTY:Hard;
#METER:8;
#RADARVALUES:0.568635,0.565111,0.078488,0.213038,0.011213,355.000000,348.000000,7.000000,19.000000,0.000000,0.000000,0.000000,0.000000,0.000000,0.568635,0.565111,0.078488,0.213038,0.011213,355.000000,348.000000,7.000000,19.000000,0.000000,0.000000,0.000000,0.000000,0.000000;
#CREDIT:;
#NOTES:
// measure 0
0000
0000
0000
0000
,  // measure 1
0000
0000
0000
0000
,  // measure 2
0000
0000
0000
0000
,  // measure 3
0000
0000
0000
0000
,  // measure 4
0001
1000
0001
0100
0010
1000
1000
0000
,  // measure 5
0100
1000
0001
1000
0100
0010
0010
0000
,  // measure 6
0001
1000
0010
0100
0001
0001
0001
0000
,  // measure 7
1000
0001
0010
0100
1000
1000
1000
0100
,  // measure 8
0010
0001
1000
0000
0100
1000
0001
0010
,  // measure 9
0010
0100
1000
0002
0000
0003
0000
0100
,  // measure 10
0010
0100
0001
1000
0010
0100
0001
0010
,  // measure 11
0100
1000
0001
0200
0000
0300
0000
0001
,  // measure 12
1000
0001
0100
0000
0010
1000
0000
1000
,  // measure 13
0010
0100
0001
0020
0000
0030
0000
1000
,  // measure 14
0010
0001
0010
0100
1000
0010
0100
0001
,  // measure 15
0010
0100
0000
0100
1001
0000
0110
0000
,  // measure 16
0001
0010
0200
0000
1300
0001
0000
1000
,  // measure 17
0000
0010
0200
0000
0301
0100
0010
0100
,  // measure 18
0001
0000
1000
0000
0010
0100
0000
0010
,  // measure 19
0000
1000
0001
0010
0000
0100
1000
0001
,  // measure 20
1000
0010
0200
0000
0301
1000
0000
0010
,  // measure 21
0000
0100
0001
1000
0000
0100
0010
0100
,  // measure 22
1000
0110
1001
0011
,  // measure 23
0001
0000
1000
0100
1000
0000
0000
0000
0001
0000
1000
0000
0001
0100
0001
0000
,  // measure 24
1000
0100
0010
0001
0000
0001
0100
0000
,  // measure 25
0100
0010
0000
0010
2000
0000
3002
0000
,  // measure 26
0013
0100
1000
0002
0000
2003
0000
3020
,  // measure 27
0000
0130
0001
1000
0001
0010
0100
1000
,  // measure 28
0001
1000
0100
0010
0000
0010
0100
0000
,  // measure 29
0100
1000
0000
1000
0002
0000
2003
0000
,  // measure 30
3010
0100
0001
0010
0000
0100
1000
0010
,  // measure 31
0000
0100
0001
1000
0000
1000
0010
0100
,  // measure 32
0001
1000
0001
0010
0000
0100
1000
0001
,  // measure 33
1000
0010
0000
0100
0001
1000
0010
0000
,  // measure 34
1000
0100
0010
0001
1000
0010
0100
0002
,  // measure 35
0000
0013
0100
1000
0001
0000
0110
0000
,  // measure 36
1000
0010
0100
0002
0000
1003
0100
0010
,  // measure 37
0001
2000
0000
3010
0100
0001
1000
0000
,  // measure 38
0001
0100
0010
2000
0000
3001
0100
0020
,  // measure 39
0000
1030
0001
0200
0000
0000
0300
0000
,  // measure 40
0010
1000
0010
1000
0001
0010
0001
0010
,  // measure 41
0100
1000
0100
1000
0010
0100
0100
0000
,  // measure 42
0001
0100
0001
0100
0010
1000
0010
1000
,  // measure 43
0001
0010
0001
0010
0100
1000
1000
0000
,  // measure 44
0001
0100
0001
0100
0001
1000
0001
1000
,  // measure 45
0010
1000
0010
1000
0001
0100
0100
0000
,  // measure 46
0001
0010
0001
1000
0100
1000
0100
0010
,  // measure 47
0001
1000
0001
0010
0100
0100
0100
0000
,  // measure 48
1000
0010
0100
0001
1000
0010
0100
0001
,  // measure 49
0010
0100
1000
0010
0100
0001
0010
0100
,  // measure 50
1000
0100
0010
0001
1000
0100
0010
0001
,  // measure 51
1000
0001
0010
0100
1000
0010
0100
0001
,  // measure 52
1000
0100
0010
0001
1000
0100
0010
0001
,  // measure 53
1000
0010
1000
0100
0010
0001
0100
0010
,  // measure 54
1000
0100
0001
0100
1000
0010
1000
0100
,  // measure 55
0010
0001
0010
0001
1000
0010
0100
0001
,  // measure 56
1001
0000
0000
0000
;
