#VERSION:0.83;
#TITLE:Heaven Is A Place On Earth;
#SUBTITLE:(Speedo Mix);
#ARTIST:Wildside;
#TITLETRANSLIT:;
#SUBTITLETRANSLIT:;
#ARTISTTRANSLIT:;
#GENRE:;
#ORIGIN:;
#CREDIT:;
#BANNER:heaven bn2.png;
#BACKGROUND:heaven bg.PNG;
#PREVIEWVID:;
#JACKET:;
#CDIMAGE:;
#DISCIMAGE:;
#LYRICSPATH:;
#CDTITLE:;
#MUSIC:Wildside - Heaven Is A Place On Earth (Speedo Mix) ~Short Edi.mp3;
#OFFSET:-9.215000;
#SAMPLESTART:48.294998;
#SAMPLELENGTH:12.000000;
#SELECTABLE:YES;
#BPMS:0.000=171.980;
#STOPS:;
#DELAYS:;
#WARPS:;
#TIMESIGNATURES:0.000=4=4;
#TICKCOUNTS:0.000=4;
#COMBOS:0.000=1;
#SPEEDS:0.000=1.000=0.000=0;
#SCROLLS:0.000=1.000;
#FAKES:;
#LABELS:0.000=Song Start;
#BGCHANGES:;
#KEYSOUNDS:;
#ATTACKS:
;

//---------------dance-single - ----------------
#NOTEDATA:;
#CHARTNAME:;
#STEPSTYPE:dance-single;
#DESCRIPTION:;
#CHARTSTYLE:;
#DIFFICULTY:Easy;
#METER:5;
#RADARVALUES:0.378458,0.401610,0.298179,0.298179,0.000000,231.000000,205.000000,26.000000,26.000000,0.000000,0.000000,0.000000,0.000000,0.000000,0.378458,0.401610,0.298179,0.298179,0.000000,231.000000,205.000000,26.000000,26.000000,0.000000,0.000000,0.000000,0.000000,0.000000;
#CREDIT:;
#NOTES:
// measure 0
0000
0000
0000
0000
,  // measure 1
0000
0000
0000
0000
,  // measure 2
2000
0000
0000
3002
0000
0000
0103
0000
,  // measure 3
0010
0010
2002
3003
,  // measure 4
1000
0100
1000
0100
,  // measure 5
0010
0001
1001
1000
,  // measure 6
0001
0100
0001
0100
,  // measure 7
0010
1000
1001
0001
,  // measure 8
1000
0010
1000
0010
,  // measure 9
0100
0001
1001
1000
,  // measure 10
0001
0010
0001
0010
,  // measure 11
0100
0010
0100
0010
0000
0000
0100
0000
,  // measure 12
1000
1000
0100
0100
,  // measure 13
0010
0001
0100
1000
,  // measure 14
0010
1001
0100
0010
,  // measure 15
0001
0110
1000
0100
,  // measure 16
0001
0001
0100
0100
,  // measure 17
0010
1000
0100
0001
,  // measure 18
0010
1001
0100
0010
,  // measure 19
0001
0100
0000
0200
0000
0000
0300
0000
,  // measure 20
1001
0010
0010
0010
,  // measure 21
0001
0100
1000
0100
,  // measure 22
1001
0010
0010
0010
,  // measure 23
1000
0100
0001
0100
,  // measure 24
1001
0000
1000
0100
1000
0000
0001
0100
,  // measure 25
0001
0000
0010
0000
0100
0000
1000
0100
,  // measure 26
0010
0001
0000
0001
0000
0000
0000
1000
,  // measure 27
0001
0010
0000
0100
0000
0010
0000
0000
,  // measure 28
2000
0000
0000
3002
0000
0000
0103
0000
,  // measure 29
0010
1001
2002
3003
,  // measure 30
0002
0000
0000
0023
0000
0000
0130
0000
,  // measure 31
1000
0000
1001
0000
0001
1000
0000
0001
,  // measure 32
2000
0000
0000
3002
0000
0103
0000
0000
,  // measure 33
0010
1001
2002
3003
,  // measure 34
1000
0002
0000
0023
0000
0000
0130
0000
,  // measure 35
1001
0000
1001
0000
1000
0001
0000
0000
,  // measure 36
2000
0000
0000
3002
0000
0000
0103
0000
,  // measure 37
0010
0010
2002
3003
,  // measure 38
1000
0100
1000
0100
,  // measure 39
0010
0001
1001
1000
,  // measure 40
0001
0100
0001
0100
,  // measure 41
0010
1000
1001
0001
,  // measure 42
1000
0010
1000
0010
,  // measure 43
0100
0001
1001
1000
,  // measure 44
0001
0010
0001
0010
,  // measure 45
0100
1000
1001
0001
,  // measure 46
2000
0000
0000
3002
0000
0000
0103
0000
,  // measure 47
0010
1001
1001
0100
,  // measure 48
0001
0001
1000
1000
,  // measure 49
0100
0010
0100
1000
,  // measure 50
0002
1003
2000
3001
,  // measure 51
0010
1001
1001
0100
,  // measure 52
1000
1000
0001
1000
,  // measure 53
0001
0100
0001
0020
0000
0130
1000
0100
;

//---------------dance-single - ----------------
#NOTEDATA:;
#CHARTNAME:;
#STEPSTYPE:dance-single;
#DESCRIPTION:;
#CHARTSTYLE:;
#DIFFICULTY:Medium;
#METER:7;
#RADARVALUES:0.463652,0.463396,0.424331,0.252305,0.000000,283.000000,246.000000,37.000000,22.000000,0.000000,0.000000,0.000000,0.000000,0.000000,0.463652,0.463396,0.424331,0.252305,0.000000,283.000000,246.000000,37.000000,22.000000,0.000000,0.000000,0.000000,0.000000,0.000000;
#CREDIT:;
#NOTES:
// measure 0
0000
0000
0000
0000
,  // measure 1
0000
0000
0000
0000
,  // measure 2
2000
0000
0000
3020
0000
0130
0001
1000
,  // measure 3
0010
0010
2002
3003
,  // measure 4
0001
0100
0001
0000
0100
0001
0100
0000
,  // measure 5
0010
1001
0001
0110
,  // measure 6
1000
0100
1000
0000
0100
1000
0100
0000
,  // measure 7
0010
1001
1000
0110
,  // measure 8
0001
0100
0001
0000
1000
0100
1000
0000
,  // measure 9
0010
1001
0100
0110
,  // measure 10
1000
0010
1000
0000
0001
0010
0001
0000
,  // measure 11
0100
0010
0100
0010
0000
0000
0001
0100
,  // measure 12
0010
1000
0100
1000
,  // measure 13
0001
0001
0110
1000
,  // measure 14
0010
0100
0000
0100
0000
0000
0001
1000
,  // measure 15
0010
0100
0000
0100
0000
0000
0100
0010
,  // measure 16
1000
0001
0100
0001
,  // measure 17
0010
0010
1001
0100
,  // measure 18
0001
0100
0000
0100
0000
0000
0100
0010
,  // measure 19
1000
0100
0000
0200
0000
0000
0300
0000
,  // measure 20
1000
1001
0001
1001
,  // measure 21
0010
0000
0010
0000
0100
0000
1000
0001
,  // measure 22
1000
0000
0010
0100
0010
0000
0010
0100
,  // measure 23
0010
0010
1000
0100
,  // measure 24
1001
0000
0010
0000
0010
0000
0100
1000
,  // measure 25
0001
0000
0010
0000
0100
0000
1000
0001
,  // measure 26
1000
0100
0000
0100
0000
0000
0000
1000
,  // measure 27
0001
1000
0000
0200
0000
0020
0330
0000
,  // measure 28
0002
0000
0000
2003
0000
3001
0100
0001
,  // measure 29
1000
1001
2002
3003
,  // measure 30
1000
0100
1000
0000
0010
0100
0001
0000
,  // measure 31
1001
0000
0110
0000
1000
0001
0000
1000
,  // measure 32
0002
0000
0000
2003
0000
3001
0000
0000
,  // measure 33
0110
1001
2002
3003
,  // measure 34
1000
0001
0000
0010
0000
0001
1000
0100
,  // measure 35
0010
0000
1001
0000
0001
1000
0000
0000
,  // measure 36
2000
0000
0000
3020
0000
0130
0001
1000
,  // measure 37
0010
0010
2002
3003
,  // measure 38
0001
0100
0001
0000
0100
0001
0100
0000
,  // measure 39
0010
1001
0001
0110
,  // measure 40
1000
0100
1000
0000
0100
1000
0100
0000
,  // measure 41
0010
1001
1000
0110
,  // measure 42
0001
0100
0001
0000
1000
0100
1000
0000
,  // measure 43
0010
1001
0100
0011
,  // measure 44
1000
0010
1000
0000
0001
0010
0001
0000
,  // measure 45
0010
1001
0100
1010
,  // measure 46
2000
0000
0000
3002
0000
1003
0100
1000
,  // measure 47
0010
1001
1001
0110
,  // measure 48
1000
0010
0100
0000
0001
0010
0100
0000
,  // measure 49
0010
1001
0100
0110
,  // measure 50
1000
0100
0001
0000
0001
0100
1000
0000
,  // measure 51
0010
1001
1001
0110
,  // measure 52
0001
0100
0010
0000
1000
0001
0100
0000
,  // measure 53
0001
0100
0001
0020
0000
0130
1000
0100
;

//---------------dance-single - ----------------
#NOTEDATA:;
#CHARTNAME:;
#STEPSTYPE:dance-single;
#DESCRIPTION:;
#CHARTSTYLE:;
#DIFFICULTY:Hard;
#METER:8;
#RADARVALUES:0.558676,0.525182,0.366989,0.321116,0.000000,341.000000,309.000000,32.000000,28.000000,0.000000,0.000000,0.000000,0.000000,0.000000,0.558676,0.525182,0.366989,0.321116,0.000000,341.000000,309.000000,32.000000,28.000000,0.000000,0.000000,0.000000,0.000000,0.000000;
#CREDIT:;
#NOTES:
// measure 0
0000
0000
0000
0000
,  // measure 1
0000
0000
0000
0000
,  // measure 2
0002
0000
0000
0023
0000
0031
1000
0100
,  // measure 3
0010
0100
2002
3003
,  // measure 4
1000
0100
1000
0010
0100
0010
1000
0100
,  // measure 5
1000
0100
0010
0002
0000
1003
0100
0010
,  // measure 6
0001
0100
0001
0010
0100
0010
0001
0100
,  // measure 7
0001
0100
0010
2000
0000
3001
0010
0100
,  // measure 8
1000
0001
0010
0001
1000
0100
1000
0001
,  // measure 9
0100
0010
1000
0002
0000
1003
0100
0010
,  // measure 10
0001
1000
0001
0010
0100
1000
0001
0100
,  // measure 11
0001
1000
0100
0020
0000
0130
1000
0001
,  // measure 12
1000
0100
0001
0000
0001
0100
1000
0000
,  // measure 13
0001
0010
0100
1000
0000
0001
0010
0100
,  // measure 14
1000
0100
0000
1001
0000
0000
0100
0010
,  // measure 15
1000
0100
0000
1001
0000
0000
0100
0010
,  // measure 16
0001
0100
1000
0000
1000
0100
0001
0000
,  // measure 17
0010
0001
0100
0000
0010
1000
0100
0000
,  // measure 18
0001
0100
0000
1001
0000
0000
0100
0010
,  // measure 19
1000
0100
0000
1001
0000
0000
1000
0001
,  // measure 20
0100
1100
1001
1100
,  // measure 21
0011
0000
0011
0000
1001
0000
0100
0001
,  // measure 22
1000
0000
0001
0010
0001
0000
1000
0100
,  // measure 23
1000
1001
0011
1100
,  // measure 24
1001
0000
1000
0001
1000
0010
0100
0001
,  // measure 25
1000
0011
0110
1001
,  // measure 26
0100
0001
0000
1001
0000
0000
0000
1000
,  // measure 27
0010
0100
0000
0110
0000
1001
0000
0000
,  // measure 28
2000
0000
0000
3002
0000
1003
0100
1000
,  // measure 29
0001
0010
2002
3003
,  // measure 30
0001
0100
0010
1000
0010
0100
0001
1000
,  // measure 31
0010
0000
0010
0000
1000
0001
0000
0100
,  // measure 32
0020
0000
0000
0230
0000
0301
0000
0000
,  // measure 33
1001
0110
2002
3003
,  // measure 34
1000
0001
0100
0010
1000
0100
1000
0001
,  // measure 35
0010
0000
0010
0000
0001
1000
0000
0000
,  // measure 36
0002
0000
0000
0023
0000
0031
1000
0100
,  // measure 37
0010
0100
2002
3003
,  // measure 38
1000
0100
1000
0010
0100
0010
1000
0100
,  // measure 39
1000
0100
0010
0002
0000
1003
0100
0010
,  // measure 40
0001
0100
0001
0010
0100
0010
0001
0100
,  // measure 41
0001
0100
0010
2000
0000
3001
0010
0100
,  // measure 42
1000
0001
0010
0001
1000
0100
1000
0001
,  // measure 43
0100
0010
1000
0002
0000
1003
0100
0010
,  // measure 44
0001
1000
0001
0010
0100
1000
0001
0100
,  // measure 45
0001
1000
0010
0200
0000
0301
1000
0001
,  // measure 46
0200
0000
0000
0302
0000
1003
0100
1000
,  // measure 47
0001
0110
1001
0110
,  // measure 48
1000
0100
0010
0001
0010
0100
1000
0001
,  // measure 49
0100
0010
1000
0002
0000
1003
0010
1000
,  // measure 50
0001
0100
1000
0100
0001
1000
0100
1000
,  // measure 51
0010
1001
0110
1001
,  // measure 52
0010
0100
0001
0010
0100
1000
0010
0100
,  // measure 53
0001
0100
0001
0020
0000
0130
1000
0100
;
