#VERSION:0.83;
#TITLE:Happy Toyboys;
#SUBTITLE:(Speed Mix);
#ARTIST:Speedmaster feat. Jenny Rom;
#TITLETRANSLIT:;
#SUBTITLETRANSLIT:;
#ARTISTTRANSLIT:;
#GENRE:;
#ORIGIN:;
#CREDIT:;
#BANNER:Happytoyboys speed bn.png;
#BACKGROUND:Happytoyboys speed bg.png;
#PREVIEWVID:;
#JACKET:;
#CDIMAGE:;
#DISCIMAGE:;
#LYRICSPATH:;
#CDTITLE:;
#MUSIC:Speedmaster feat. Jenny Rom - Happy Toyboys (Speed Mix)~shor.mp3;
#OFFSET:-2.535000;
#SAMPLESTART:60.970001;
#SAMPLELENGTH:12.000000;
#SELECTABLE:YES;
#BPMS:0.000=180.000,
310.000=137.000,
311.500=130.000,
313.000=110.000,
313.500=100.000,
314.000=90.000,
314.500=180.000;
#STOPS:269.000=0.660;
#DELAYS:;
#WARPS:;
#TIMESIGNATURES:0.000=4=4;
#TICKCOUNTS:0.000=4;
#COMBOS:0.000=1;
#SPEEDS:0.000=1.000=0.000=0;
#SCROLLS:0.000=1.000;
#FAKES:;
#LABELS:0.000=Song Start;
#BGCHANGES:;
#KEYSOUNDS:;
#ATTACKS:
;

//---------------dance-single - ----------------
#NOTEDATA:;
#CHARTNAME:;
#STEPSTYPE:dance-single;
#DESCRIPTION:;
#CHARTSTYLE:;
#DIFFICULTY:Easy;
#METER:5;
#RADARVALUES:0.414616,0.585997,0.455952,0.271818,0.000000,331.000000,279.000000,52.000000,31.000000,0.000000,0.000000,0.000000,0.000000,0.000000,0.414616,0.585997,0.455952,0.271818,0.000000,331.000000,279.000000,52.000000,31.000000,0.000000,0.000000,0.000000,0.000000,0.000000;
#CREDIT:;
#NOTES:
// measure 0
0000
0000
0000
0000
,  // measure 1
0000
0000
0000
0000
,  // measure 2
0000
0000
0000
0000
,  // measure 3
0000
0000
0000
0000
,  // measure 4
1000
0000
0001
0110
,  // measure 5
1000
0010
0100
0001
,  // measure 6
0001
1000
0100
0110
,  // measure 7
2002
3003
0100
1001
,  // measure 8
1001
1000
0010
0100
,  // measure 9
0010
1000
1001
0100
,  // measure 10
0010
0010
0100
0110
,  // measure 11
0002
0000
0000
2003
0000
0000
3000
0000
,  // measure 12
0001
0010
0001
0100
,  // measure 13
0010
1000
1001
0001
,  // measure 14
0100
0000
1001
0000
0010
0200
0000
0310
,  // measure 15
2000
0000
3000
0001
0100
0000
1001
0000
,  // measure 16
2000
3000
0002
0003
,  // measure 17
0100
0010
1000
0100
,  // measure 18
1001
0000
0100
0000
,  // measure 19
0001
1000
1001
0110
,  // measure 20
0002
0003
2000
3000
,  // measure 21
0100
0010
0001
1000
,  // measure 22
0001
0001
0010
1000
,  // measure 23
0100
0000
0001
0000
0010
0100
0010
0000
,  // measure 24
2000
3000
0002
0003
,  // measure 25
1000
0100
1000
0010
,  // measure 26
1000
1000
0001
0110
,  // measure 27
1000
1000
0100
0100
,  // measure 28
0010
0001
0100
0010
,  // measure 29
2000
3001
0220
0330
,  // measure 30
1000
0000
0001
0000
1000
0000
0100
0010
,  // measure 31
0000
0100
2002
3003
,  // measure 32
1001
0100
0100
0010
,  // measure 33
0001
0000
0001
0000
1000
0100
1000
0000
,  // measure 34
0001
0010
1000
0100
,  // measure 35
0001
0000
0001
0000
1000
0010
1000
0000
,  // measure 36
0001
0001
1000
0010
,  // measure 37
0100
0000
0001
0000
1000
0001
1000
0000
,  // measure 38
0010
0000
1000
0000
0001
0000
0001
2000
,  // measure 39
0000
3010
0100
0010
0100
0000
0001
0000
,  // measure 40
1000
1000
1000
1000
,  // measure 41
1000
1000
1000
1000
,  // measure 42
0010
0000
0000
0100
0010
0000
0100
0000
,  // measure 43
1001
0100
0100
0100
,  // measure 44
0001
0010
1001
1001
,  // measure 45
0100
0010
1001
1001
,  // measure 46
0010
0100
1001
1001
,  // measure 47
0020
0030
0100
0110
,  // measure 48
1000
0000
0001
0000
0010
0010
0010
0000
,  // measure 49
0001
0000
1000
0000
0100
0100
0100
0000
,  // measure 50
0010
0000
0001
0000
1000
0001
1000
0000
,  // measure 51
0020
0030
1001
0100
,  // measure 52
1000
0000
1000
0000
,  // measure 53
0002
0000
1000
0003
,  // measure 54
0001
0000
0001
0000
,  // measure 55
2000
0000
0001
3000
,  // measure 56
1001
1100
0110
0011
,  // measure 57
1001
1100
0110
0011
,  // measure 58
0001
1000
1001
0000
,  // measure 59
0010
0100
0110
0000
,  // measure 60
1000
0001
1000
0000
1001
0000
0000
0000
,  // measure 61
0010
0100
0010
0000
0110
0000
0000
0000
,  // measure 62
1000
0010
0100
0001
,  // measure 63
1000
0010
0100
0001
,  // measure 64
0010
1001
0100
0000
,  // measure 65
0001
0000
1000
0001
,  // measure 66
0010
1001
0100
1001
,  // measure 67
0100
0110
1000
0100
,  // measure 68
0010
0001
1100
1100
,  // measure 69
1000
0001
0011
0011
,  // measure 70
0010
0100
0110
0110
,  // measure 71
0100
1000
1001
1001
,  // measure 72
1000
0100
0110
1001
,  // measure 73
0001
0100
0100
1000
,  // measure 74
1000
0010
0002
2003
,  // measure 75
3200
0302
0023
0032
,  // measure 76
0203
0000
2300
0000
3010
0000
0000
1000
,  // measure 77
0001
0000
0100
0000
0100
0000
0000
0100
,  // measure 78
0000
0000
0200
0000
0000
0300
0000
0000
;

//---------------dance-single - ----------------
#NOTEDATA:;
#CHARTNAME:;
#STEPSTYPE:dance-single;
#DESCRIPTION:;
#CHARTSTYLE:;
#DIFFICULTY:Medium;
#METER:7;
#RADARVALUES:0.504804,0.585997,0.377038,0.210440,0.000000,403.000000,360.000000,43.000000,24.000000,0.000000,0.000000,0.000000,0.000000,0.000000,0.504804,0.585997,0.377038,0.210440,0.000000,403.000000,360.000000,43.000000,24.000000,0.000000,0.000000,0.000000,0.000000,0.000000;
#CREDIT:;
#NOTES:
// measure 0
0000
0000
0000
0000
,  // measure 1
0000
0000
0000
0000
,  // measure 2
0000
0000
0000
0000
,  // measure 3
0000
0000
0000
0000
,  // measure 4
1000
0000
1001
0000
1000
0100
0010
0000
,  // measure 5
0001
0000
1001
0000
0001
0010
0100
0000
,  // measure 6
1000
0000
1001
0000
0100
0010
0001
0100
,  // measure 7
0020
0000
0000
1030
0100
0000
1001
0000
,  // measure 8
1000
0010
1000
0000
0100
0000
0001
0000
,  // measure 9
0010
0000
1000
0001
0000
0100
0010
1000
,  // measure 10
0001
1001
0010
0110
,  // measure 11
2000
0000
0000
3100
0000
0000
0010
0000
,  // measure 12
0010
0001
0100
0000
0010
0000
0001
0000
,  // measure 13
0100
0000
1000
0001
0000
1000
0100
0010
,  // measure 14
0001
0000
1001
0000
0010
0100
0000
0010
,  // measure 15
0001
0000
1000
0000
0100
0010
0100
0000
,  // measure 16
0010
1001
0001
0011
,  // measure 17
0201
0000
0310
1000
0001
0000
0000
1000
,  // measure 18
0001
0000
0101
0000
0100
0000
0100
0010
,  // measure 19
1000
0000
1000
0000
0001
0100
0010
0000
,  // measure 20
0100
1001
1000
1010
,  // measure 21
1200
0000
0310
0001
1000
0000
0000
0100
,  // measure 22
0010
0110
1001
0110
,  // measure 23
1000
0000
0001
0010
0100
1000
0001
0000
,  // measure 24
1000
1001
0001
0011
,  // measure 25
0102
0000
1003
0100
0010
0000
0000
0001
,  // measure 26
0010
0000
1001
0000
0100
0000
0010
1000
,  // measure 27
0001
0000
1001
0000
1000
0100
0010
0000
,  // measure 28
0001
1001
0100
1010
,  // measure 29
1200
0000
0310
0001
1000
0000
0000
0010
,  // measure 30
0100
0001
1000
0000
0002
0000
0103
0010
,  // measure 31
0100
0100
2002
3003
,  // measure 32
1000
0100
1000
0100
1000
0000
0010
0000
,  // measure 33
0100
0001
0100
0001
0100
0000
0010
0000
,  // measure 34
1000
0010
1000
0010
1000
0000
0100
0000
,  // measure 35
0010
0001
0010
0001
0010
0000
0100
0000
,  // measure 36
1000
0001
1000
0001
1000
0000
0010
0000
,  // measure 37
0100
0010
0100
0010
0100
0000
0001
0000
,  // measure 38
0010
1001
1000
1001
,  // measure 39
0020
0000
0000
1030
0100
0000
1000
0000
,  // measure 40
0001
0001
0001
0001
,  // measure 41
0100
0100
0100
0100
,  // measure 42
0010
1000
0100
0010
,  // measure 43
0001
1001
0100
0100
,  // measure 44
0010
0000
1001
0000
0001
0100
0010
0000
,  // measure 45
1000
0000
1001
0000
0010
0100
0001
0000
,  // measure 46
0010
0000
1001
0000
1000
0100
0010
0001
,  // measure 47
2000
0000
0000
3001
0100
0000
1001
0000
,  // measure 48
0001
0100
0001
0000
1000
0100
1000
0000
,  // measure 49
0001
0010
0001
0000
1000
0100
0010
0000
,  // measure 50
0001
0100
0001
0000
0100
0010
1000
0000
,  // measure 51
2002
0000
3003
0000
0001
0010
0100
0000
,  // measure 52
1000
0100
0010
0001
,  // measure 53
2000
0001
0001
3001
,  // measure 54
0001
0100
0010
1000
,  // measure 55
0002
1000
1000
1003
,  // measure 56
1001
0101
0110
1010
,  // measure 57
1001
0101
0110
1010
,  // measure 58
1000
0001
1000
0001
1000
0000
0000
0000
,  // measure 59
0100
0010
0100
0010
0100
0000
0000
0000
,  // measure 60
0010
0100
0010
0100
0010
0000
0000
0000
,  // measure 61
0001
1000
0001
1000
0001
0000
0000
0000
,  // measure 62
0001
0010
0001
0010
0001
0010
0001
0010
,  // measure 63
0100
1000
0100
1000
0100
1000
0100
1000
,  // measure 64
0100
0100
0100
0000
0010
0000
0001
0000
,  // measure 65
1000
0010
0100
0100
,  // measure 66
0001
0001
1000
1000
,  // measure 67
0100
0010
0001
0001
,  // measure 68
0100
0000
0010
0000
1000
0100
1000
0100
,  // measure 69
1000
0010
0100
0100
,  // measure 70
0001
0000
0010
0000
0100
1000
0100
1000
,  // measure 71
0100
0010
0001
0001
,  // measure 72
0100
0000
0010
0000
1000
0001
1000
0001
,  // measure 73
1000
0001
0100
0100
,  // measure 74
0010
0010
2000
3200
,  // measure 75
0320
0230
2300
3020
,  // measure 76
0230
0000
0302
0000
0013
0000
0000
0100
,  // measure 77
0010
0000
1000
0000
1001
0000
0000
0010
,  // measure 78
0000
0000
0200
0000
0000
0300
0000
0000
;

//---------------dance-single - ----------------
#NOTEDATA:;
#CHARTNAME:;
#STEPSTYPE:dance-single;
#DESCRIPTION:;
#CHARTSTYLE:;
#DIFFICULTY:Hard;
#METER:9;
#RADARVALUES:0.636329,0.620468,0.201671,0.131525,0.127141,508.000000,485.000000,23.000000,15.000000,0.000000,0.000000,0.000000,0.000000,0.000000,0.636329,0.620468,0.201671,0.131525,0.127141,508.000000,485.000000,23.000000,15.000000,0.000000,0.000000,0.000000,0.000000,0.000000;
#CREDIT:;
#NOTES:
// measure 0
0000
0000
0000
0000
,  // measure 1
0000
0000
0000
0000
,  // measure 2
0000
0000
0000
0000
,  // measure 3
0000
0000
0000
0000
,  // measure 4
1000
0100
0000
0000
1000
0100
0000
0000
0100
0000
0010
0000
0001
0000
0000
0000
,  // measure 5
0001
0100
0000
0000
0010
0000
1000
0000
0100
0000
0010
0000
0001
0000
0000
0000
,  // measure 6
1000
0001
0000
0000
0001
1000
0000
0000
0100
0000
0010
0000
0001
0000
0100
0000
,  // measure 7
0020
0000
0030
1000
0100
0010
0100
0000
,  // measure 8
1000
0001
0100
0010
1000
0001
0100
0010
,  // measure 9
1000
0100
0010
0100
0000
1000
0001
0100
,  // measure 10
0010
0000
0000
0010
1000
0000
0000
1000
0001
0000
0000
0001
1000
0000
0000
1000
,  // measure 11
0200
0000
0000
1300
0000
0000
0001
0000
,  // measure 12
1000
0100
0010
0100
1000
0010
0100
0001
,  // measure 13
1000
0001
0010
0100
0000
0010
0001
1000
,  // measure 14
0020
0000
0130
0001
1000
0200
0000
0310
,  // measure 15
0002
0000
0003
1000
0100
0010
0100
0000
,  // measure 16
1000
1001
0010
1001
,  // measure 17
1000
0000
0001
0100
0000
0000
0001
0100
,  // measure 18
0010
0000
0110
0000
0100
0001
1000
0100
,  // measure 19
0010
0001
0010
0001
1000
0100
0010
0000
,  // measure 20
0001
1001
0100
1001
,  // measure 21
0001
0000
0100
0010
0000
1000
0000
1000
,  // measure 22
0001
0100
0001
0100
0010
0000
0100
0000
,  // measure 23
0001
1000
0001
0100
0010
1000
0001
0000
,  // measure 24
1000
0100
1000
0000
0010
0100
0001
0000
,  // measure 25
1001
0000
0001
0100
0000
0000
0001
1000
,  // measure 26
0010
0000
0100
0001
1000
0000
1000
0010
,  // measure 27
0100
0001
0100
0010
0100
0001
1000
0000
,  // measure 28
0001
0100
1000
0000
1000
0100
0001
0000
,  // measure 29
1001
0000
1000
0100
0000
0010
0000
0001
,  // measure 30
1000
0100
0001
0100
1000
0000
0001
0010
,  // measure 31
0001
1000
2002
3003
,  // measure 32
1000
0000
0001
0000
0100
0000
0010
0000
0100
0000
0001
0000
0010
0000
0000
0010
,  // measure 33
0200
0000
1300
0001
1000
0100
0010
0000
,  // measure 34
0001
1000
0001
0100
0010
1000
0010
0100
,  // measure 35
0001
0000
0000
0001
1000
0000
0000
1000
0100
0000
0010
0000
0001
0000
0000
0000
,  // measure 36
1000
0000
0100
0000
1000
0000
0010
0000
0100
0000
0000
0100
0010
0000
0000
0010
,  // measure 37
2000
0000
3001
0100
0001
0001
0001
0000
,  // measure 38
1000
0100
0010
0001
1000
0100
1000
0020
,  // measure 39
0000
1030
0010
0100
0001
0010
0100
1000
,  // measure 40
0001
0100
0001
1000
0001
0100
0001
1000
,  // measure 41
0100
1000
0001
1000
0100
1000
0001
0100
,  // measure 42
0010
1000
0010
0100
0010
0001
0010
0100
,  // measure 43
0001
1001
1001
1001
,  // measure 44
1000
0100
0000
0000
1000
0100
0000
0000
0100
0000
0010
0000
0001
0000
0000
0000
,  // measure 45
0001
0100
0000
0000
0001
0100
0000
0000
0100
0000
0010
0000
1000
0000
0000
0000
,  // measure 46
1000
0001
0000
0000
0001
1000
0000
0000
0100
0000
0010
0000
0001
0000
1000
0000
,  // measure 47
0020
0000
0000
0130
0001
1000
0001
0000
,  // measure 48
1000
0010
0000
0000
1000
0010
0000
0000
0100
0000
0001
0000
1000
0000
0000
0000
,  // measure 49
0001
0010
0000
0000
0001
0010
0000
0000
0100
0000
1000
0000
0001
0000
0000
0000
,  // measure 50
0010
0100
0000
0000
0100
0010
0000
0000
0001
0000
0100
0000
0010
0000
1000
0000
,  // measure 51
0002
0000
0000
1003
0100
0010
0100
0000
,  // measure 52
1000
0100
0010
0001
1000
0100
0010
0001
,  // measure 53
2000
0001
0001
3001
,  // measure 54
0001
0100
0010
1000
0001
0100
0010
1000
,  // measure 55
0002
1000
1000
1003
,  // measure 56
1001
0101
0110
1010
,  // measure 57
1001
1100
0110
0011
,  // measure 58
1000
0001
1000
0001
1001
0000
0001
0000
,  // measure 59
0010
0100
0010
0100
0110
0000
0010
0000
,  // measure 60
0001
1000
0100
1000
1001
0000
1000
0000
,  // measure 61
0001
1000
0001
0010
0110
0000
0010
0000
,  // measure 62
0001
0010
0100
1000
0001
0010
0100
1000
,  // measure 63
1000
0010
0100
0001
1000
0010
0100
0001
,  // measure 64
1000
0100
1000
0000
0100
0000
0010
0000
,  // measure 65
0001
0000
0010
0001
0100
0001
0100
0001
,  // measure 66
0100
0010
1000
0000
0100
0010
0001
0000
,  // measure 67
1000
0100
0010
0000
1000
0100
0010
0001
,  // measure 68
1000
0100
0010
0001
1000
0010
0100
0010
,  // measure 69
1000
0010
0100
0010
1000
0001
0100
0001
,  // measure 70
1000
0001
0100
0001
1000
0010
1000
0100
,  // measure 71
1000
0010
0100
0001
0100
0010
0100
0001
,  // measure 72
0010
0001
0100
0001
0010
0100
0010
0001
,  // measure 73
0010
0100
1000
0100
0001
0100
1000
0010
,  // measure 74
0100
0001
0100
0010
1000
0100
0010
0100
,  // measure 75
1000
0001
0100
0010
1000
0001
0010
0001
,  // measure 76
0100
0000
0010
0000
1000
0000
0001
0000
0010
0000
0000
0000
0000
0000
0001
1000
,  // measure 77
0001
0000
0000
0010
0000
0000
0100
0000
0000
1000
0000
0000
0001
0000
0000
0000
0000
0000
0000
0000
1000
0001
0000
0000
,  // measure 78
0000
0000
0000
0010
0200
0000
0000
0000
0000
0000
0300
0000
0000
0000
0000
0000
;
