#VERSION:0.83;
#TITLE:Going To Suzuka;
#SUBTITLE:(Shoemaker Mix);
#ARTIST:S&K;
#TITLETRANSLIT:;
#SUBTITLETRANSLIT:;
#ARTISTTRANSLIT:;
#GENRE:;
#ORIGIN:;
#CREDIT:;
#BANNER:Suzuka bn.PNG;
#BACKGROUND:Suzuka bg.png;
#PREVIEWVID:;
#JACKET:;
#CDIMAGE:;
#DISCIMAGE:;
#LYRICSPATH:;
#CDTITLE:;
#MUSIC:S&K - Going To Suzuka (Shoemaker Mix).mp3;
#OFFSET:0.365000;
#SAMPLESTART:58.075001;
#SAMPLELENGTH:12.000000;
#SELECTABLE:YES;
#BPMS:0.000=172.460;
#STOPS:;
#DELAYS:;
#WARPS:;
#TIMESIGNATURES:0.000=4=4;
#TICKCOUNTS:0.000=4;
#COMBOS:0.000=1;
#SPEEDS:0.000=1.000=0.000=0;
#SCROLLS:0.000=1.000;
#FAKES:;
#LABELS:0.000=Song Start;
#BGCHANGES:;
#KEYSOUNDS:;
#ATTACKS:
;

//---------------dance-single - ----------------
#NOTEDATA:;
#CHARTNAME:;
#STEPSTYPE:dance-single;
#DESCRIPTION:;
#CHARTSTYLE:;
#DIFFICULTY:Easy;
#METER:4;
#RADARVALUES:0.427391,0.463586,0.512870,0.053424,0.000000,280.000000,232.000000,48.000000,5.000000,0.000000,0.000000,0.000000,0.000000,0.000000,0.427391,0.463586,0.512870,0.053424,0.000000,280.000000,232.000000,48.000000,5.000000,0.000000,0.000000,0.000000,0.000000,0.000000;
#CREDIT:;
#NOTES:
// measure 0
0000
0000
0000
0000
,  // measure 1
0000
0000
0000
0000
,  // measure 2
0000
0000
0000
0000
,  // measure 3
1000
1000
1000
1000
,  // measure 4
0001
0001
0010
0010
,  // measure 5
0001
0001
1000
1000
,  // measure 6
0010
0100
0010
0100
,  // measure 7
0020
0000
0000
0030
,  // measure 8
1000
0010
0100
0000
,  // measure 9
0001
0001
0100
0001
,  // measure 10
1000
0010
1001
0010
,  // measure 11
0100
1001
1000
0010
,  // measure 12
0100
0001
1000
0000
,  // measure 13
0010
0010
1001
0010
,  // measure 14
0100
0010
0002
0003
,  // measure 15
1000
0001
1001
0110
,  // measure 16
1001
0001
0100
0010
,  // measure 17
0100
0001
1000
0100
,  // measure 18
1001
1000
0100
0001
,  // measure 19
0010
0010
1001
0110
,  // measure 20
1001
1000
0100
0010
,  // measure 21
0100
1000
0001
0001
,  // measure 22
0100
0010
1000
0000
,  // measure 23
0010
0010
1001
0110
,  // measure 24
1001
1000
0100
0000
,  // measure 25
0010
0001
1000
0110
,  // measure 26
0001
1000
0010
1001
,  // measure 27
0100
0001
0010
0100
,  // measure 28
2002
3003
0000
1000
,  // measure 29
0010
0100
0001
0110
,  // measure 30
1000
0001
1001
0100
,  // measure 31
0010
1000
1001
0000
,  // measure 32
1001
0001
0100
0010
,  // measure 33
0010
0100
0001
0000
,  // measure 34
0100
0100
1001
0000
,  // measure 35
0010
0010
1001
0100
,  // measure 36
0000
1001
0000
0000
0000
0000
1000
0000
,  // measure 37
0001
0100
1001
0000
,  // measure 38
0010
0100
1000
0000
,  // measure 39
1001
1000
0001
0010
,  // measure 40
0100
0100
0010
0010
,  // measure 41
1001
1001
1001
0100
,  // measure 42
1001
0001
0100
0000
,  // measure 43
0001
0001
1000
1000
,  // measure 44
0100
0010
0001
1000
,  // measure 45
0010
0100
0001
1000
,  // measure 46
1001
0001
0100
0000
,  // measure 47
0010
1000
0100
0100
,  // measure 48
1000
0001
0020
0030
,  // measure 49
0100
0010
1001
0110
,  // measure 50
1001
0010
0001
0000
,  // measure 51
0000
1000
0000
1000
0000
0001
1000
0001
,  // measure 52
0010
0100
1000
0000
,  // measure 53
0010
0010
1001
0110
,  // measure 54
1001
0010
1000
0000
,  // measure 55
0000
0001
0000
0001
0000
1000
0001
1000
,  // measure 56
0010
0100
0001
0000
,  // measure 57
0100
0100
1001
0110
,  // measure 58
1001
0010
1001
0000
,  // measure 59
0001
0010
1001
0100
,  // measure 60
1000
0001
0110
1000
,  // measure 61
0001
0100
1001
0100
,  // measure 62
1001
0010
1001
0000
,  // measure 63
0001
0001
0110
1000
,  // measure 64
0100
0010
1001
0100
,  // measure 65
1001
0100
0001
1000
,  // measure 66
0100
1000
0010
0100
;

//---------------dance-single - ----------------
#NOTEDATA:;
#CHARTNAME:;
#STEPSTYPE:dance-single;
#DESCRIPTION:;
#CHARTSTYLE:;
#DIFFICULTY:Medium;
#METER:7;
#RADARVALUES:0.499132,0.534907,0.245750,0.042739,0.000000,327.000000,304.000000,23.000000,4.000000,0.000000,0.000000,0.000000,0.000000,0.000000,0.499132,0.534907,0.245750,0.042739,0.000000,327.000000,304.000000,23.000000,4.000000,0.000000,0.000000,0.000000,0.000000,0.000000;
#CREDIT:;
#NOTES:
// measure 0
0000
0000
0000
0000
,  // measure 1
0000
0000
0000
0000
,  // measure 2
0000
0000
0000
0000
,  // measure 3
1000
0001
0000
0001
0000
1000
0000
1000
,  // measure 4
0000
0010
0000
0010
0000
0100
0100
0100
,  // measure 5
0001
0001
1000
1000
,  // measure 6
0100
0010
0100
0010
0100
0010
0100
0010
,  // measure 7
0200
0000
0000
0300
,  // measure 8
1000
0000
0001
0100
1000
0000
0100
0000
,  // measure 9
0001
0000
0010
0000
0100
0000
0100
1000
,  // measure 10
0001
0100
0010
0100
,  // measure 11
0001
0000
0010
0000
0100
0000
1000
0001
,  // measure 12
1000
0000
0001
0100
1000
0000
0100
0000
,  // measure 13
0001
0000
0010
0000
0100
0000
0100
0010
,  // measure 14
0001
1000
0020
0030
,  // measure 15
0010
0100
0010
0100
0010
0000
1001
0000
,  // measure 16
1000
0001
0100
0100
,  // measure 17
0000
0001
0000
0001
0000
1000
1000
1000
,  // measure 18
0010
0010
0010
0000
,  // measure 19
0100
0001
0100
0001
0010
0000
1001
0000
,  // measure 20
0001
0010
0100
0100
,  // measure 21
0000
1000
0000
1000
0000
0001
0001
0001
,  // measure 22
0100
0010
2000
3000
,  // measure 23
0001
1000
0001
1000
0010
0000
1001
0000
,  // measure 24
1001
0001
0100
0000
,  // measure 25
0010
0000
1000
0000
0001
0100
0010
0000
,  // measure 26
1000
0100
0010
0001
,  // measure 27
1000
0000
0001
0000
0010
0100
1000
0000
,  // measure 28
1001
0000
0001
0000
0000
0000
0100
0010
,  // measure 29
1000
0001
1000
0000
0001
0000
0110
0000
,  // measure 30
1000
0100
0001
0000
0100
0000
1000
0000
,  // measure 31
0001
1000
0010
1000
0001
0000
0110
0000
,  // measure 32
1000
0100
1000
0000
0100
1000
0100
0000
,  // measure 33
0010
0001
0010
0000
0001
0010
0001
0000
,  // measure 34
1000
0100
0001
0000
0001
0100
1000
0000
,  // measure 35
1000
0010
0001
0000
0001
0010
1000
0000
,  // measure 36
0001
0100
0010
0010
,  // measure 37
1000
0100
0010
0001
,  // measure 38
1000
0110
0001
0110
,  // measure 39
1000
0000
0001
0000
1001
0000
1000
0001
,  // measure 40
0100
1001
0100
1001
,  // measure 41
0001
1000
0100
1000
0100
1000
0001
0000
,  // measure 42
1001
0000
0001
0010
0100
0000
1000
0000
,  // measure 43
0010
0000
0010
0000
1001
0000
0100
0001
,  // measure 44
0100
0010
1000
0100
,  // measure 45
1001
0000
0010
0000
0110
0000
1000
0001
,  // measure 46
0100
0000
0001
0010
0100
0000
0100
0000
,  // measure 47
0010
0000
0100
0000
1001
0000
0100
0001
,  // measure 48
0100
0010
2000
3000
,  // measure 49
0001
0100
0001
0100
0010
0000
1001
0000
,  // measure 50
1001
1000
0100
0010
,  // measure 51
0000
0001
0000
0001
0000
0100
0100
0100
,  // measure 52
0001
0100
0010
1000
,  // measure 53
0001
1000
0001
1000
0010
0000
1001
0000
,  // measure 54
1001
0001
0010
0100
,  // measure 55
0000
1000
0000
1000
0000
0010
0010
0010
,  // measure 56
0100
0001
1000
0001
,  // measure 57
0010
0100
0010
0100
0010
0000
1001
0000
,  // measure 58
0001
0000
1000
0010
0100
0000
0001
0000
,  // measure 59
0010
0000
0001
1000
0100
0000
1000
0001
,  // measure 60
0100
0010
1000
0010
,  // measure 61
0100
0001
0010
0100
,  // measure 62
1001
0000
0001
0100
1000
0000
0100
0000
,  // measure 63
0010
0000
1000
0010
0100
0000
0001
1000
,  // measure 64
0100
0010
0001
1000
,  // measure 65
0100
0010
0001
1000
,  // measure 66
0001
1000
0010
0100
;

//---------------dance-single - ----------------
#NOTEDATA:;
#CHARTNAME:;
#STEPSTYPE:dance-single;
#DESCRIPTION:;
#CHARTSTYLE:;
#DIFFICULTY:Hard;
#METER:8;
#RADARVALUES:0.660930,0.641889,0.299174,0.032054,0.016027,433.000000,405.000000,28.000000,3.000000,0.000000,0.000000,0.000000,0.000000,0.000000,0.660930,0.641889,0.299174,0.032054,0.016027,433.000000,405.000000,28.000000,3.000000,0.000000,0.000000,0.000000,0.000000,0.000000;
#CREDIT:;
#NOTES:
// measure 0
0000
0000
0000
0000
,  // measure 1
0000
0000
0000
0000
,  // measure 2
0000
0000
0000
0000
,  // measure 3
1000
0010
0000
0010
0000
0100
0000
0001
,  // measure 4
0000
1001
0000
0100
0000
0001
0010
0001
,  // measure 5
1000
0100
1000
0100
0010
0001
0100
0001
,  // measure 6
1000
0010
1000
0010
0100
0001
0010
0100
,  // measure 7
2002
0000
0000
3003
,  // measure 8
1000
0010
0100
0010
1000
0000
0001
1000
,  // measure 9
0010
0000
0000
1000
0010
0000
1000
0000
0001
0000
0000
0000
1000
0000
1000
0000
,  // measure 10
0100
0000
1001
0000
0011
0000
0100
0010
,  // measure 11
1000
0000
0001
0000
1000
0010
1000
0001
,  // measure 12
0010
0000
0100
1000
0001
0000
0100
0010
,  // measure 13
1000
0001
1000
0010
0100
0000
0001
1000
,  // measure 14
0001
0110
1001
0100
,  // measure 15
0001
1000
0001
0100
0010
0000
0110
0000
,  // measure 16
1000
0001
0100
0010
0100
0001
0010
0001
,  // measure 17
1000
0100
0000
0100
0000
0010
0010
0010
,  // measure 18
0001
0100
0010
0100
0001
0010
0100
1000
,  // measure 19
0001
0100
0001
0100
0010
0000
1001
0000
,  // measure 20
0001
1000
0100
1000
0001
0100
0010
1000
,  // measure 21
0001
0100
0000
0100
0000
0010
0010
0010
,  // measure 22
1000
0001
1001
0110
,  // measure 23
1000
0001
0100
0001
0010
0000
1001
0000
,  // measure 24
1000
0001
0100
0010
0100
0001
0000
1000
,  // measure 25
0001
0010
0100
0010
0001
1000
0010
0000
,  // measure 26
0100
0000
0001
1000
0010
0000
1000
0001
,  // measure 27
0010
0000
0100
0000
1000
0001
1000
0000
,  // measure 28
0001
0100
0010
0100
0010
0100
0001
1000
,  // measure 29
0010
0100
0001
0000
1001
0000
0110
0000
,  // measure 30
1000
0100
1000
0000
0110
0000
0001
0010
,  // measure 31
1000
0100
0001
1000
0001
0000
0110
0000
,  // measure 32
1000
0100
0001
0100
1000
0100
0001
0100
,  // measure 33
1000
0010
0001
0010
1000
0100
0001
0100
,  // measure 34
1000
0010
0001
0010
1000
0010
0001
0010
,  // measure 35
1000
0001
0100
0010
1000
0001
0010
0100
,  // measure 36
1000
0010
0010
1001
,  // measure 37
0100
0010
1000
0000
0001
0010
0100
0000
,  // measure 38
1000
0001
0100
0010
0000
0010
0100
0001
,  // measure 39
1000
0001
0010
0100
0010
0000
0110
0000
,  // measure 40
1001
1100
1001
0101
,  // measure 41
1000
0001
0100
0001
1000
0100
1000
0001
,  // measure 42
0010
0000
1001
0000
0100
0010
1000
0100
,  // measure 43
0010
0000
0000
0001
1000
0000
0001
0000
0100
0000
0000
0000
0010
0000
0100
0000
,  // measure 44
0001
1001
0011
1100
,  // measure 45
0001
0100
0001
1000
0010
0100
0001
1000
,  // measure 46
0100
0000
1000
0100
0001
0000
0100
0000
,  // measure 47
1000
0010
0100
0001
0001
0000
0010
0010
,  // measure 48
0100
0010
1001
0100
,  // measure 49
0001
0010
0001
0100
0010
0000
1001
0000
,  // measure 50
0001
0100
1000
0100
0001
0010
0100
1000
,  // measure 51
0001
0010
0000
0010
0000
0010
0100
0010
,  // measure 52
1000
0100
0001
0100
1000
0010
0100
0001
,  // measure 53
0010
0100
0010
0100
1000
0000
0001
0000
,  // measure 54
1000
0010
0001
0010
1000
0100
0010
0001
,  // measure 55
1000
0100
0000
0100
0000
0010
0100
1000
,  // measure 56
0001
0010
1000
0010
0001
0100
0010
1000
,  // measure 57
0010
0100
0010
0100
0001
0000
1000
0000
,  // measure 58
0001
0100
1000
0100
0001
0000
0100
0010
,  // measure 59
1000
0000
0000
0001
1000
0000
0010
0000
0100
0000
0000
0000
0001
0000
0001
0000
,  // measure 60
0100
0010
1001
0100
,  // measure 61
0010
0001
1000
0001
0020
0000
0130
1000
,  // measure 62
0001
0100
0010
0100
0001
0000
1000
0100
,  // measure 63
1000
0000
0001
0010
0100
0000
0100
1000
,  // measure 64
0001
0100
1000
0100
0010
1000
0100
0001
,  // measure 65
0100
0010
0001
0100
0010
1000
0100
0001
,  // measure 66
0010
1000
0100
0010
;
