#VERSION:0.83;
#TITLE:Ghostbusters;
#SUBTITLE:;
#ARTIST:Umi Ghoulies;
#TITLETRANSLIT:;
#SUBTITLETRANSLIT:;
#ARTISTTRANSLIT:;
#GENRE:;
#ORIGIN:;
#CREDIT:;
#BANNER:Umi Ghoulies - Ghostbusters Bn.png;
#BACKGROUND:Umi Ghoulies - Ghostbusters Bg.png;
#PREVIEWVID:;
#JACKET:;
#CDIMAGE:;
#DISCIMAGE:;
#LYRICSPATH:;
#CDTITLE:;
#MUSIC:Umi Ghoulies - Ghostbusters (Short edit).mp3;
#OFFSET:-0.045000;
#SAMPLESTART:60.305000;
#SAMPLELENGTH:12.000000;
#SELECTABLE:YES;
#BPMS:0.000=175.110;
#STOPS:;
#DELAYS:;
#WARPS:;
#TIMESIGNATURES:0.000=4=4;
#TICKCOUNTS:0.000=4;
#COMBOS:0.000=1;
#SPEEDS:0.000=1.000=0.000=0;
#SCROLLS:0.000=1.000;
#FAKES:;
#LABELS:0.000=Song Start;
#BGCHANGES:;
#KEYSOUNDS:;
#ATTACKS:
;

//---------------dance-single - ----------------
#NOTEDATA:;
#CHARTNAME:;
#STEPSTYPE:dance-single;
#DESCRIPTION:;
#CHARTSTYLE:;
#DIFFICULTY:Easy;
#METER:5;
#RADARVALUES:0.424963,0.533222,0.535453,0.154686,0.000000,250.000000,205.000000,45.000000,13.000000,0.000000,0.000000,0.000000,0.000000,0.000000,0.424963,0.533222,0.535453,0.154686,0.000000,250.000000,205.000000,45.000000,13.000000,0.000000,0.000000,0.000000,0.000000,0.000000;
#CREDIT:;
#NOTES:
// measure 0
0000
0000
0000
0000
,  // measure 1
0000
0000
0000
0000
,  // measure 2
0000
0000
0000
0000
,  // measure 3
0000
0000
0000
0000
,  // measure 4
1000
0000
0010
0000
0100
0200
0000
0300
,  // measure 5
0001
0000
0010
0000
0100
0200
0000
0300
,  // measure 6
1000
0000
0001
0000
0010
0100
0010
0000
,  // measure 7
0001
1000
0000
0000
0010
0000
0100
0000
,  // measure 8
1001
0010
0000
0100
,  // measure 9
1000
0001
0100
0100
,  // measure 10
0010
1001
0100
0010
,  // measure 11
0010
0020
0000
0000
1030
0000
0100
0000
,  // measure 12
1001
0100
0000
0100
,  // measure 13
0001
1000
0100
0100
,  // measure 14
0010
1001
0100
0010
,  // measure 15
0010
0020
0000
0000
0030
0000
0000
0000
,  // measure 16
1001
0000
0000
1000
0000
0000
1000
0000
,  // measure 17
0000
1000
0000
0000
1000
0000
1001
0000
,  // measure 18
0001
0000
0000
0001
0000
0000
0001
0000
,  // measure 19
0000
0001
0000
0000
0001
0000
0101
0000
,  // measure 20
0100
0000
0000
0100
0000
0000
0100
0000
,  // measure 21
0000
0100
0000
0000
0100
0000
0110
0000
,  // measure 22
0010
0000
0000
0010
0000
0000
0010
0000
,  // measure 23
0000
0010
0000
0000
0010
0000
1010
0000
,  // measure 24
1001
0100
0000
0100
,  // measure 25
0000
0100
0000
0100
,  // measure 26
0000
0100
2002
3003
,  // measure 27
0000
0100
0001
1000
,  // measure 28
1100
0101
0010
0010
,  // measure 29
0101
1100
0010
0010
,  // measure 30
1001
0100
0000
0110
,  // measure 31
0100
0200
0000
0000
0300
0000
0000
0000
,  // measure 32
0011
1010
0100
0100
,  // measure 33
1010
0011
0100
0100
,  // measure 34
1001
0010
0000
0110
,  // measure 35
0010
0020
0000
0000
0030
0000
0000
0000
,  // measure 36
1001
0000
0000
1000
0000
0000
0100
0000
,  // measure 37
0000
0010
0000
0000
0001
0000
1000
0000
,  // measure 38
1001
0000
0000
0001
0000
0000
0100
0000
,  // measure 39
0000
0010
0000
0000
1000
0000
0001
0000
,  // measure 40
1001
0000
0001
1000
0000
0001
1000
0000
,  // measure 41
0001
1000
0000
0001
1000
0000
0100
0000
,  // measure 42
0110
0000
0100
0010
0000
0100
0010
0000
,  // measure 43
0100
0010
0000
0100
0010
0000
0011
0000
,  // measure 44
1001
0100
0101
0010
,  // measure 45
0001
1000
0001
0000
0010
0000
1001
0000
,  // measure 46
2002
3003
0100
0000
,  // measure 47
0100
0100
0010
0001
,  // measure 48
1001
1100
0010
0101
,  // measure 49
0001
1000
0001
1000
0002
0000
0003
0000
,  // measure 50
0010
0001
0020
0000
0030
0000
0100
1000
,  // measure 51
0200
0300
1000
0001
,  // measure 52
1000
1000
0001
0110
,  // measure 53
0010
0100
0010
0000
0100
0000
1000
0000
,  // measure 54
0001
0001
1000
0110
,  // measure 55
0100
0010
0100
0000
0010
0000
0100
0000
,  // measure 56
1001
1001
0100
0011
,  // measure 57
0100
1000
0001
0000
0100
0000
0010
0000
,  // measure 58
1001
1001
0100
1010
,  // measure 59
0100
0001
0010
0000
0110
0000
1001
0000
;

//---------------dance-single - ----------------
#NOTEDATA:;
#CHARTNAME:;
#STEPSTYPE:dance-single;
#DESCRIPTION:;
#CHARTSTYLE:;
#DIFFICULTY:Medium;
#METER:7;
#RADARVALUES:0.533753,0.533222,0.392665,0.154686,0.011899,314.000000,281.000000,33.000000,13.000000,0.000000,0.000000,0.000000,0.000000,0.000000,0.533753,0.533222,0.392665,0.154686,0.011899,314.000000,281.000000,33.000000,13.000000,0.000000,0.000000,0.000000,0.000000,0.000000;
#CREDIT:;
#NOTES:
// measure 0
0000
0000
0000
0000
,  // measure 1
0000
0000
0000
0000
,  // measure 2
0000
0000
0000
0000
,  // measure 3
0000
0000
0000
0000
,  // measure 4
1000
0100
0001
0000
0100
1000
0000
0000
,  // measure 5
1001
0000
0110
0000
0100
0010
0000
0000
,  // measure 6
0001
0100
1000
0000
0100
0001
1000
0000
,  // measure 7
0100
0100
0000
0000
1000
0000
0001
0000
,  // measure 8
0010
0001
0100
0000
0010
0000
1010
0000
,  // measure 9
0010
1000
0100
0000
0010
0000
0011
0000
,  // measure 10
0010
1000
0001
0000
0100
0000
1001
0000
,  // measure 11
0100
0100
0000
0000
0001
0000
1000
0000
,  // measure 12
0100
1000
0010
0000
0100
0000
0101
0000
,  // measure 13
0100
0001
0010
0000
0100
0000
1100
0000
,  // measure 14
0100
0001
1000
0000
0010
0000
1001
0000
,  // measure 15
0010
0010
0000
0000
1000
0000
0001
0000
,  // measure 16
0010
0000
0001
0010
0000
0001
0010
0000
,  // measure 17
0001
0010
0000
0001
0010
0100
1000
0001
,  // measure 18
1000
0000
0100
1000
0000
0100
1000
0000
,  // measure 19
0100
1000
0000
0100
1000
0100
0010
0001
,  // measure 20
1000
0000
0010
1000
0000
0010
1000
0000
,  // measure 21
0010
1000
0000
0010
1000
0010
0100
0001
,  // measure 22
0100
0000
0001
0100
0000
0001
0100
0000
,  // measure 23
0001
0100
0000
0001
0100
0010
1000
0000
,  // measure 24
1001
0100
0000
0100
,  // measure 25
0000
0100
0000
0100
,  // measure 26
0010
1001
0000
1001
,  // measure 27
0100
0000
1000
0001
1000
0100
0010
0000
,  // measure 28
0010
0001
0200
0000
0310
0000
1001
0000
,  // measure 29
0010
1000
0200
0000
0310
0000
1001
0000
,  // measure 30
0010
1000
0002
0000
0103
0000
1001
0000
,  // measure 31
0100
0200
0000
0000
0301
0000
1000
0000
,  // measure 32
0100
1000
0020
0000
0130
0000
1001
0000
,  // measure 33
0100
0001
0020
0000
0130
0000
1001
0000
,  // measure 34
0100
0001
2000
0000
3010
0000
1001
0000
,  // measure 35
0010
0020
0000
0000
1030
0000
0001
0000
,  // measure 36
1000
0000
0100
1000
0000
0010
1000
0000
,  // measure 37
0100
1000
0000
0010
1000
0100
0010
0001
,  // measure 38
0010
0000
0001
0100
0000
0001
0010
0000
,  // measure 39
0001
0100
0000
0001
0010
0100
1000
0001
,  // measure 40
1000
0000
0100
1000
0000
0010
1000
0000
,  // measure 41
0001
1000
0000
0100
1000
0010
0100
0001
,  // measure 42
0010
0000
0001
1000
0000
0001
0100
0000
,  // measure 43
0001
1000
0000
0001
0010
0100
1000
0001
,  // measure 44
1000
0000
0110
0000
0010
0100
0000
0000
,  // measure 45
0001
0000
0100
0000
0001
0000
0000
0000
1000
0000
0000
0100
0000
0000
0010
0000
,  // measure 46
0001
0000
0110
0000
0010
0100
0000
0000
,  // measure 47
1001
0000
0010
0000
0100
1000
0001
0000
,  // measure 48
0010
0000
0000
0100
0000
0000
1000
0000
0001
0000
0000
0000
0000
0000
0000
0000
,  // measure 49
1000
0001
1000
0001
1000
0000
0100
0000
,  // measure 50
0010
0010
0010
0000
0100
0000
1001
0000
,  // measure 51
0100
0200
0000
0000
0300
0000
0100
0000
,  // measure 52
0010
0001
1000
0000
0100
0000
1001
0000
,  // measure 53
0100
0100
0010
0000
0110
0000
0110
0000
,  // measure 54
0010
1000
0001
0000
0100
0000
1001
0000
,  // measure 55
0100
0100
0010
0000
0110
0000
0110
0000
,  // measure 56
0010
0001
2000
0000
3100
0000
1002
0000
,  // measure 57
0103
0100
0010
0000
0110
0000
0110
0000
,  // measure 58
0010
1000
0002
0000
0103
0000
2001
0000
,  // measure 59
3100
0100
0010
0000
0110
0000
1001
0000
;

//---------------dance-single - ----------------
#NOTEDATA:;
#CHARTNAME:;
#STEPSTYPE:dance-single;
#DESCRIPTION:;
#CHARTSTYLE:;
#DIFFICULTY:Hard;
#METER:9;
#RADARVALUES:0.642543,0.639866,0.333171,0.166585,0.190383,378.000000,350.000000,28.000000,14.000000,0.000000,0.000000,0.000000,0.000000,0.000000,0.642543,0.639866,0.333171,0.166585,0.190383,378.000000,350.000000,28.000000,14.000000,0.000000,0.000000,0.000000,0.000000,0.000000;
#CREDIT:;
#NOTES:
// measure 0
0000
0000
0000
0000
,  // measure 1
0000
0000
0000
0000
,  // measure 2
0000
0000
0000
0000
,  // measure 3
0000
0000
0000
0000
,  // measure 4
1000
0000
0001
0100
0001
0000
0100
0000
0010
0000
1000
0000
0001
0000
0000
0000
,  // measure 5
1001
0000
1000
0100
0010
0001
1000
0000
,  // measure 6
0001
0000
1000
0100
1000
0000
0100
0000
0010
0000
0001
0000
1000
0000
0000
0000
,  // measure 7
0010
0110
0000
0000
1000
0100
0001
0000
,  // measure 8
0100
0000
1000
0000
0002
0000
0000
0000
1003
0000
0000
0000
0001
0000
0100
0010
,  // measure 9
0100
0001
1000
0000
1001
0000
0110
0000
,  // measure 10
1000
0100
1000
0000
0002
0000
0000
0000
0103
0000
0000
0000
1001
0000
0000
0000
,  // measure 11
0010
0110
0000
0000
0001
0100
1000
0000
,  // measure 12
0100
0000
0001
0000
2000
0000
0000
0000
3001
0000
0000
0000
1000
0000
0010
0100
,  // measure 13
0010
1000
0001
0000
1001
0000
0110
0000
,  // measure 14
0001
0010
0001
0000
2000
0000
0000
0000
3100
0000
0000
0000
1001
0000
0000
0000
,  // measure 15
0100
0110
0000
0000
1000
0001
1000
0001
,  // measure 16
0010
0000
0100
0010
0000
0001
1000
0000
,  // measure 17
0100
0000
0010
0000
0000
0000
0001
0000
1000
0000
0001
0000
0100
0010
0100
0000
,  // measure 18
0001
0000
0010
0001
0000
0100
0010
0000
,  // measure 19
1000
0000
0100
0000
0000
0000
0010
0000
0001
0000
0100
0000
0001
1000
0001
0000
,  // measure 20
0010
0000
0001
0100
0000
1000
0010
0000
,  // measure 21
0001
0000
0100
0000
0000
0000
1000
0000
0010
0000
0001
0000
0100
0010
0100
0000
,  // measure 22
0010
0000
1000
0100
0000
0001
0010
0000
,  // measure 23
1000
0000
0100
0000
0000
0000
0001
0000
0010
0000
1000
0000
0100
0010
0100
0000
,  // measure 24
1001
0010
0000
0010
,  // measure 25
0000
0010
0000
0010
,  // measure 26
1000
0100
0001
0100
1000
0001
0000
0000
,  // measure 27
0100
0000
0000
0000
0001
1000
0001
1000
0001
0000
0010
0000
0000
0000
1000
0001
,  // measure 28
1000
0000
0100
0000
0020
0000
0000
0000
0130
0000
0000
0000
0010
0000
0001
1000
,  // measure 29
0001
0100
0020
0000
1030
0000
0110
0000
,  // measure 30
0001
1000
0001
0000
0020
0000
0000
0000
0130
0000
0000
0000
1001
0000
0000
0000
,  // measure 31
0100
0000
0110
0000
0000
0000
0000
0000
1000
0000
0000
0000
0001
0000
0010
0100
,  // measure 32
0010
0000
0001
0000
2000
0000
0000
0000
3100
0000
0010
0000
0001
0000
1000
0001
,  // measure 33
1000
0100
0010
0001
1000
0110
0000
0000
,  // measure 34
0001
1000
0001
0000
0200
0000
0000
0000
0310
0000
0000
0000
1001
0000
0000
0000
,  // measure 35
0010
0110
0000
0000
1001
0000
0100
0000
,  // measure 36
0010
0000
0001
0100
0000
0100
0001
0000
,  // measure 37
0001
0000
1000
0000
0000
0000
1000
0000
0010
0000
0100
0000
0001
1000
0001
0000
,  // measure 38
0010
0000
0001
1000
0000
0100
0010
0000
,  // measure 39
0001
0000
1000
0000
0000
0000
0100
0000
0010
0000
0001
0000
0100
0010
0100
0000
,  // measure 40
0001
0000
0010
1000
0000
0100
1000
0000
,  // measure 41
0010
0000
0001
0000
0000
0000
0100
0000
0001
0000
0010
0000
0100
1000
0100
0000
,  // measure 42
1000
0000
0010
0001
0000
0100
0001
0000
,  // measure 43
0010
0000
1000
0000
0000
0000
0100
0000
1000
0000
0010
0000
0100
0001
0100
0000
,  // measure 44
0010
0000
1001
0000
0010
0100
0000
0000
,  // measure 45
1000
0000
0001
0000
1000
0000
0001
0000
0010
0000
0000
0100
0000
0000
1000
0000
,  // measure 46
0001
0100
0010
0100
0001
1000
0100
0000
,  // measure 47
1001
0000
1000
0100
0001
0010
1000
0001
,  // measure 48
1000
0000
0000
0001
0000
0000
0100
0000
0010
0000
0000
0000
0110
0000
0000
0000
,  // measure 49
1000
0001
1000
0001
0100
0000
0110
0000
,  // measure 50
1000
0001
2000
0000
3100
0000
1001
0000
,  // measure 51
0010
0100
0020
0000
1030
0001
1000
0000
,  // measure 52
0001
0000
1000
0100
2000
0000
0000
0000
3100
0000
0000
0000
0110
0000
0000
0000
,  // measure 53
1000
0000
0001
0000
1000
0010
1000
0000
0001
0000
0010
0000
0100
0000
0000
0000
,  // measure 54
1000
0000
0001
0100
0002
0000
0000
0000
0103
0000
0000
0000
0110
0000
0000
0000
,  // measure 55
0001
0000
1000
0000
0001
0010
0001
0000
1000
0000
0010
0000
0100
0000
0000
0000
,  // measure 56
0001
0000
1000
0001
2000
0000
0000
0000
3010
0000
0000
0000
0110
0000
0000
0000
,  // measure 57
1000
0000
0001
0000
0010
0100
0010
0000
0001
0000
1000
0000
0100
0000
0000
0000
,  // measure 58
0010
0000
0001
1000
0001
0000
0100
0000
0010
0000
1000
0000
0001
0000
0000
0000
,  // measure 59
1001
0000
0000
0000
0010
0100
0010
0000
1000
0000
0001
0000
1001
0000
0000
0000
;
