#VERSION:0.83;
#TITLE:Free & Easy;
#SUBTITLE:;
#ARTIST:浜崎あゆみ;
#TITLETRANSLIT:;
#SUBTITLETRANSLIT:;
#ARTISTTRANSLIT:Ayumi Hamasaki;
#GENRE:;
#ORIGIN:;
#CREDIT:;
#BANNER:Freeeasy-bn.png;
#BACKGROUND:Freeeasy-bg.png;
#PREVIEWVID:;
#JACKET:;
#CDIMAGE:;
#DISCIMAGE:;
#LYRICSPATH:;
#CDTITLE:;
#MUSIC:Free & Easy.mp3;
#OFFSET:-0.285000;
#SAMPLESTART:38.000000;
#SAMPLELENGTH:12.000000;
#SELECTABLE:YES;
#BPMS:0.000=51.950,
17.000=103.900,
47.500=55.000,
48.000=207.800,
185.000=60.000,
188.000=30.500;
#STOPS:;
#DELAYS:;
#WARPS:;
#TIMESIGNATURES:0.000=4=4;
#TICKCOUNTS:0.000=4;
#COMBOS:0.000=1;
#SPEEDS:0.000=1.000=0.000=0;
#SCROLLS:0.000=1.000;
#FAKES:;
#LABELS:0.000=Song Start;
#BGCHANGES:;
#KEYSOUNDS:;
#ATTACKS:
;

//---------------dance-single - ----------------
#NOTEDATA:;
#CHARTNAME:;
#STEPSTYPE:dance-single;
#DESCRIPTION:;
#CHARTSTYLE:;
#DIFFICULTY:Easy;
#METER:4;
#RADARVALUES:0.224618,0.262977,0.077509,0.000000,0.000000,142.000000,135.000000,7.000000,0.000000,0.000000,0.000000,0.000000,0.000000,0.000000,0.224618,0.262977,0.077509,0.000000,0.000000,142.000000,135.000000,7.000000,0.000000,0.000000,0.000000,0.000000,0.000000,0.000000;
#CREDIT:;
#NOTES:
// measure 0
0000
0000
0000
0000
,  // measure 1
0000
0000
0000
0000
,  // measure 2
0000
1000
1000
0010
,  // measure 3
0100
0001
0001
0010
,  // measure 4
0100
1000
1000
0100
,  // measure 5
0000
0010
0010
0001
,  // measure 6
0000
1000
0010
0100
,  // measure 7
0001
0001
0010
0100
,  // measure 8
1000
0100
0100
0010
,  // measure 9
0000
0001
0001
1000
,  // measure 10
0000
0010
1000
0100
,  // measure 11
1000
0000
0001
0000
1000
1000
0001
0000
,  // measure 12
0010
0010
0000
1000
,  // measure 13
0000
0001
0000
0100
,  // measure 14
0000
0010
1000
0100
,  // measure 15
0000
0010
0001
0100
,  // measure 16
0000
0100
0000
0001
,  // measure 17
0000
1000
0000
0010
,  // measure 18
0000
0100
0001
0010
,  // measure 19
0000
0100
1000
0010
,  // measure 20
0000
0010
0000
0010
,  // measure 21
0000
1000
0000
0100
,  // measure 22
0000
0001
0001
0001
,  // measure 23
0000
1000
1000
1000
,  // measure 24
0000
0010
0000
0010
,  // measure 25
0000
0001
0000
0100
,  // measure 26
0000
1000
1000
1000
,  // measure 27
0000
0001
0001
0001
,  // measure 28
0000
0100
0000
0100
,  // measure 29
0000
1001
0000
1000
,  // measure 30
1000
0001
0000
0001
,  // measure 31
0001
1000
0000
0100
,  // measure 32
0010
0001
0000
0100
,  // measure 33
0010
1000
0000
1000
,  // measure 34
0010
0010
0000
0100
,  // measure 35
0001
0001
0000
1000
,  // measure 36
0001
1000
0000
0001
,  // measure 37
0001
0001
0010
0100
,  // measure 38
1000
0010
0010
0010
,  // measure 39
0000
1001
0000
0110
,  // measure 40
0000
1000
1000
1000
,  // measure 41
0000
0110
0000
1001
,  // measure 42
0000
0001
0100
0101
,  // measure 43
0000
1000
0010
1010
,  // measure 44
0000
0010
1000
0100
,  // measure 45
0001
0100
1000
0010
,  // measure 46
1000
0001
0010
0000
,  // measure 47
0100
0000
1000
0000
;

//---------------dance-single - ----------------
#NOTEDATA:;
#CHARTNAME:;
#STEPSTYPE:dance-single;
#DESCRIPTION:;
#CHARTSTYLE:;
#DIFFICULTY:Medium;
#METER:6;
#RADARVALUES:0.273655,0.371075,0.110727,0.066436,0.066436,173.000000,163.000000,10.000000,6.000000,0.000000,0.000000,0.000000,0.000000,0.000000,0.273655,0.371075,0.110727,0.066436,0.066436,173.000000,163.000000,10.000000,6.000000,0.000000,0.000000,0.000000,0.000000,0.000000;
#CREDIT:;
#NOTES:
// measure 0
0000
0000
0000
0000
,  // measure 1
0000
0000
0000
0000
,  // measure 2
0000
0000
0000
0000
0001
0000
0000
1000
0000
0000
0000
0000
1000
0000
0000
0001
,  // measure 3
0000
0000
0010
0000
0100
0000
0000
0010
0000
0000
0100
0000
1000
0000
0010
0000
,  // measure 4
0001
0000
0100
0000
1000
0000
0000
0010
0000
0000
0100
0000
0001
0000
0000
0000
,  // measure 5
0000
0000
0000
0000
0001
0000
0000
0010
0000
0000
0100
0000
1000
0000
0000
0000
,  // measure 6
0000
0000
0000
0000
1000
0000
0000
0100
0000
0000
0010
0000
0001
0000
0000
0000
,  // measure 7
0000
0000
0000
0000
0001
0000
0000
0100
0000
0000
0010
0000
1000
0000
0000
0000
,  // measure 8
1001
0000
0000
0000
1000
0000
0000
1000
0000
0000
0010
0000
0100
0000
0000
0000
,  // measure 9
0000
0000
0000
0000
0001
0000
0000
0001
0000
0000
0010
0000
0100
0000
0000
0000
,  // measure 10
0000
0000
0000
0000
0001
0000
0000
1000
0000
0000
0100
0000
0001
0000
0000
0000
,  // measure 11
1001
0000
1000
0010
0100
0100
0001
0000
,  // measure 12
0100
0000
0010
0000
0000
1000
0000
0000
,  // measure 13
0001
0010
0100
1000
,  // measure 14
0000
0010
1000
0100
,  // measure 15
1000
0100
0001
0100
,  // measure 16
1000
0000
0100
0000
0000
0001
0000
0000
,  // measure 17
1000
0100
0010
0001
,  // measure 18
0000
0100
0001
0010
,  // measure 19
0001
0010
1000
0010
,  // measure 20
0100
0000
1000
0000
0000
0001
0000
0000
,  // measure 21
1000
1000
0100
0010
,  // measure 22
0000
0001
0100
0001
,  // measure 23
0010
0001
0100
1000
,  // measure 24
0100
0000
0001
0000
0000
1000
0000
0000
,  // measure 25
0001
0001
0010
0100
,  // measure 26
0000
0010
1000
0100
,  // measure 27
0001
0100
1000
0010
,  // measure 28
0001
0010
1000
0100
,  // measure 29
0001
0100
0001
0100
,  // measure 30
0000
1000
0000
0010
0000
0000
0000
0000
0000
0100
0000
0000
,  // measure 31
0000
0001
0000
0010
0000
0000
0000
0000
0000
0100
0000
0000
,  // measure 32
1000
0010
1000
0100
,  // measure 33
0100
1001
0000
1000
,  // measure 34
0001
0101
0000
0001
,  // measure 35
1000
1100
0000
1000
,  // measure 36
0001
2001
0000
0000
,  // measure 37
0002
0000
3003
0000
,  // measure 38
0000
0010
1000
0100
,  // measure 39
1000
1001
0000
0000
,  // measure 40
0000
0010
0001
0100
,  // measure 41
0001
1001
0000
0000
,  // measure 42
0000
0010
1000
0100
,  // measure 43
1100
0010
0001
0100
,  // measure 44
0101
0001
1000
0100
,  // measure 45
1000
0001
0100
0010
,  // measure 46
1000
0002
0023
0000
,  // measure 47
0230
0000
0000
0000
2300
0000
0000
3000
;

//---------------dance-single - ----------------
#NOTEDATA:;
#CHARTNAME:;
#STEPSTYPE:dance-single;
#DESCRIPTION:;
#CHARTSTYLE:;
#DIFFICULTY:Hard;
#METER:8;
#RADARVALUES:0.366982,0.636128,0.188236,0.343255,0.143945,232.000000,215.000000,17.000000,31.000000,0.000000,0.000000,0.000000,0.000000,0.000000,0.366982,0.636128,0.188236,0.343255,0.143945,232.000000,215.000000,17.000000,31.000000,0.000000,0.000000,0.000000,0.000000,0.000000;
#CREDIT:;
#NOTES:
// measure 0
0000
0000
0000
0000
,  // measure 1
0000
0000
0000
0000
,  // measure 2
0000
0000
0000
0000
0001
0010
0100
1000
0000
0000
0000
0000
1000
0010
0100
0001
,  // measure 3
0000
0000
1000
0000
0001
0100
0010
1000
0000
0000
0001
0000
0010
0100
1000
0100
,  // measure 4
0001
0100
0010
0100
1000
0000
0001
0100
0000
0001
1000
0000
0100
0000
0000
0000
,  // measure 5
1001
0000
0000
0000
0010
0000
0100
1000
0000
0100
0010
0000
1000
0000
0000
0000
,  // measure 6
0000
0000
0000
0000
0100
0000
0001
0100
0000
1000
0010
0000
0100
0000
0000
0000
,  // measure 7
0000
0000
0000
0000
0001
0000
0010
0100
0000
1000
0001
0000
1000
0000
0010
0000
,  // measure 8
0100
0000
0001
0000
0010
0000
0100
1000
0000
0100
0010
0000
0001
0000
0100
0000
,  // measure 9
0010
0000
0000
0000
0100
0000
0001
0100
0000
0010
0100
0000
0010
0000
1000
0000
,  // measure 10
0100
0000
0000
0000
1000
0000
0010
1000
0000
0100
0010
0000
0100
0000
1000
0000
,  // measure 11
0001
0000
0100
1000
0010
0001
0100
0000
,  // measure 12
0010
0000
2000
0000
0000
3002
0000
0000
,  // measure 13
0103
0020
0000
0230
,  // measure 14
0000
2300
0000
0000
,  // measure 15
3001
0200
0000
0010
,  // measure 16
0310
0000
0002
0000
0013
0200
0000
0000
,  // measure 17
1300
0020
0000
2030
,  // measure 18
0000
3002
0000
0103
,  // measure 19
0100
1001
0000
0000
,  // measure 20
0010
0000
0100
0000
1000
0010
0000
0100
,  // measure 21
0001
0010
0200
0000
0000
0000
1300
0000
,  // measure 22
0001
0200
0000
0310
,  // measure 23
0100
1002
0000
0003
,  // measure 24
1000
0000
0001
0000
0010
0200
0000
0000
,  // measure 25
1300
0000
0010
0000
0100
0001
0010
0000
,  // measure 26
0100
2001
0000
3001
,  // measure 27
1000
0100
1000
0000
1000
0000
0002
0000
,  // measure 28
0000
0000
1003
0010
0100
0001
1000
0001
,  // measure 29
0010
0100
1000
0010
0100
0001
0010
0000
,  // measure 30
0000
0001
0000
1000
0000
0000
0100
0000
0000
1000
0000
0000
,  // measure 31
0000
0010
0000
0100
0000
0000
0010
0000
0000
1000
0000
0000
,  // measure 32
0110
1001
0100
1100
,  // measure 33
0001
0200
0000
0000
0300
0000
0110
0000
,  // measure 34
1100
2002
3003
0110
,  // measure 35
0101
2002
3003
0001
,  // measure 36
1000
1002
0000
0000
,  // measure 37
1000
2000
0000
3003
,  // measure 38
0000
0000
0001
0010
0000
0100
1000
0001
,  // measure 39
0100
0010
1010
0100
,  // measure 40
0101
0000
0001
0010
0000
0001
0000
1000
,  // measure 41
0010
0010
1000
0100
,  // measure 42
0001
0000
0100
1000
0020
0000
0000
0000
,  // measure 43
0130
2002
3003
0010
,  // measure 44
0100
0000
0010
1000
0010
1000
0010
0100
,  // measure 45
0010
0100
0001
0100
0001
0100
0001
1000
,  // measure 46
0001
1000
0200
0000
2000
0000
0300
0000
,  // measure 47
3020
0000
0000
0000
0200
0000
0000
0330
;

//---------------dance-single - ----------------
#NOTEDATA:;
#CHARTNAME:;
#STEPSTYPE:dance-single;
#DESCRIPTION:;
#CHARTSTYLE:;
#DIFFICULTY:Challenge;
#METER:9;
#RADARVALUES:0.477709,0.689139,0.321109,0.099655,0.143945,302.000000,273.000000,29.000000,9.000000,0.000000,0.000000,0.000000,0.000000,0.000000,0.477709,0.689139,0.321109,0.099655,0.143945,302.000000,273.000000,29.000000,9.000000,0.000000,0.000000,0.000000,0.000000,0.000000;
#CREDIT:;
#NOTES:
// measure 0
0000
0000
0000
0000
,  // measure 1
0000
0000
0000
0000
,  // measure 2
0000
0000
0000
0000
0001
0100
1000
0001
0000
0000
0000
0000
1000
0010
0001
1000
,  // measure 3
0000
0000
0001
0000
1000
0010
0001
0100
0000
0000
0001
0000
0001
1000
0001
0100
,  // measure 4
0001
1000
0100
0010
1001
0000
0001
1000
0000
0010
0100
0000
0101
0000
0000
0000
,  // measure 5
0001
0000
0000
0000
1000
0000
0010
0100
0000
0001
1000
0000
1010
0000
0000
0000
,  // measure 6
0000
0000
0000
0000
0010
0000
0100
0001
0000
0010
0100
0000
1000
0000
0000
0000
,  // measure 7
0000
0000
0000
0000
0001
0000
0100
0001
0000
1000
0001
0000
0010
0000
0100
0000
,  // measure 8
1000
0000
0010
0000
0100
0000
0010
1000
0000
0010
0001
0000
1000
0000
1000
0000
,  // measure 9
0100
0000
0000
0000
0010
0000
0100
0001
0000
0100
1000
0000
0010
0000
0100
0000
,  // measure 10
0001
0000
0000
0000
1100
0000
1000
0001
0000
0001
0010
0000
0011
0000
0001
0000
,  // measure 11
1001
0000
0001
1000
0100
0110
1001
0000
,  // measure 12
0100
0000
1000
0000
0010
0100
0000
0001
,  // measure 13
0010
0100
1000
0000
1000
0000
1001
0000
,  // measure 14
0110
0000
1001
0000
0001
0010
0100
0000
,  // measure 15
1000
0000
0001
0100
1000
0100
0001
1000
,  // measure 16
0100
0001
0100
0000
0001
1000
0000
0100
,  // measure 17
0010
0001
0100
0000
0010
0000
1001
0000
,  // measure 18
0110
0000
1001
0000
0001
0100
0001
0000
,  // measure 19
1000
0000
0010
1000
0100
1000
0001
0100
,  // measure 20
0010
1000
0001
0000
0100
0010
0000
1000
,  // measure 21
0100
0010
0001
0000
0001
0000
1001
0000
,  // measure 22
0110
0000
1001
0000
1000
0100
0010
0000
,  // measure 23
1000
0000
1000
0010
0100
0001
1000
0010
,  // measure 24
0100
0001
0010
0000
1000
0001
0000
0010
,  // measure 25
0100
1000
0010
0000
0100
0000
1001
0000
,  // measure 26
0110
0000
1000
0000
0001
0010
0100
0000
,  // measure 27
1000
0010
0100
0000
0100
0000
1001
0000
,  // measure 28
0000
0000
1000
0010
0100
0001
1000
0100
,  // measure 29
0001
0100
1000
0010
0100
0010
1000
0000
,  // measure 30
0000
0000
0001
0000
0000
0000
1000
0000
0000
0000
0000
0000
1000
0000
0000
0010
0000
0000
0100
0000
0000
0000
0000
0000
,  // measure 31
0000
0000
0100
0000
0000
0000
0001
0000
0000
0000
0000
0000
0010
0000
0000
0100
0000
0000
1000
0000
0000
0000
0000
0000
,  // measure 32
0010
0100
0010
1001
,  // measure 33
0100
0200
0000
0000
0300
0000
0001
0010
,  // measure 34
0100
0000
0200
0000
1300
0000
1000
0010
,  // measure 35
0100
0200
0300
1100
,  // measure 36
0101
0000
1001
0000
0010
1000
0010
0000
,  // measure 37
1001
0000
0010
1000
0100
1000
0001
1000
,  // measure 38
0100
0000
0010
1000
0000
0010
0100
1000
,  // measure 39
0100
0000
1001
0000
1000
0100
0001
0100
,  // measure 40
1000
0000
0001
0010
0000
0100
0000
1000
,  // measure 41
0010
0000
1000
0100
0001
0100
1000
0001
,  // measure 42
0100
1000
0100
0010
1000
0000
0001
0000
,  // measure 43
1000
2002
3003
1100
,  // measure 44
0101
0000
1000
0100
0001
0100
1000
0001
,  // measure 45
0100
0010
1000
0100
0001
0100
1000
0010
,  // measure 46
0001
0010
0200
0000
0020
0000
0300
0000
,  // measure 47
2030
0000
0000
0000
0002
0000
0000
3003
;
