#VERSION:0.83;
#TITLE:Fly Through The Night;
#SUBTITLE:;
#ARTIST:Mr.T;
#TITLETRANSLIT:;
#SUBTITLETRANSLIT:;
#ARTISTTRANSLIT:;
#GENRE:;
#ORIGIN:;
#CREDIT:;
#BANNER:flythrough bn2.png;
#BACKGROUND:flythrough bg.png;
#PREVIEWVID:;
#JACKET:;
#CDIMAGE:;
#DISCIMAGE:;
#LYRICSPATH:;
#CDTITLE:;
#MUSIC:Fly Through The Night.mp3;
#OFFSET:0.855000;
#SAMPLESTART:56.959999;
#SAMPLELENGTH:12.000000;
#SELECTABLE:YES;
#BPMS:0.000=140.000;
#STOPS:;
#DELAYS:;
#WARPS:;
#TIMESIGNATURES:0.000=4=4;
#TICKCOUNTS:0.000=4;
#COMBOS:0.000=1;
#SPEEDS:0.000=1.000=0.000=0;
#SCROLLS:0.000=1.000;
#FAKES:;
#LABELS:0.000=Song Start;
#BGCHANGES:0.000=flythrough.avi=0.100=0=0=1=====,
0.750=flythrough.avi=1.000=0=0=1=====,
99999=-nosongbg-=1.000=0=0=0 // don't automatically add -songbackground-
;
#KEYSOUNDS:;
#ATTACKS:
;

//---------------dance-single - ----------------
#NOTEDATA:;
#CHARTNAME:;
#STEPSTYPE:dance-single;
#DESCRIPTION:;
#CHARTSTYLE:;
#DIFFICULTY:Easy;
#METER:3;
#RADARVALUES:0.306948,0.453320,0.320189,0.193798,0.000000,255.000000,217.000000,38.000000,23.000000,0.000000,0.000000,0.000000,0.000000,0.000000,0.306948,0.453320,0.320189,0.193798,0.000000,255.000000,217.000000,38.000000,23.000000,0.000000,0.000000,0.000000,0.000000,0.000000;
#CREDIT:;
#NOTES:
0000
0000
0000
0000
,
0000
0000
0000
0000
,
0000
0000
0000
0000
,
0000
0000
0000
0000
,
0000
0000
0000
0000
,
0000
0000
0000
2000
,
0000
0010
0000
3002
,
0000
0023
0030
1001
,
0000
1001
0000
1001
,
0110
1001
0110
1001
,
1000
0000
0010
0000
,
0100
0000
0001
0010
,
0010
0100
1000
0010
,
0010
0100
0001
1001
,
0001
0000
0010
0000
,
0100
0000
1000
0010
,
0010
0100
0001
0010
,
0010
0100
1000
0010
,
1001
1000
0001
0010
,
1001
1000
0001
0010
,
0100
1000
0001
0100
,
0010
1000
0001
0100
,
1001
1000
0100
0001
,
1001
1000
0100
0001
,
0100
1000
0010
0001
,
0001
1000
1000
2001
,
0000
0100
0000
3002
,
0000
0010
0003
0200
,
0000
1000
0000
0310
,
0001
2000
0000
3020
,
0000
0100
0000
2030
,
0010
3200
0310
1001
,
0100
1001
0010
1001
,
0110
1001
0110
1001
,
0001
0010
0010
1001
,
1000
0010
0010
0100
,
0001
1000
0001
0100
,
0001
1000
0001
1001
,
1000
0100
0100
1001
,
0001
0100
0100
1001
,
0001
0000
1000
0001
1000
0001
2000
0000
,
0100
0002
3003
1000
,
1000
0010
0010
0100
,
0100
0001
0001
0100
,
0100
0010
0010
0100
,
0100
0100
0100
0001
,
0001
0010
0010
0100
,
0100
1000
1000
0100
,
0100
0010
0010
0100
,
0100
1000
0001
1001
,
0200
0300
0020
0030
,
0200
0300
1000
0110
,
0001
0010
1000
0100
,
0001
1000
0110
1001
,
0001
1000
0200
0300
,
0020
0031
1000
0110
,
0001
0110
1000
0110
,
0110
1001
0110
1001
,
1000
0020
0130
0001
,
0010
0100
1000
1001
,
0100
0010
0100
1000
,
0001
1000
0100
1001
,
1000
0002
0013
0100
,
1000
0010
0100
0001
,
1000
0000
0001
1000
0001
1000
0002
0000
,
0000
2000
3003
2002
,
0000
0000
0000
0000
,
0000
3003
0000
0000
;

//---------------dance-single - ----------------
#NOTEDATA:;
#CHARTNAME:;
#STEPSTYPE:dance-single;
#DESCRIPTION:;
#CHARTSTYLE:;
#DIFFICULTY:Medium;
#METER:7;
#RADARVALUES:0.434542,0.481652,0.160094,0.235929,0.096899,361.000000,342.000000,19.000000,28.000000,0.000000,0.000000,0.000000,0.000000,0.000000,0.434542,0.481652,0.160094,0.235929,0.096899,361.000000,342.000000,19.000000,28.000000,0.000000,0.000000,0.000000,0.000000,0.000000;
#CREDIT:;
#NOTES:
0000
0000
0000
0000
,
0000
0000
0000
0000
,
0000
0000
0000
0000
,
0000
0000
0000
0000
,
0000
0000
0000
0000
,
0000
0000
0000
0000
0000
0000
2000
0001
,
0000
3001
0000
0001
0000
0001
0020
0001
,
0030
0001
2000
0001
3000
0001
2000
0010
,
3000
0010
2000
3100
0000
0010
0011
0000
,
0011
0000
1100
0000
1100
0000
1001
0100
,
0000
0010
0000
0001
0000
1000
0000
0100
,
0000
0010
0000
0001
0000
0100
0010
1000
,
0000
0001
0100
0010
1000
0001
0000
0010
,
0100
1000
0000
0100
0010
0001
1000
0100
,
0000
0010
0001
0000
1000
0100
0000
0010
,
0001
0000
0000
0000
0001
0000
0010
0000
0000
0100
0000
0000
1000
0000
0001
0000
,
0100
0010
0000
1000
0100
0010
0100
1000
,
0001
0010
0001
0010
0100
1000
0002
0000
,
1003
0000
0000
0000
0100
0000
0000
0100
0000
0000
0100
0000
0020
0000
0000
0000
,
0031
0000
0000
0000
0010
0000
0000
0010
0000
0000
0100
0000
1000
0000
0001
0000
,
0010
0000
0100
1000
0010
0000
0100
0001
,
0010
0000
0001
1000
0100
0000
0001
1000
,
0100
0000
0000
0000
0010
0000
0000
0010
0000
0000
0001
0000
1000
0000
0001
0000
,
0100
0000
0000
0000
0010
0000
0000
0010
0000
0000
1000
0000
0001
0000
1000
0000
,
0100
0000
0010
0001
1000
0000
0010
0100
,
0001
0010
0100
1000
0010
0100
0002
1000
,
0000
1003
0000
1000
0000
1000
0020
0100
,
0000
0130
0000
0100
0000
0100
0002
0010
,
0000
0013
0000
0010
0000
0100
0000
0100
,
0000
0100
1000
0100
0000
0010
0001
0100
,
0000
0010
0000
1000
0000
0100
0010
0001
,
0000
0100
1000
0010
0000
0100
0001
0010
,
0100
0000
1000
0010
0100
0000
1001
0000
,
0110
1001
0110
2000
,
3200
0000
0000
0000
0310
0000
0000
0010
0000
0000
0001
0000
0200
0000
0000
0000
,
0302
0000
0000
0000
1003
0000
0000
1000
0000
0000
0100
0000
0010
0000
0000
0000
,
0100
1000
0010
0100
0001
0100
0010
1000
,
0001
0100
0010
0100
0001
1000
0002
0000
,
2003
0000
0000
0000
3100
0000
0000
1100
0000
0000
1000
0000
0020
0000
0000
0000
,
0230
0000
0000
0000
0301
0000
0000
0101
0000
0000
0100
0000
0010
0000
1000
0000
,
0001
0000
0001
1000
0100
0010
0002
0000
,
0100
0000
2000
0000
3003
0000
1000
0100
,
1000
0000
0100
0010
0001
0000
0100
0001
,
0100
0000
0001
0010
0100
0000
1000
0010
,
1000
0000
0010
0100
0001
0000
0010
0001
,
0010
0000
0000
0000
0001
0000
0100
0000
0010
0000
0000
0000
1000
0000
0000
1000
,
0000
0000
1000
0000
0010
0000
0000
0010
0000
0000
0010
0000
0100
0000
0000
0100
,
0000
0000
0100
0000
1000
0000
0000
1000
0000
0000
1000
0000
0100
0000
0000
0100
,
0000
0000
0100
0000
0001
0000
0000
0001
0000
0000
0001
0000
0010
0000
0000
0010
,
0000
0000
0010
0000
0100
0000
0000
1000
0000
0001
0000
0000
1000
0000
0100
0000
,
0000
0010
0100
0000
1000
0010
0000
0100
,
0000
0001
0000
1000
0000
0010
0200
0000
,
0300
0010
0200
0000
0300
0001
0000
0010
,
0000
0001
0010
0100
1000
0010
0200
0001
,
0300
1000
0100
0010
0001
0010
0000
0100
,
1000
0002
0000
1003
0100
0010
1001
0000
,
0000
0100
1001
0000
0000
0010
1001
0000
,
1001
0110
0110
1001
,
0001
0000
0010
0000
0100
0000
0000
0100
0000
0000
1000
0000
0010
0000
0100
0000
,
0001
0000
0000
0000
0010
0000
0000
0010
0000
0000
0100
0000
1000
0000
0100
0000
,
0010
0001
0001
0010
0100
1000
1000
0010
,
0100
0001
0001
0100
0010
1000
0001
0000
,
0100
0000
0010
0000
1000
0000
0000
1000
0000
0000
0010
0000
0100
0000
0001
0000
,
0010
0000
0000
0000
0100
0000
0000
0100
0000
0000
0010
0000
0001
0000
0000
0000
,
0100
0000
0000
0000
0010
0000
1000
0000
0001
0000
1000
0100
2000
0000
0000
0000
,
0000
0002
3003
2002
,
0000
0000
0000
0000
,
0000
3003
0000
0000
;

//---------------dance-single - ----------------
#NOTEDATA:;
#CHARTNAME:;
#STEPSTYPE:dance-single;
#DESCRIPTION:;
#CHARTSTYLE:;
#DIFFICULTY:Hard;
#METER:9;
#RADARVALUES:0.623525,0.934972,0.210650,0.429727,0.690934,518.000000,493.000000,25.000000,51.000000,0.000000,0.000000,0.000000,0.000000,0.000000,0.623525,0.934972,0.210650,0.429727,0.690934,518.000000,493.000000,25.000000,51.000000,0.000000,0.000000,0.000000,0.000000,0.000000;
#CREDIT:;
#NOTES:
// measure 0
0000
0000
0000
0000
,  // measure 1
0000
0000
0000
0000
,  // measure 2
0000
0000
0000
0000
,  // measure 3
0000
0000
0000
0000
,  // measure 4
0000
0000
0000
0000
,  // measure 5
0000
0000
0000
0000
0000
0000
1001
0100
,  // measure 6
0000
0100
0000
0100
0000
0100
0020
0100
,  // measure 7
0030
0100
2000
0100
3000
0100
1001
1000
,  // measure 8
0000
1000
1001
0001
0000
0001
0011
0100
,  // measure 9
1010
0000
1001
0000
0110
0000
1001
0010
,  // measure 10
0000
1000
0100
0010
0001
1000
0000
1100
,  // measure 11
0000
0000
0010
0000
0000
0000
1001
0000
0000
0000
0010
0000
1000
0001
0100
0010
,  // measure 12
0000
1000
0001
0010
0000
0100
0000
1000
0001
0000
0001
0000
0100
0010
1000
0100
,  // measure 13
0000
1000
0001
0010
0000
0100
0000
0100
0010
0000
0010
0000
1001
0000
0100
0000
,  // measure 14
0010
0000
2020
0000
3030
0022
0000
0033
,  // measure 15
2200
0000
0000
0000
3300
0000
0110
0000
0000
0011
0000
0000
1000
0010
1000
0100
,  // measure 16
0000
0010
0001
0010
0000
0100
0000
1000
0001
0000
1000
0000
1000
0100
1000
0100
,  // measure 17
1000
0001
1000
0001
0100
0001
0100
0001
0100
0010
0100
0010
1000
0001
0010
0000
,  // measure 18
0000
0010
0000
0010
0001
0000
0010
0001
0000
0010
0200
0000
0000
1300
0001
0010
,  // measure 19
0000
0100
0000
0100
0010
0000
0100
0010
0000
0100
2000
0000
3100
0010
0100
1000
,  // measure 20
0000
0001
0010
0001
0000
0100
0000
0001
1000
0000
0010
0000
1000
0001
0010
0100
,  // measure 21
0000
0010
0001
0100
0000
0010
0000
1000
0001
0000
0100
0000
0001
0010
0001
0000
,  // measure 22
0000
0001
0000
0001
1000
0000
0100
1000
0000
0100
0020
0000
0000
0130
1000
0001
,  // measure 23
0000
0100
0000
0100
0010
0000
0100
0001
0000
0100
2000
0000
3100
0001
0010
0100
,  // measure 24
0000
1000
0100
1000
0000
0010
0000
0100
0001
0000
1000
0000
0100
0010
0100
1000
,  // measure 25
0000
0001
0010
0001
0000
0100
0000
0010
1000
0000
0100
0000
2001
0000
0100
0000
,  // measure 26
0000
0100
0000
0100
0000
3100
0020
0100
,  // measure 27
0000
0100
0000
0100
0000
0130
0002
0100
,  // measure 28
0000
0100
0000
0100
0000
0100
0000
0100
,  // measure 29
0000
0103
0020
0100
0000
0130
1002
0010
,  // measure 30
0000
1000
0000
0100
0000
0013
2100
0010
,  // measure 31
0000
0000
3010
0000
0102
0000
0010
0000
0000
0000
0013
0000
1000
0100
1000
0100
,  // measure 32
1000
0001
1000
0001
1000
0010
1000
0010
0100
0001
0100
0001
0010
0100
1000
0010
,  // measure 33
0100
0001
1000
0100
0010
0100
1000
0001
0010
0100
0010
0001
1000
0010
0100
0000
,  // measure 34
0000
0100
0000
0100
0010
0000
1000
0010
0000
0100
0002
0000
1003
0100
0010
0100
,  // measure 35
0000
1000
0000
0100
0010
0000
0001
0010
0000
0100
1000
0000
0001
0000
0010
0000
,  // measure 36
0100
1000
0001
0100
0010
1000
0001
0100
,  // measure 37
0010
0000
1000
0000
0001
0010
0100
1000
0001
1000
0100
0010
0001
1000
0000
0001
,  // measure 38
0010
0000
0001
0100
0000
0010
1000
0000
0100
0010
0000
0001
0100
0000
0010
1000
,  // measure 39
0100
0010
0001
0000
1000
0001
0000
1000
0100
0001
0100
0000
1000
0010
0000
0100
,  // measure 40
0010
0000
1000
0001
0000
0010
0100
0000
0010
0001
0000
1000
0100
0000
0010
0001
,  // measure 41
0010
0100
1000
0000
0001
0010
0100
1000
0001
0010
0100
1000
0010
0000
0010
0000
,  // measure 42
0000
0010
0000
0000
1000
0000
1000
0000
0000
1000
0000
0000
0001
0000
0001
0000
,  // measure 43
0000
0001
0000
0000
0010
0000
0010
0000
0000
0010
0000
0000
0001
0000
0001
0000
,  // measure 44
0000
0001
0000
0000
1000
0000
1000
0000
0000
1000
0000
0000
0100
0000
0100
0000
,  // measure 45
0000
0100
0000
0000
0100
0000
0100
0000
0000
0100
0010
0000
0002
0000
0000
0010
,  // measure 46
0000
0000
0013
0000
0200
0000
0000
1000
0000
0000
1300
0000
0002
0000
0000
0100
,  // measure 47
0000
0000
0103
0000
0020
0000
0000
1000
0000
0000
1030
0000
0200
0000
0000
0010
,  // measure 48
0000
0000
1300
0000
0002
0000
0000
0100
0000
0000
1003
0000
0020
0000
0000
0100
,  // measure 49
0000
0000
1030
0000
0002
0000
0000
1000
0000
0010
0003
0000
2100
0000
0010
0000
,  // measure 50
0000
3100
0010
0001
0100
0020
0000
2030
,  // measure 51
0000
0000
3200
0000
0000
0000
1000
0000
0000
0000
0310
0001
0020
0000
0100
0000
,  // measure 52
0030
1000
0200
0010
0000
2300
0000
3020
,  // measure 53
0000
0000
0130
0000
0001
0000
0010
0000
0100
0000
1000
0010
2000
0000
0001
0000
,  // measure 54
0000
3100
0100
0010
0001
2000
0000
3010
,  // measure 55
0100
0002
0000
1003
0100
0010
0002
0010
,  // measure 56
0003
0000
1000
0100
2000
0000
0000
0000
0000
0000
3001
0010
0001
0000
2000
0000
,  // measure 57
0000
3200
0000
0310
0001
0010
0200
0010
,  // measure 58
0300
0000
0001
0010
0200
0000
0000
1000
0300
0000
0010
0100
0002
0000
1000
0000
,  // measure 59
0003
0000
0100
0010
1000
0000
0100
0000
0001
0000
0010
0000
1100
0000
0000
0000
,  // measure 60
0100
0010
0001
0100
0010
1000
0001
0010
,  // measure 61
0100
0000
1000
0000
0001
0100
0010
1000
0001
0100
0010
1000
0002
0000
0100
0000
,  // measure 62
0003
0000
0100
0010
1000
0000
0001
0000
0100
0000
0010
0000
1000
0000
0000
0001
,  // measure 63
0010
0100
1000
0000
0010
0000
0100
0000
0011
0000
0000
0000
1001
0000
0100
0000
,  // measure 64
0010
0000
1000
0100
1000
0100
0010
0001
1000
0100
0010
0001
0020
0000
0000
0000
,  // measure 65
0000
0000
0200
0000
0000
0330
2002
0000
,  // measure 66
0000
0000
0000
0000
,  // measure 67
0000
3003
0000
0000
;
