#TITLE:Find Another Way;
#SUBTITLE:;
#ARTIST:Captain Hollywood;
#TITLETRANSLIT:;
#SUBTITLETRANSLIT:;
#ARTISTTRANSLIT:;
#GENRE:;
#CREDIT:;
#BANNER:Find Another Way bn2.png;
#BACKGROUND:Find Another Way bg.png;
#LYRICSPATH:;
#CDTITLE:;
#MUSIC:Find Another Way.mp3;
#OFFSET:-0.050000;
#SAMPLESTART:47.389999;
#SAMPLELENGTH:12.000000;
#SELECTABLE:YES;
#BPMS:0.000000=159.050003
;
#STOPS:
;
#BGCHANGES:;
#KEYSOUNDS:;
#ATTACKS:;

//---------------dance-single - ----------------
#NOTES:
     dance-single:
     :
     Easy:
     4:
     0.375092,0.521135,0.329453,0.469221,0.000000,263.000000,230.000000,33.000000,47.000000,0.000000,0.000000,0.375092,0.521135,0.329453,0.469221,0.000000,263.000000,230.000000,33.000000,47.000000,0.000000,0.000000:
// measure 0
0000
0000
0000
0000
,  // measure 1
0000
0000
0000
0000
,  // measure 2
0000
0000
0000
0000
,  // measure 3
0000
0000
0000
0000
,  // measure 4
0200
0300
0200
0300
,  // measure 5
0020
0030
0020
0030
,  // measure 6
2000
3000
2000
3000
,  // measure 7
0001
0010
0100
1000
,  // measure 8
1001
1000
0100
0010
,  // measure 9
1000
0010
0100
0001
,  // measure 10
0010
1000
0100
0001
,  // measure 11
0010
1001
0100
0110
,  // measure 12
1001
0010
0100
0001
,  // measure 13
1000
0010
0010
0100
,  // measure 14
0001
1000
0010
0100
,  // measure 15
2000
3001
0002
1003
,  // measure 16
1001
0100
0100
0010
,  // measure 17
0001
0000
1000
0100
0000
0000
0010
0000
,  // measure 18
1001
0100
0010
0001
,  // measure 19
1000
0110
0001
0110
,  // measure 20
1000
0010
0100
0101
,  // measure 21
0001
0010
0100
1100
,  // measure 22
1000
1001
0001
1001
,  // measure 23
0100
0000
0100
0000
0010
0100
0010
0000
,  // measure 24
1001
1001
0001
0010
,  // measure 25
0100
1000
0010
0001
,  // measure 26
0100
1001
0010
1001
,  // measure 27
1100
0000
1100
0000
0001
0100
0001
0000
,  // measure 28
1001
1001
0010
0100
,  // measure 29
1000
0001
1000
0010
,  // measure 30
0200
0300
1001
0110
,  // measure 31
2000
0000
3002
0103
,  // measure 32
2000
0000
3001
0100
,  // measure 33
1001
0001
2000
3200
,  // measure 34
0310
0011
0010
0100
,  // measure 35
1100
0000
1000
0001
0000
0001
1000
0000
,  // measure 36
0100
1001
1000
0110
,  // measure 37
1000
0000
0010
0100
0000
0001
0000
0001
,  // measure 38
0000
0000
0200
0000
0000
0000
0000
0310
,  // measure 39
0010
0000
1001
0000
0010
0000
1000
0001
,  // measure 40
1000
1000
0010
0100
,  // measure 41
0001
0001
0100
0010
,  // measure 42
0100
0100
0001
0010
,  // measure 43
0100
0100
1000
0010
,  // measure 44
0100
0100
0001
0011
,  // measure 45
0010
0010
0100
1100
,  // measure 46
1000
1000
0010
0110
,  // measure 47
0100
0000
0100
0000
0100
0001
1000
0000
,  // measure 48
1001
0010
0010
0200
,  // measure 49
0301
1000
1000
0020
,  // measure 50
0130
0001
1000
0002
,  // measure 51
0103
0020
1030
2000
,  // measure 52
3100
0010
0010
0200
,  // measure 53
1300
0010
0010
0200
,  // measure 54
0301
0010
0100
0200
,  // measure 55
1300
0002
1003
0020
,  // measure 56
1030
2000
3200
0320
,  // measure 57
0230
0300
2000
3000
,  // measure 58
0002
0003
2000
3010
,  // measure 59
0200
0302
0023
0230
,  // measure 60
1300
0002
0203
0320
,  // measure 61
0230
0300
0002
0003
,  // measure 62
2000
3000
0002
0013
,  // measure 63
0200
1300
0020
0130
,  // measure 64
2002
0000
0000
0000
,  // measure 65
0000
3003
0000
0000
;

//---------------dance-single - ----------------
#NOTES:
     dance-single:
     :
     Medium:
     6:
     0.454959,0.488564,0.259569,0.399337,0.000000,319.000000,293.000000,26.000000,40.000000,0.000000,0.000000,0.454959,0.488564,0.259569,0.399337,0.000000,319.000000,293.000000,26.000000,40.000000,0.000000,0.000000:
// measure 0
0000
0000
0000
0000
,  // measure 1
0000
0000
0000
0000
,  // measure 2
0000
0000
0000
0000
,  // measure 3
0000
0000
0000
0000
,  // measure 4
1000
0010
0000
0010
0000
0010
0000
0010
,  // measure 5
0100
0001
0000
0001
0000
0001
0000
0001
,  // measure 6
1000
0010
0000
0010
0000
0010
0000
0010
,  // measure 7
0100
0001
0000
0001
0100
0010
0000
0010
,  // measure 8
1000
0000
0001
0000
1000
0100
1000
0000
,  // measure 9
0001
0000
1000
0000
0001
0100
0001
0000
,  // measure 10
1000
0000
0001
0000
1000
0010
1000
0000
,  // measure 11
0001
1000
0010
0000
0100
0001
1000
0000
,  // measure 12
1000
0010
0000
0010
0000
0010
0000
0010
,  // measure 13
1000
0001
0000
0001
0000
0001
0000
0001
,  // measure 14
0100
0010
0000
0010
0000
0010
0100
0002
,  // measure 15
0000
2003
0000
3100
0010
0000
1001
0000
,  // measure 16
1000
1000
1000
0000
0001
0000
0100
0000
,  // measure 17
0010
1000
0010
0000
1001
0000
0010
0000
,  // measure 18
0100
0001
1000
0000
0100
0000
1001
0000
,  // measure 19
0012
0000
1003
0000
2100
0000
3100
0010
,  // measure 20
0001
0000
1001
0000
1000
0100
1000
0000
,  // measure 21
0010
0000
1001
0000
0001
0010
0001
0000
,  // measure 22
1000
0100
1000
0000
0100
0010
0001
0000
,  // measure 23
2001
3100
0120
0031
,  // measure 24
1000
0010
0000
0010
0000
0010
0000
0010
,  // measure 25
0000
0100
0000
0100
0000
0100
0000
0100
,  // measure 26
0001
1000
0000
1000
0000
1000
0000
1000
,  // measure 27
0001
0100
0000
0100
0000
0100
0000
0100
,  // measure 28
0010
1000
0000
0001
0000
0010
0000
0010
,  // measure 29
0000
0100
0000
0100
0000
1000
0000
0010
,  // measure 30
0100
0001
0000
0001
0000
0010
0000
0100
,  // measure 31
2000
0000
0000
3002
0000
0000
0103
0000
,  // measure 32
1010
0000
1000
0010
0100
0000
0110
0000
,  // measure 33
0101
0000
0001
0010
0000
0100
1000
0000
,  // measure 34
0100
1001
1100
0110
,  // measure 35
1001
0000
0100
0010
0000
0100
0010
0000
,  // measure 36
1001
0000
0001
0100
1000
0000
1001
0000
,  // measure 37
0001
0000
0100
1000
0000
0010
0100
0002
,  // measure 38
1000
0000
1003
0000
0110
0000
0000
0001
,  // measure 39
0010
0000
1001
0000
0001
0010
0100
1000
,  // measure 40
0001
2000
3200
0320
,  // measure 41
0230
0000
1300
0001
0000
0010
0100
0000
,  // measure 42
1001
0000
0100
0000
1000
0001
1000
0020
,  // measure 43
0000
0000
0130
0000
0001
0000
1000
0100
,  // measure 44
1000
0002
2003
3020
,  // measure 45
2030
0000
3001
0010
0000
0100
1000
0000
,  // measure 46
0010
0000
0000
1001
0000
0010
1000
0020
,  // measure 47
0000
0230
0000
0301
0010
0100
0010
0000
,  // measure 48
1001
0000
1000
0000
0010
0000
0100
0001
,  // measure 49
0010
0000
1001
0000
0010
0100
0001
0000
,  // measure 50
0010
1001
0100
1001
,  // measure 51
1000
0001
0010
0000
0100
1000
0001
0000
,  // measure 52
1000
0010
0000
0100
0000
0010
0000
0100
,  // measure 53
0001
1000
0000
0001
0000
1000
0000
0001
,  // measure 54
0100
0010
0000
0100
0000
0010
0000
0100
,  // measure 55
0001
1000
0000
0010
0100
0001
0000
0010
,  // measure 56
0100
2000
3002
0023
,  // measure 57
0032
2003
3020
0230
,  // measure 58
0301
0000
0000
1000
0000
0010
0100
0020
,  // measure 59
0000
0000
2030
0000
3200
0000
0310
0001
,  // measure 60
1000
0200
0320
0032
,  // measure 61
0023
0230
2300
3002
,  // measure 62
1003
0000
0000
0010
0000
0100
0001
0020
,  // measure 63
0000
0130
0000
1000
0001
0000
0010
0002
,  // measure 64
2000
0000
0000
0000
,  // measure 65
0000
3003
0000
0000
;

//---------------dance-single - ----------------
#NOTES:
     dance-single:
     :
     Hard:
     8:
     0.556220,0.586277,0.149751,0.159735,0.084859,390.000000,375.000000,15.000000,16.000000,0.000000,0.000000,0.556220,0.586277,0.149751,0.159735,0.084859,390.000000,375.000000,15.000000,16.000000,0.000000,0.000000:
// measure 0
0000
0000
0000
0000
,  // measure 1
0000
0000
0000
0000
,  // measure 2
0000
0000
0000
0000
,  // measure 3
0000
0000
0000
0000
,  // measure 4
1000
0000
0001
0000
0000
0000
0001
0000
0000
0000
0010
0000
0100
1000
0000
0100
,  // measure 5
1000
0001
0000
0001
0000
1000
0000
0010
,  // measure 6
0100
0000
0001
0000
0000
0000
1000
0000
0000
0000
0001
0000
0100
0001
0000
0100
,  // measure 7
0001
2000
0000
3010
0100
0001
0010
0100
,  // measure 8
1000
0001
0000
0010
0000
0100
0010
0001
,  // measure 9
1000
0010
0000
0100
0000
0001
1000
0100
,  // measure 10
1000
0010
0000
0100
0000
0001
0000
0010
,  // measure 11
0100
1000
0000
1000
0100
0010
0000
0010
,  // measure 12
0001
1000
0000
0110
0000
0001
1000
0100
,  // measure 13
0010
0100
0000
1001
0000
0010
0001
0100
,  // measure 14
0010
1000
0000
1001
0000
1000
0001
0020
,  // measure 15
0000
0031
0000
0010
0100
0010
0001
0100
,  // measure 16
0010
1000
0100
1000
0001
0100
0010
0100
,  // measure 17
0001
0000
1000
0100
1000
0000
0001
0000
0000
0000
0010
0000
0100
0000
1000
0000
,  // measure 18
0001
0010
0001
0100
0001
1000
0010
0100
,  // measure 19
0001
1000
0002
0000
0013
0100
1000
0100
,  // measure 20
0010
0000
0000
0000
1001
0000
0000
0000
1000
0000
0001
0100
0001
0000
0000
0000
,  // measure 21
0010
0000
1001
0000
0100
1000
0001
0000
,  // measure 22
1000
0000
0001
0100
0001
0000
0000
0000
1000
0000
0100
0000
0010
0000
0000
0000
,  // measure 23
0100
0000
0010
0000
0100
0000
1000
0000
0001
0010
0001
0000
1000
0000
0100
1000
,  // measure 24
0100
0000
1001
0000
1000
0001
0200
0000
,  // measure 25
0300
0000
0010
0100
0010
0000
0100
0000
0001
0000
1000
0000
0020
0000
0000
0000
,  // measure 26
0130
0000
0001
0000
0010
0000
0001
0000
1000
0100
1000
0000
0010
0000
0100
0000
,  // measure 27
0001
1000
0100
1000
0010
0100
0001
0100
,  // measure 28
0010
1000
0010
0100
0001
0010
0100
0000
,  // measure 29
1000
1000
0010
0100
0001
1000
0010
0100
,  // measure 30
0020
0000
0030
1000
0010
0100
0010
1000
,  // measure 31
0002
0000
0000
0013
0000
0100
1000
0001
,  // measure 32
0010
0000
1001
0000
0010
0100
0001
0000
,  // measure 33
0110
0000
1000
0020
0000
0130
0001
1000
,  // measure 34
0010
1010
0001
1000
,  // measure 35
1100
0000
1000
0020
0000
0130
0001
1000
,  // measure 36
0100
0000
0010
0000
1001
0000
0010
0100
,  // measure 37
0001
0000
0010
0200
0000
1300
0010
0200
,  // measure 38
0000
0301
1000
0000
0110
0000
0000
1000
,  // measure 39
0001
1000
0100
1000
0001
1000
0010
0100
,  // measure 40
0001
0000
0100
0000
1001
0000
0010
1000
,  // measure 41
0001
0000
0000
0000
0100
0000
0010
0000
0000
0000
1000
0001
1000
0000
0100
0000
,  // measure 42
0010
0000
0001
0100
0001
1000
0001
0020
,  // measure 43
0000
0000
0000
0000
0130
0000
0000
0000
0100
0000
1000
0001
1000
0000
0100
0000
,  // measure 44
0010
0000
0100
0000
1001
0000
1000
0100
,  // measure 45
0010
0000
0000
0000
0100
0000
1000
0000
0000
0000
0001
1000
0001
0000
0100
0000
,  // measure 46
0010
0000
1000
0001
0000
0010
0100
1000
,  // measure 47
0000
0110
0000
0001
1000
0010
0100
0001
,  // measure 48
1000
0010
0000
0010
0000
0100
0001
1000
,  // measure 49
0100
0010
0000
0010
0000
0010
0100
1000
,  // measure 50
0010
0100
0000
0100
0000
0100
0001
0010
,  // measure 51
0100
0001
0000
0100
1000
0001
0000
1000
,  // measure 52
0001
0010
0001
0010
0100
1000
0100
1000
,  // measure 53
0001
0100
0001
0100
0010
1000
0010
1000
,  // measure 54
0001
0010
0001
0010
0100
1000
0001
2000
,  // measure 55
0000
3002
0000
1003
0010
0100
0001
1000
,  // measure 56
0001
0000
0000
1000
0000
0100
0000
1000
,  // measure 57
0010
0000
0000
0000
0000
0000
0010
0000
0000
0000
0100
0001
0100
0000
0010
0000
,  // measure 58
1000
0000
0000
0001
0000
0001
0000
0010
,  // measure 59
0100
0000
0000
0000
0000
0000
1000
0000
0000
0000
0010
0100
0010
0000
1000
0000
,  // measure 60
0010
0000
0000
0100
0000
0001
0000
0001
,  // measure 61
0010
0000
0000
0000
0000
0000
0001
0000
0000
0000
1000
0010
0100
0000
0001
0000
,  // measure 62
1000
0000
0000
0100
0000
0010
0000
0100
,  // measure 63
1000
0000
0000
1000
0001
0001
0010
0200
,  // measure 64
0020
0000
0000
0000
,  // measure 65
0000
0330
0000
0000
;
