#VERSION:0.83;
#TITLE:Fever;
#SUBTITLE:(Super Smash Bros. Melee Version);
#ARTIST:Hirokazu Ando;
#TITLETRANSLIT:;
#SUBTITLETRANSLIT:;
#ARTISTTRANSLIT:;
#GENRE:DWI Palace Max Extreme;
#ORIGIN:;
#CREDIT:;
#BANNER:Fever bn.png;
#BACKGROUND:fever bg.png;
#PREVIEWVID:;
#JACKET:;
#CDIMAGE:;
#DISCIMAGE:;
#LYRICSPATH:;
#CDTITLE:;
#MUSIC:Dr Mario Fever.mp3;
#OFFSET:-0.520000;
#SAMPLESTART:29.799999;
#SAMPLELENGTH:12.000000;
#SELECTABLE:YES;
#BPMS:0.000=163.800,
80.000=161.500,
112.000=163.800;
#STOPS:160.500=0.680,
162.500=0.730,
164.500=0.650,
166.000=1.220;
#DELAYS:;
#WARPS:;
#TIMESIGNATURES:0.000=4=4;
#TICKCOUNTS:0.000=4;
#COMBOS:0.000=1;
#SPEEDS:0.000=1.000=0.000=0;
#SCROLLS:0.000=1.000;
#FAKES:;
#LABELS:0.000=Song Start;
#BGCHANGES:;
#KEYSOUNDS:;
#ATTACKS:
;

//---------------dance-single - ----------------
#NOTEDATA:;
#CHARTNAME:;
#STEPSTYPE:dance-single;
#DESCRIPTION:;
#CHARTSTYLE:;
#DIFFICULTY:Easy;
#METER:3;
#RADARVALUES:0.242299,0.293925,0.051397,0.000000,0.000000,132.000000,128.000000,4.000000,0.000000,0.000000,0.000000,0.000000,0.000000,0.000000,0.242299,0.293925,0.051397,0.000000,0.000000,132.000000,128.000000,4.000000,0.000000,0.000000,0.000000,0.000000,0.000000,0.000000;
#CREDIT:;
#NOTES:
// measure 0
0000
0000
0000
0000
,  // measure 1
0000
0000
0000
0000
,  // measure 2
0000
0000
0000
0000
,  // measure 3
0000
0000
0000
0000
,  // measure 4
0010
1000
0100
0001
,  // measure 5
0100
1000
0010
0000
,  // measure 6
0010
1000
0100
0001
,  // measure 7
0100
0000
0010
0000
,  // measure 8
0010
1000
0100
0001
,  // measure 9
0100
1000
0010
0000
,  // measure 10
0010
0010
0100
0100
,  // measure 11
0000
0000
0000
0000
,  // measure 12
1000
0000
0001
0000
,  // measure 13
0010
0001
0100
0000
,  // measure 14
0010
0000
0100
0000
,  // measure 15
0010
0001
0100
1000
,  // measure 16
0001
0001
1000
0000
,  // measure 17
0010
0010
0100
0000
,  // measure 18
1000
1000
0001
0001
,  // measure 19
1000
0001
1000
1001
,  // measure 20
0010
0000
0001
0000
,  // measure 21
0100
0000
0001
0000
,  // measure 22
0100
0000
1000
0000
,  // measure 23
0100
0000
0001
0000
,  // measure 24
0010
0000
0001
0000
,  // measure 25
0100
0000
0001
0000
,  // measure 26
0100
0000
1000
0000
,  // measure 27
0010
0000
1000
0000
,  // measure 28
0010
1000
0100
0000
,  // measure 29
1000
0100
0001
0000
,  // measure 30
0100
0001
0010
1000
,  // measure 31
0100
0010
1001
0000
,  // measure 32
1000
0100
0010
0001
,  // measure 33
1000
0100
0010
0001
,  // measure 34
1000
0100
0010
0001
,  // measure 35
0001
0010
0100
1000
,  // measure 36
1000
0100
0010
0001
,  // measure 37
1000
0100
0010
0001
,  // measure 38
1000
0100
0010
0001
,  // measure 39
0001
0010
0100
1000
,  // measure 40
1000
1000
0000
0000
0001
0001
0000
0000
,  // measure 41
0010
0010
0000
0000
1001
0000
0010
0000
,  // measure 42
0000
0100
0000
0010
,  // measure 43
0000
0100
0000
0001
,  // measure 44
0000
0100
0000
0010
,  // measure 45
0010
0100
0100
1001
;

//---------------dance-single - ----------------
#NOTEDATA:;
#CHARTNAME:;
#STEPSTYPE:dance-single;
#DESCRIPTION:;
#CHARTSTYLE:;
#DIFFICULTY:Medium;
#METER:5;
#RADARVALUES:0.361613,0.470280,0.205587,0.000000,0.000000,197.000000,181.000000,16.000000,0.000000,0.000000,0.000000,0.000000,0.000000,0.000000,0.361613,0.470280,0.205587,0.000000,0.000000,197.000000,181.000000,16.000000,0.000000,0.000000,0.000000,0.000000,0.000000,0.000000;
#CREDIT:;
#NOTES:
// measure 0
0000
0000
0000
0000
,  // measure 1
0000
0000
0000
0000
,  // measure 2
0000
0000
0000
0000
,  // measure 3
0000
0000
0000
0000
,  // measure 4
1001
0110
0001
1000
,  // measure 5
0001
0000
0100
0010
1000
0000
0000
0000
,  // measure 6
0010
1000
0100
0001
,  // measure 7
1000
0100
0001
0000
0100
1000
0010
0000
,  // measure 8
0010
0001
1000
0110
,  // measure 9
1001
0000
0010
1000
0100
0000
0000
0000
,  // measure 10
0010
0010
0100
0100
,  // measure 11
0000
0000
0000
0000
,  // measure 12
0010
1000
0100
1000
,  // measure 13
0010
1000
0100
1000
,  // measure 14
0010
1000
0100
1000
,  // measure 15
0010
0001
0100
0001
,  // measure 16
0010
0000
1000
0001
0001
0000
0000
0000
,  // measure 17
0010
0000
1000
0001
0001
0000
0000
0000
,  // measure 18
0010
1000
0001
0000
0100
0010
1000
0000
,  // measure 19
0001
1000
0100
0000
1001
0000
0000
0000
,  // measure 20
0010
1000
0010
1000
,  // measure 21
0001
0100
0001
0100
,  // measure 22
0010
1000
0010
1000
,  // measure 23
0001
0100
0001
0100
,  // measure 24
0010
1000
0100
0001
,  // measure 25
0100
1000
0010
0001
,  // measure 26
0100
0010
0100
1001
,  // measure 27
0110
0000
1001
0000
0110
0000
0010
0010
,  // measure 28
1001
0000
0100
0100
0100
0000
0000
0000
,  // measure 29
1001
0000
0010
0010
0010
0000
0000
0000
,  // measure 30
1001
0100
0100
0001
,  // measure 31
0010
0001
0100
0001
0010
0000
0000
0000
,  // measure 32
1000
0000
0100
0000
0010
0000
0001
0100
,  // measure 33
1000
0000
0100
0000
0010
0000
0001
0100
,  // measure 34
1000
0000
0100
0000
0010
0000
0001
0100
,  // measure 35
0001
0000
0010
0000
0100
0000
1000
0100
,  // measure 36
1000
0000
0100
0000
0010
0000
0001
0100
,  // measure 37
1000
0000
0100
0000
0010
0000
0001
0100
,  // measure 38
1000
0000
0100
0000
0010
0000
0001
0100
,  // measure 39
0001
0000
0010
0000
0100
1000
0001
0010
,  // measure 40
0001
1000
0000
0000
0001
1000
0000
0000
,  // measure 41
0001
1000
0000
0000
0110
0000
1001
0000
,  // measure 42
0100
0001
1000
0110
,  // measure 43
0001
0010
0100
1001
,  // measure 44
0010
1000
0001
0010
,  // measure 45
0010
0000
0100
0001
1000
0010
0100
0000
;

//---------------dance-single - ----------------
#NOTEDATA:;
#CHARTNAME:;
#STEPSTYPE:dance-single;
#DESCRIPTION:;
#CHARTSTYLE:;
#DIFFICULTY:Hard;
#METER:8;
#RADARVALUES:0.506625,0.499672,0.141341,0.000000,0.000000,276.000000,265.000000,11.000000,0.000000,0.000000,0.000000,0.000000,0.000000,0.000000,0.506625,0.499672,0.141341,0.000000,0.000000,276.000000,265.000000,11.000000,0.000000,0.000000,0.000000,0.000000,0.000000,0.000000;
#CREDIT:;
#NOTES:
// measure 0
0000
0000
0000
0000
,  // measure 1
0000
0000
0000
0000
,  // measure 2
0000
0000
0000
0000
,  // measure 3
0000
0000
0000
0000
,  // measure 4
0001
1000
0010
0100
0001
1000
0010
0100
,  // measure 5
0001
1000
0100
1000
0100
0000
0000
0000
,  // measure 6
0001
0010
0100
1000
0001
0010
0100
1000
,  // measure 7
1001
0110
1001
0110
,  // measure 8
0001
1000
0010
0100
0001
1000
0010
0100
,  // measure 9
0001
1000
0100
1000
0100
0000
0000
0000
,  // measure 10
1000
0010
1000
0010
0100
0001
0001
0100
,  // measure 11
0000
0000
0000
0000
,  // measure 12
0001
0010
0100
0000
1000
0010
0100
0000
,  // measure 13
0001
0010
0100
0000
1000
0010
0100
0000
,  // measure 14
1000
0100
0001
0000
0100
1000
0010
0000
,  // measure 15
1000
0001
0100
0010
1000
0000
1001
0000
,  // measure 16
1000
0010
1000
0100
0100
0000
0000
0000
,  // measure 17
1000
0010
1000
0100
0100
0000
0000
0000
,  // measure 18
1000
0010
1000
0010
1000
0100
0100
0001
,  // measure 19
0100
1001
0100
0010
,  // measure 20
0001
1000
0100
0010
0100
1000
0001
0000
,  // measure 21
0001
1000
0100
0010
0001
1000
0010
0000
,  // measure 22
0100
1000
0010
0100
0001
1000
0100
0000
,  // measure 23
0010
1000
0001
0100
0010
0100
0010
0000
,  // measure 24
0001
1000
0010
1000
0100
1000
0100
0000
,  // measure 25
0001
0010
0001
0100
0001
1000
0001
0000
,  // measure 26
0010
1000
0010
0100
0010
1000
0001
0000
,  // measure 27
0010
0010
0010
0000
0100
0100
0100
0000
,  // measure 28
1000
0010
1000
0100
0100
0000
0000
0000
,  // measure 29
1000
0010
1000
0100
0100
0000
0000
0000
,  // measure 30
0010
0010
1000
1000
0100
0100
1000
0001
,  // measure 31
0010
0100
1001
0000
,  // measure 32
0001
0001
0010
0100
1000
1000
0010
1000
,  // measure 33
0001
0100
0010
1000
0010
0010
1000
0001
,  // measure 34
0100
0010
1000
0001
0010
0010
0100
1000
,  // measure 35
0001
0100
0010
1000
0001
0010
0001
0100
,  // measure 36
0001
1000
0010
1000
0001
0001
0100
0010
,  // measure 37
1000
0001
0010
0100
1000
1000
0010
0100
,  // measure 38
0001
1000
0100
0010
0001
0001
1000
0010
,  // measure 39
0100
0001
1000
0100
0010
0001
1000
0010
,  // measure 40
0001
1000
0000
0000
0100
0010
0000
0000
,  // measure 41
0010
1001
0000
0000
1001
0000
0010
1000
,  // measure 42
0100
0000
0100
1000
0001
0000
0001
0100
,  // measure 43
0010
0000
0010
1000
0001
0000
0001
1000
,  // measure 44
0010
0100
0010
1000
0001
0000
0001
0010
,  // measure 45
0100
1000
0010
0000
1001
0000
1001
0000
;

//---------------dance-single - ----------------
#NOTEDATA:;
#CHARTNAME:;
#STEPSTYPE:dance-single;
#DESCRIPTION:;
#CHARTSTYLE:;
#DIFFICULTY:Challenge;
#METER:9;
#RADARVALUES:0.603911,0.617242,0.282682,0.000000,0.064246,329.000000,307.000000,22.000000,0.000000,0.000000,0.000000,0.000000,0.000000,0.000000,0.603911,0.617242,0.282682,0.000000,0.064246,329.000000,307.000000,22.000000,0.000000,0.000000,0.000000,0.000000,0.000000,0.000000;
#CREDIT:;
#NOTES:
// measure 0
0000
0000
0000
0000
,  // measure 1
0000
0000
0000
0000
,  // measure 2
0000
0000
0000
0000
,  // measure 3
0000
0000
0000
0000
,  // measure 4
0001
0010
0001
0010
1000
0100
0100
1000
,  // measure 5
0001
0010
0100
1000
1000
0000
0000
0000
,  // measure 6
0010
1000
0100
0001
0100
1000
0010
1000
,  // measure 7
0001
0100
0001
0000
1000
0001
1000
0000
0010
1000
0010
0000
0100
0010
0100
0000
,  // measure 8
0001
0010
0001
0010
1000
0100
0100
1000
,  // measure 9
0001
0010
0100
1000
1000
0000
0000
0000
,  // measure 10
0010
1000
0100
0001
0100
1000
0010
1000
,  // measure 11
0010
1000
0100
1000
0000
0001
0000
0100
1000
0001
1000
0000
0100
0010
0100
0000
,  // measure 12
0010
1000
0010
1000
0100
1000
0001
0010
,  // measure 13
0100
1000
0010
0100
1001
0000
0000
0000
,  // measure 14
0001
0010
0001
0010
0001
1000
0100
1000
,  // measure 15
0010
1000
0001
0100
1001
0000
0110
0000
,  // measure 16
1000
0010
1000
0100
1001
0000
0100
0000
,  // measure 17
1000
0010
1000
0100
1001
0000
0100
0000
,  // measure 18
1000
0010
0001
0010
0100
1000
0001
0010
,  // measure 19
1001
0100
1001
0000
0110
0000
0000
0000
,  // measure 20
0010
1000
0100
1000
0010
1000
0001
1000
,  // measure 21
0001
0100
0001
1000
0100
1000
0010
1000
,  // measure 22
0100
0001
0100
1000
0010
1000
0001
1000
,  // measure 23
0100
1000
0010
1000
0100
1000
0001
0100
,  // measure 24
0001
0010
0001
0010
0001
0100
0001
0100
,  // measure 25
0001
0010
0001
0010
0001
0100
0001
0100
,  // measure 26
0001
1000
0001
0001
1000
0010
0100
0010
,  // measure 27
0100
0001
1000
0001
1000
0010
1000
0100
,  // measure 28
1000
0010
1000
0100
1001
0000
0100
0000
,  // measure 29
1000
0010
1000
0100
1001
0000
0100
0000
,  // measure 30
0010
1000
0010
1000
0001
0100
0100
1000
,  // measure 31
0110
1001
0110
0000
,  // measure 32
0001
0001
0010
0100
1000
1000
0010
1000
,  // measure 33
0010
0010
0100
0001
1000
1000
0010
1000
,  // measure 34
0001
0001
0010
0100
1000
1000
0001
0010
,  // measure 35
0100
1000
0010
1000
0001
0100
0010
1000
,  // measure 36
0001
0001
0010
0100
1000
1000
0010
1000
,  // measure 37
0010
1000
1000
0001
0010
0001
0100
0010
,  // measure 38
1000
1000
0010
1000
0001
0100
0001
0010
,  // measure 39
0001
0001
1000
1000
0010
0010
0100
0100
,  // measure 40
1001
0110
0000
0000
1001
0101
0000
0000
,  // measure 41
1100
0110
0000
0000
1001
0000
0010
1000
,  // measure 42
0010
1000
0001
0100
0001
0100
0001
0010
,  // measure 43
0001
0010
0001
1000
0100
1000
0100
1000
,  // measure 44
0010
1000
0010
1000
0001
0010
0001
0100
,  // measure 45
0010
1000
0010
0100
1001
0000
1001
0000
;
