#VERSION:0.83;
#TITLE:Fantasia;
#SUBTITLE:;
#ARTIST:植松伸夫;
#TITLETRANSLIT:;
#SUBTITLETRANSLIT:;
#ARTISTTRANSLIT:Nobuo Uematsu;
#GENRE:;
#ORIGIN:;
#CREDIT:;
#BANNER:fantasia bn.png;
#BACKGROUND:fantasia bg.png;
#PREVIEWVID:;
#JACKET:;
#CDIMAGE:;
#DISCIMAGE:;
#LYRICSPATH:;
#CDTITLE:;
#MUSIC:Fantasia.mp3;
#OFFSET:0.080000;
#SAMPLESTART:49.768002;
#SAMPLELENGTH:12.000000;
#SELECTABLE:YES;
#BPMS:0.000=160.050;
#STOPS:32.000=1.490;
#DELAYS:;
#WARPS:;
#TIMESIGNATURES:0.000=4=4;
#TICKCOUNTS:0.000=4;
#COMBOS:0.000=1;
#SPEEDS:0.000=1.000=0.000=0;
#SCROLLS:0.000=1.000;
#FAKES:;
#LABELS:0.000=Song Start;
#BGCHANGES:;
#KEYSOUNDS:;
#ATTACKS:
;

//---------------dance-single - ----------------
#NOTEDATA:;
#CHARTNAME:;
#STEPSTYPE:dance-single;
#DESCRIPTION:;
#CHARTSTYLE:;
#DIFFICULTY:Easy;
#METER:4;
#RADARVALUES:0.325475,0.436966,0.149587,0.000000,0.000000,198.000000,185.000000,13.000000,0.000000,0.000000,0.000000,0.000000,0.000000,0.000000,0.325475,0.436966,0.149587,0.000000,0.000000,198.000000,185.000000,13.000000,0.000000,0.000000,0.000000,0.000000,0.000000,0.000000;
#CREDIT:;
#NOTES:
// measure 0
0000
0000
0000
0000
,  // measure 1
0000
0000
0000
0000
,  // measure 2
0000
0000
0000
0000
,  // measure 3
0000
0000
0000
0000
,  // measure 4
0000
0001
1000
0100
,  // measure 5
0100
0010
0100
0100
,  // measure 6
0000
1000
1000
0001
,  // measure 7
0001
0010
0010
0100
,  // measure 8
1001
0010
0010
0001
,  // measure 9
0100
1000
0000
0100
,  // measure 10
0001
0010
0010
1000
,  // measure 11
0100
0001
0000
0010
,  // measure 12
1000
0100
0100
1000
,  // measure 13
0010
0001
0000
0010
,  // measure 14
1000
0100
0100
0001
,  // measure 15
0010
1000
0000
0010
,  // measure 16
0100
1000
0001
1000
,  // measure 17
0000
0010
0100
0010
,  // measure 18
0100
1000
0100
0001
,  // measure 19
0100
0010
0100
0010
,  // measure 20
0100
0001
1000
0001
,  // measure 21
0000
0100
0010
0100
,  // measure 22
0010
0001
0010
1000
,  // measure 23
0010
0000
0100
0000
0000
0100
0000
0000
,  // measure 24
0100
0010
0010
1001
,  // measure 25
1001
0010
1001
1001
,  // measure 26
0010
0100
0100
1001
,  // measure 27
1001
1000
1000
0001
,  // measure 28
0001
0100
0010
1001
,  // measure 29
1001
0100
1001
1001
,  // measure 30
0010
1000
0100
0001
,  // measure 31
0100
1000
0100
0001
,  // measure 32
0100
0010
0001
0100
,  // measure 33
1000
0010
0001
0100
,  // measure 34
1000
0010
0001
0100
,  // measure 35
1000
0010
0001
0100
,  // measure 36
1000
0100
0001
0010
,  // measure 37
1000
0100
0001
0010
,  // measure 38
1000
0100
0001
0010
,  // measure 39
1000
0100
0001
0010
,  // measure 40
1000
0000
0001
0000
0000
0001
0000
0000
,  // measure 41
1000
0100
0010
0100
,  // measure 42
0010
0000
1000
0000
0000
1000
0000
0000
,  // measure 43
0001
0000
1000
0000
0000
1000
0000
0000
,  // measure 44
1000
0000
0100
0000
0000
0010
0000
0000
,  // measure 45
0100
0010
0001
1000
,  // measure 46
0100
0010
0100
1000
,  // measure 47
0010
1000
0100
0001
,  // measure 48
0010
0010
1000
0001
,  // measure 49
0000
0100
0000
1000
,  // measure 50
0000
0001
0000
0000
0001
0000
0000
0000
,  // measure 51
1000
0100
0010
0010
,  // measure 52
0100
0100
0000
0000
0010
0000
0010
0000
,  // measure 53
0001
0001
0100
1000
,  // measure 54
0110
1001
0000
0000
;

//---------------dance-single - ----------------
#NOTEDATA:;
#CHARTNAME:;
#STEPSTYPE:dance-single;
#DESCRIPTION:;
#CHARTSTYLE:;
#DIFFICULTY:Medium;
#METER:7;
#RADARVALUES:0.471774,0.530602,0.368214,0.000000,0.000000,287.000000,255.000000,32.000000,0.000000,0.000000,0.000000,0.000000,0.000000,0.000000,0.471774,0.530602,0.368214,0.000000,0.000000,287.000000,255.000000,32.000000,0.000000,0.000000,0.000000,0.000000,0.000000,0.000000;
#CREDIT:;
#NOTES:
// measure 0
0000
0000
0000
0000
,  // measure 1
0000
0000
0000
0000
,  // measure 2
0000
0000
0000
0000
,  // measure 3
0000
0000
0000
0000
,  // measure 4
0000
0000
1000
0100
0001
0000
0110
0000
,  // measure 5
1001
0010
1001
0110
,  // measure 6
0000
0000
1000
0100
0001
0000
0100
1000
,  // measure 7
0010
0000
0001
0100
0010
1000
0100
0010
,  // measure 8
1001
0000
0100
0000
0010
0000
0001
0010
,  // measure 9
0100
1000
0001
1000
0010
1000
0000
0000
,  // measure 10
0000
0000
0010
0000
0100
0000
1000
0100
,  // measure 11
0010
0001
1000
0001
0100
0001
0000
0000
,  // measure 12
0000
0000
1000
0000
0001
0000
0100
0001
,  // measure 13
1000
0010
0100
0010
1000
0010
0000
0000
,  // measure 14
0000
0000
0001
0000
1000
0000
0010
0001
,  // measure 15
1000
0100
0010
0100
0001
0100
0000
0000
,  // measure 16
0000
1001
0110
1001
,  // measure 17
0110
0000
0100
0010
0100
0000
0001
1000
,  // measure 18
0001
0000
0001
0000
0000
1000
0000
0100
,  // measure 19
0010
0000
0001
0000
0000
1000
0000
0000
,  // measure 20
0100
0011
1100
0011
,  // measure 21
1100
0000
0010
0010
0010
0000
0100
0100
,  // measure 22
0100
0000
0001
0000
0000
0001
0000
0001
,  // measure 23
1000
0000
1000
0000
0000
1000
0000
0000
,  // measure 24
0000
0000
0010
0100
0010
0000
1001
0000
,  // measure 25
1001
0100
1001
1001
,  // measure 26
1000
0001
0010
0100
0010
0000
1001
0000
,  // measure 27
1001
0000
0100
1000
0001
1000
0100
1000
,  // measure 28
0010
1000
0100
0000
0010
0000
1001
0000
,  // measure 29
1001
0100
1001
1001
,  // measure 30
0000
0000
1000
0010
0100
0001
1000
0100
,  // measure 31
0010
0100
1000
0001
1000
0010
1000
0001
,  // measure 32
1000
0001
0010
0000
0100
0000
0001
0100
,  // measure 33
1000
0000
0100
0010
1000
0001
0000
0000
,  // measure 34
0010
0000
0100
0000
0010
0000
1000
0100
,  // measure 35
0001
0000
0010
0100
0001
1000
0000
0000
,  // measure 36
0100
0000
0010
1000
0100
0001
0100
1000
,  // measure 37
0010
0000
1000
0001
0100
1000
0000
0000
,  // measure 38
0000
0000
0010
0001
0100
1000
0100
0001
,  // measure 39
0010
0000
0001
1000
0010
0001
0000
0000
,  // measure 40
0000
0000
1000
0001
1000
0001
0000
0000
,  // measure 41
0010
1001
0110
1001
,  // measure 42
0110
0000
0100
0000
0000
0010
0000
0001
,  // measure 43
1000
0000
0010
0100
0010
0100
0000
0000
,  // measure 44
0000
0000
0010
0100
0010
0100
0000
0000
,  // measure 45
0001
0011
1100
0011
,  // measure 46
1100
0000
1000
0000
0000
0001
0000
0010
,  // measure 47
0100
0000
0001
1000
0001
1000
0000
0000
,  // measure 48
0010
0010
1000
0000
0100
0000
0001
0000
,  // measure 49
0100
0000
0001
0000
0010
0000
0001
1000
,  // measure 50
0000
1000
0000
0010
0100
0000
0010
0000
,  // measure 51
1000
0100
1000
0001
1000
0010
1000
0001
,  // measure 52
1000
1000
0000
0000
0010
1000
0001
0100
,  // measure 53
1000
0010
0100
1000
0001
0010
0100
1000
,  // measure 54
0001
0100
1001
0000
0000
0000
0000
0000
;

//---------------dance-single - ----------------
#NOTEDATA:;
#CHARTNAME:;
#STEPSTYPE:dance-single;
#DESCRIPTION:;
#CHARTSTYLE:;
#DIFFICULTY:Hard;
#METER:9;
#RADARVALUES:0.644374,0.624238,0.241640,0.000000,0.069040,392.000000,371.000000,21.000000,0.000000,0.000000,0.000000,0.000000,0.000000,0.000000,0.644374,0.624238,0.241640,0.000000,0.069040,392.000000,371.000000,21.000000,0.000000,0.000000,0.000000,0.000000,0.000000,0.000000;
#CREDIT:;
#NOTES:
// measure 0
0000
0000
0000
0000
,  // measure 1
0000
0000
0000
0000
,  // measure 2
0000
0000
0000
0000
,  // measure 3
0000
0000
0000
0000
,  // measure 4
0000
0000
0001
1000
0010
0100
0010
1000
,  // measure 5
0001
1000
0100
0010
0001
1000
0010
1000
,  // measure 6
0100
1000
0010
1000
0001
0010
0001
0100
,  // measure 7
0001
0010
0001
1000
0010
1000
1100
0110
,  // measure 8
1001
0000
0001
0010
0100
1000
0010
1000
,  // measure 9
0100
0000
1000
0000
0010
1000
0010
0000
1000
0000
0001
0000
0000
0000
0010
0000
,  // measure 10
0100
0010
0001
0010
0100
1000
0010
1000
,  // measure 11
0100
0000
1000
0000
0010
1000
0010
0000
1000
0000
0001
0000
0000
0000
0010
0000
,  // measure 12
0100
0010
1000
0100
0010
0001
0100
0001
,  // measure 13
0010
0000
0001
0000
0100
0001
0100
0000
0001
0000
1000
0000
0000
0000
0100
0000
,  // measure 14
0010
0100
1000
0100
0010
0001
0100
0001
,  // measure 15
0010
0000
0001
0000
0100
0001
0100
0000
0001
0000
1000
0000
0000
0000
0010
0000
,  // measure 16
1001
0000
0001
0010
0100
1000
0000
0000
,  // measure 17
1000
0100
1000
0100
1000
0000
0001
0000
1000
0000
0010
0000
1000
0000
0100
0000
,  // measure 18
1000
0001
0100
1000
0100
1000
0000
0001
,  // measure 19
0100
0000
0001
0100
0001
0010
0000
1000
,  // measure 20
0100
0001
0100
1000
0010
1000
0100
1000
,  // measure 21
0100
1000
0100
1000
0100
0000
1000
0000
0010
0000
0001
0000
0010
0000
1000
0000
,  // measure 22
0100
0001
0100
1000
0001
1000
0000
0010
,  // measure 23
0010
0000
0100
1010
0101
1001
0000
0000
,  // measure 24
0000
0000
0100
0010
1000
0100
1000
0001
,  // measure 25
1000
0100
1000
0100
0001
0010
0001
0100
,  // measure 26
1000
0001
1000
0010
1000
0100
1000
0001
,  // measure 27
1000
0010
1000
0100
0001
0010
0001
0100
,  // measure 28
1000
0001
1000
0010
1000
0001
0010
0100
,  // measure 29
0001
1000
0001
1000
0010
0100
0001
1000
,  // measure 30
0010
0100
0010
1000
0010
0001
0100
0001
,  // measure 31
0010
1000
0010
0100
0001
1000
0010
0100
,  // measure 32
0001
0010
0001
0010
0100
1000
0010
1000
,  // measure 33
0100
0000
1000
0000
0010
1000
0010
0000
1000
0000
0001
0000
0000
0000
0010
0000
,  // measure 34
0100
0010
0001
0010
0100
1000
0010
1000
,  // measure 35
0100
0000
1000
0000
0010
1000
0010
0000
1000
0000
0001
0000
0000
0000
0010
0000
,  // measure 36
0100
0010
1000
0100
0010
0001
0100
0001
,  // measure 37
0010
0000
0001
0000
0100
0001
0100
0000
0001
0000
1000
0000
0000
0000
0100
0000
,  // measure 38
0010
0100
1000
0100
0010
0001
0100
0001
,  // measure 39
0010
0000
0001
0000
0100
0001
0100
0000
0001
0000
1000
0000
0000
0000
0010
0000
,  // measure 40
1001
0000
1000
0010
1000
0100
0000
0010
,  // measure 41
1000
0100
0001
0100
1000
0010
1000
0100
,  // measure 42
0001
0000
0100
1000
0010
1000
0000
0100
,  // measure 43
0001
0000
0100
1000
0010
1000
0000
0100
,  // measure 44
0001
1000
0010
0100
0010
0100
1000
0001
,  // measure 45
1000
0001
0100
1000
0010
1000
0001
1000
,  // measure 46
0010
1000
0100
0001
1000
0001
0000
0010
,  // measure 47
0100
0000
0001
1000
0010
0100
0000
0010
,  // measure 48
0010
0010
1001
0000
0110
0000
1100
0000
,  // measure 49
0011
0000
0110
0000
1001
0000
0011
0001
,  // measure 50
0000
1010
0000
1100
0100
0000
0101
0000
,  // measure 51
0001
1000
0010
0100
1000
0001
0010
1000
,  // measure 52
0110
1001
0000
0000
0010
1000
0001
1000
,  // measure 53
0010
0100
1000
0001
0010
0100
1000
0010
,  // measure 54
0100
0010
1001
0000
0000
0000
0000
0000
;

//---------------dance-single - ----------------
#NOTEDATA:;
#CHARTNAME:;
#STEPSTYPE:dance-single;
#DESCRIPTION:;
#CHARTSTYLE:;
#DIFFICULTY:Challenge;
#METER:10;
#RADARVALUES:0.961630,1.094070,0.632868,0.149587,0.978068,585.000000,530.000000,55.000000,13.000000,0.000000,0.000000,0.000000,0.000000,0.000000,0.961630,1.094070,0.632868,0.149587,0.978068,585.000000,530.000000,55.000000,13.000000,0.000000,0.000000,0.000000,0.000000,0.000000;
#CREDIT:;
#NOTES:
// measure 0
0000
0000
0000
0000
,  // measure 1
0000
0000
0000
0000
,  // measure 2
0000
0000
0000
0000
,  // measure 3
0000
0000
0000
0000
,  // measure 4
0000
0000
0000
0000
0001
0100
0001
0100
0001
0100
0001
0100
0010
1000
0010
1000
,  // measure 5
0010
1000
0010
1000
0001
1000
0001
1000
0001
1000
0001
1000
0100
0010
0100
0010
,  // measure 6
0100
0010
0100
0010
0100
1000
0100
1000
0001
0010
0001
0010
0100
1000
0100
1000
,  // measure 7
0010
1000
0010
1000
0001
0100
0001
0100
0001
0010
0001
0010
0100
1000
0100
1000
,  // measure 8
0010
1000
0001
0100
0010
1000
0001
0100
0010
1000
0001
0200
0000
0300
1000
0001
,  // measure 9
1000
0001
1000
0001
0010
0000
1000
0000
0001
0000
0100
0000
0001
0000
0010
0000
,  // measure 10
0100
0000
1000
0000
1000
0100
0010
0000
1010
0000
0101
0000
0000
0000
1000
0100
,  // measure 11
0010
0001
0010
0100
1000
0000
0001
0000
0010
0000
0001
0000
0100
0000
0010
0000
,  // measure 12
1000
0000
0001
0000
0100
0001
0010
0000
0011
0000
1100
0000
0000
0000
0010
1000
,  // measure 13
0001
0100
0001
1000
0001
0000
0010
0000
0001
0000
0100
0000
0010
0000
1000
0000
,  // measure 14
0001
0000
1000
0000
0010
0001
0100
0000
1010
0000
0011
0000
0000
0000
1000
0100
,  // measure 15
0010
0001
0010
0100
1000
0000
0100
0000
0001
0000
0100
0000
1000
0000
0010
0000
,  // measure 16
0100
0000
0001
0000
0001
0010
0100
0000
1100
0000
0101
0000
0000
0000
0001
0010
,  // measure 17
0100
0000
0100
0000
1001
0000
0010
0100
0010
0000
1001
0000
0000
0000
0001
0000
,  // measure 18
0010
0000
0100
0000
1000
0000
0100
0010
0001
0000
0001
0010
0100
0000
1000
0100
,  // measure 19
0010
0100
0001
0100
1000
0000
0000
0000
0000
0000
0001
0000
0000
0000
1000
0000
,  // measure 20
0001
0000
0001
0010
0100
0000
1000
0100
0010
0000
0010
1000
0001
0100
0001
0010
,  // measure 21
0100
0000
1001
0000
0000
1001
0000
1000
,  // measure 22
1000
0100
0001
0000
0001
0000
0001
0100
1000
0000
0001
0010
0100
1000
0100
0010
,  // measure 23
0001
0000
1001
0000
0000
1001
0000
0001
,  // measure 24
1000
0001
2020
0000
3030
0202
0000
0303
,  // measure 25
0000
0000
0000
0000
0001
0100
0001
0100
0001
0100
0001
0100
0010
1000
0010
1000
,  // measure 26
0010
1000
0010
1000
0001
1000
0001
1000
0001
1000
0001
1000
0100
0010
0100
0010
,  // measure 27
0100
0010
0100
0010
0001
0100
0001
0100
0001
0100
0001
0100
0010
1000
0010
1000
,  // measure 28
0010
1000
0010
1000
0001
1000
0001
1000
0001
1000
0001
1000
0100
0010
0100
0010
,  // measure 29
0100
0010
0100
0010
0001
0100
0001
0100
0001
0100
0001
0100
0010
1000
0010
1000
,  // measure 30
0010
1000
0010
1000
0001
1000
0001
1000
0001
1000
0001
1000
0100
0010
0100
0010
,  // measure 31
0100
0010
0100
0010
0100
1000
0100
1000
0001
0010
0001
0010
0100
1000
0100
1000
,  // measure 32
0010
1000
0010
1000
0001
0100
0001
0100
0001
0010
0001
0010
0100
1000
0001
1000
,  // measure 33
0001
1000
0001
1000
1000
0000
0010
0000
0100
0000
0001
0000
0010
0000
0001
0000
,  // measure 34
1000
0000
0001
0000
0100
0001
0010
0000
0011
0000
1100
0000
0000
0000
0010
1000
,  // measure 35
0001
0100
0001
0010
1000
0000
0001
0000
0010
0000
0001
0000
0100
0000
0010
0000
,  // measure 36
1000
0000
0001
0000
1000
0010
0100
0000
0101
0000
1010
0000
0000
0000
0001
0010
,  // measure 37
0100
1000
0100
0010
0001
0000
0010
0000
0001
0000
0100
0000
0010
0000
1000
0000
,  // measure 38
0001
0000
0100
0000
0001
0010
0100
0000
1010
0000
0011
0000
0000
0000
0010
1000
,  // measure 39
0001
0100
1000
0100
0010
0000
1000
0000
0010
0000
0100
0000
0001
0000
1000
0000
,  // measure 40
0001
0000
0010
0000
1000
0010
0100
0000
1010
0000
0101
0000
0000
0000
0001
1000
,  // measure 41
0100
0010
0100
0000
1001
0000
0100
0010
0100
0000
1001
0000
0000
0000
0001
0000
,  // measure 42
0010
0000
0100
0000
1000
0000
1000
0100
0010
0000
0010
0100
1000
0000
1000
0100
,  // measure 43
0010
0001
0010
0001
1000
0000
0000
0000
0000
0000
1000
0000
0000
0000
1000
0000
,  // measure 44
0001
0000
0001
0010
0100
0000
0001
0100
1000
0000
1000
0010
0100
0010
1000
0001
,  // measure 45
0010
0000
0010
0000
0000
0100
0000
0001
,  // measure 46
1000
0100
0010
0000
0001
0000
0010
1000
0010
0000
1000
0010
0100
0001
0010
0001
,  // measure 47
1000
0000
1001
0000
0000
1001
0000
0001
,  // measure 48
1000
0001
0202
0000
0303
0022
0000
0033
,  // measure 49
0000
1010
0101
0011
,  // measure 50
1100
0000
1010
0000
0101
0000
0101
1010
,  // measure 51
0000
0011
0000
1100
0101
0000
1010
0000
,  // measure 52
0011
1100
1010
0101
0011
1100
1010
0101
,  // measure 53
0110
1001
0000
0000
2002
0000
0000
3003
,  // measure 54
0010
0000
1000
0000
0001
0000
0100
0000
0001
1000
0010
0100
0010
1000
0001
0010
,  // measure 55
0100
1000
0001
0000
0010
0000
1000
0000
0001
0000
0100
0000
0001
0000
0010
0000
,  // measure 56
0100
0000
1000
0000
1000
0100
0010
0000
1010
0000
0202
0000
0000
0000
0000
0000
,  // measure 57
0000
0000
0000
0000
0000
0303
0000
0000
;
