#TITLE:Ex-Girlfriend;
#SUBTITLE:(The Psycho Ex Mix);
#ARTIST:No Doubt;
#TITLETRANSLIT:;
#SUBTITLETRANSLIT:;
#ARTISTTRANSLIT:;
#GENRE:;
#CREDIT:;
#BANNER:Ex-girlfriend-bn2.png;
#BACKGROUND:Ex-girlfriend-bg.png;
#LYRICSPATH:;
#CDTITLE:;
#MUSIC:no doubt - Ex-Girlfriend (The Psycho Ex Mix).mp3;
#OFFSET:-0.280000;
#SAMPLESTART:57.880001;
#SAMPLELENGTH:12.000000;
#SELECTABLE:YES;
#BPMS:0.000000=99.980003
;
#STOPS:
;
#BGCHANGES:;
#KEYSOUNDS:;
#ATTACKS:;

//---------------dance-single - ----------------
#NOTES:
     dance-single:
     :
     Easy:
     3:
     0.208212,0.266030,0.071848,0.205280,0.000000,142.000000,135.000000,7.000000,20.000000,0.000000,0.000000,0.208212,0.266030,0.071848,0.205280,0.000000,142.000000,135.000000,7.000000,20.000000,0.000000,0.000000:
// measure 0
0000
0000
0000
0000
,  // measure 1
0000
0000
0000
0000
,  // measure 2
1000
0010
0000
1000
,  // measure 3
0001
0010
0000
0100
,  // measure 4
1000
0001
0100
0010
,  // measure 5
1000
0000
0001
0000
0000
0100
0100
0000
,  // measure 6
0001
1000
0100
0010
,  // measure 7
0001
0000
1000
0000
0000
0100
0100
0000
,  // measure 8
1000
0010
0100
0001
,  // measure 9
1000
0000
0001
0000
0000
0100
0100
0000
,  // measure 10
0001
0010
0100
1000
,  // measure 11
0001
0000
1000
0000
0000
0100
0100
0000
,  // measure 12
0010
0010
0010
0100
,  // measure 13
1000
1000
1000
0001
,  // measure 14
0020
0000
0030
0100
,  // measure 15
2000
3000
0001
1001
,  // measure 16
0100
0000
0001
0000
0100
0100
0100
0000
,  // measure 17
0010
1000
0001
1000
,  // measure 18
0001
0010
0100
0100
,  // measure 19
1000
0010
0100
0001
,  // measure 20
1000
0100
0020
0130
,  // measure 21
1000
0001
0020
0031
,  // measure 22
2000
3100
0002
0013
,  // measure 23
2000
0000
0002
3003
,  // measure 24
1000
0001
0100
0100
,  // measure 25
0002
0000
2000
3003
,  // measure 26
0001
1000
0100
0100
,  // measure 27
2000
0000
0002
3003
,  // measure 28
0010
0100
1000
1000
,  // measure 29
0002
0000
2000
3003
,  // measure 30
0010
0100
0001
0002
,  // measure 31
0000
0000
0000
2000
0000
0000
3003
0000
,  // measure 32
1001
0000
0010
0000
0100
0000
1000
1000
,  // measure 33
1000
0000
1001
0000
0000
0001
0100
0000
,  // measure 34
1001
0000
0010
0000
0100
0000
0001
0001
,  // measure 35
0001
0000
1001
0000
0000
1000
0100
0000
,  // measure 36
1001
0010
0100
0100
,  // measure 37
2000
0000
0002
3003
,  // measure 38
1001
0000
0010
0000
0100
0100
2000
0000
,  // measure 39
0000
0000
0000
0002
0000
0000
0000
3003
;

//---------------dance-single - ----------------
#NOTES:
     dance-single:
     :
     Medium:
     5:
     0.324049,0.327421,0.071848,0.328448,0.015396,221.000000,214.000000,7.000000,32.000000,0.000000,0.000000,0.324049,0.327421,0.071848,0.328448,0.015396,221.000000,214.000000,7.000000,32.000000,0.000000,0.000000:
// measure 0
0000
0000
0000
0000
,  // measure 1
0000
0000
0000
0000
,  // measure 2
1000
0100
1000
0000
0000
0010
0010
0000
,  // measure 3
0100
0001
0010
0000
0000
0100
1000
0001
,  // measure 4
2000
0000
3001
0010
0100
0100
0010
0001
,  // measure 5
0100
0000
1001
0000
0000
2000
3001
0000
,  // measure 6
0020
0000
0130
1000
0001
0001
1000
0100
,  // measure 7
0010
0000
1001
0000
0000
0020
0130
0000
,  // measure 8
1000
0001
0100
0001
1000
0100
1000
0001
,  // measure 9
0100
0000
1001
0000
0000
2000
3001
0000
,  // measure 10
0020
0000
0130
1000
0001
0001
1000
0100
,  // measure 11
0010
0000
1001
0000
0000
1000
0001
0000
,  // measure 12
2000
0000
3001
0100
0001
1000
0010
0100
,  // measure 13
0001
0010
0002
0000
0013
0100
2000
0000
,  // measure 14
3010
0100
0010
0000
0100
0000
0100
0000
,  // measure 15
0001
0000
0000
0001
0000
0000
1000
0000
0001
0000
0010
0000
0100
0000
0000
0000
,  // measure 16
1000
0100
1000
0100
0010
0001
0001
1000
,  // measure 17
0001
0010
0001
1000
0000
0001
0010
0100
,  // measure 18
1000
0100
1000
0001
0010
0100
0000
0100
,  // measure 19
0010
0001
1000
0100
1000
0001
1000
0100
,  // measure 20
0020
0000
0130
2000
0000
0000
3100
0010
,  // measure 21
0001
1000
0100
0020
0000
0000
0030
0100
,  // measure 22
0020
0000
0031
2000
0000
3100
0000
0020
,  // measure 23
0000
0200
0000
0000
0330
0000
1000
0001
,  // measure 24
0020
0000
0031
0001
0100
0100
0010
1000
,  // measure 25
0001
0200
0000
0302
0000
0023
0000
0130
,  // measure 26
2000
0000
3001
0001
0100
0100
0010
1000
,  // measure 27
0002
0000
1003
0200
0000
0320
0000
0031
,  // measure 28
1000
1000
0100
0100
0010
0010
0001
0001
,  // measure 29
1000
0000
0000
1000
0000
0000
0010
0000
0000
0100
0000
0000
0001
0000
1000
0000
,  // measure 30
0002
0000
1003
1000
0001
0001
0020
0000
,  // measure 31
0000
0000
0000
0200
0000
0000
0330
0000
,  // measure 32
2000
0000
3001
0100
0001
1000
0001
0100
,  // measure 33
0010
0000
1001
0000
0000
0010
0100
0000
,  // measure 34
0002
0000
1003
0100
1000
0001
1000
0100
,  // measure 35
0010
0000
1001
0000
0000
0010
0100
0000
,  // measure 36
0001
0001
1000
0010
0100
0100
0001
1000
,  // measure 37
0010
0000
1001
0000
0000
0010
0100
0000
,  // measure 38
0002
0000
1003
0010
0100
0100
0002
0000
,  // measure 39
0000
0000
0000
2000
0000
0000
0000
3003
;

//---------------dance-single - ----------------
#NOTES:
     dance-single:
     :
     Hard:
     8:
     0.456014,0.491132,0.123168,0.441352,0.431088,311.000000,299.000000,12.000000,43.000000,0.000000,0.000000,0.456014,0.491132,0.123168,0.441352,0.431088,311.000000,299.000000,12.000000,43.000000,0.000000,0.000000:
// measure 0
0000
0000
0000
0000
,  // measure 1
0000
0000
0000
0000
,  // measure 2
1000
0100
0000
0100
1000
0000
0000
0000
0000
0000
0001
0010
0001
0010
0000
0000
,  // measure 3
0001
1000
0000
1000
0010
0000
0000
0000
0000
1000
0001
0010
0001
1000
0001
1000
,  // measure 4
0020
0000
0000
0000
0130
0001
0100
0000
0001
1000
0001
0000
1000
0000
0100
0000
,  // measure 5
0010
0001
0000
0001
0010
0000
0000
0000
0100
0000
2000
0000
3200
0000
0300
0000
,  // measure 6
0020
0000
0000
0000
0031
1000
0001
0000
0100
0001
0100
0000
0001
0000
1000
0000
,  // measure 7
0001
1000
0000
1000
0010
0000
0000
0000
0000
0000
0020
0000
0130
0000
0000
0100
,  // measure 8
0001
1000
0100
1000
0001
0100
0001
0000
0010
0000
0001
1000
0000
1000
0001
0000
,  // measure 9
1000
0100
0000
0100
0010
0000
0000
0000
0000
0000
0002
0000
0103
0000
0000
0000
,  // measure 10
0020
0000
0000
0000
1030
0001
1000
0000
0100
0010
0001
0000
0100
0000
1001
0000
,  // measure 11
1000
0001
0000
0001
0010
0000
0000
0000
0000
0100
1000
0001
0100
0001
1000
0100
,  // measure 12
0020
0000
0000
0000
0031
0000
0100
0001
0000
0100
0020
0000
1030
0000
0001
0100
,  // measure 13
0001
0010
0100
0010
0001
0000
0100
0010
0000
0100
0002
0000
1003
0000
0000
0000
,  // measure 14
0020
0100
0130
0000
0010
0000
1000
0001
,  // measure 15
1001
0000
0000
1000
0000
0000
0010
0000
1010
0000
0000
0000
1001
0000
1000
0000
,  // measure 16
0010
0000
0100
0000
0100
0000
0001
0100
0001
1000
0020
0000
0230
0000
0301
0000
,  // measure 17
1000
0000
1000
0000
0100
0000
1000
0000
0000
0000
0010
0000
0100
0000
0001
1000
,  // measure 18
0010
1000
0001
0100
0001
0000
0100
0010
0000
0000
0100
0000
0000
0000
0001
1000
,  // measure 19
0010
0100
0001
0010
0100
1000
0001
0000
1000
0000
0001
0000
0100
0000
0010
0000
,  // measure 20
2000
0000
3001
0020
0000
0000
0130
1000
,  // measure 21
0010
0100
0001
0020
0000
0000
0030
0100
,  // measure 22
0020
0000
0130
0002
0000
1003
0000
2000
,  // measure 23
0002
0000
3000
0010
0200
0000
0303
0000
,  // measure 24
2000
0000
0000
0000
3001
0010
0001
0000
1000
0100
1000
0000
0001
0000
0100
0000
,  // measure 25
0010
0200
0000
0302
0000
2003
0000
3001
,  // measure 26
0020
0000
0000
0000
0130
1000
0100
0000
0001
1000
0001
0000
0010
0000
0100
0000
,  // measure 27
2000
0000
3001
0200
0000
0320
0000
1030
,  // measure 28
0001
1000
0010
1000
0001
0100
0001
0000
1000
0000
0001
0010
0000
0100
1000
0000
,  // measure 29
0002
0000
0000
2003
0000
0000
3200
0000
0000
2300
0000
0000
3001
0000
0100
0000
,  // measure 30
0020
0000
0000
0000
0130
0001
0100
0000
0010
1000
0010
0000
2000
0000
0000
0000
,  // measure 31
0100
0000
0000
0000
0010
0000
0002
0000
3000
0000
0000
0000
1003
0100
1000
0000
,  // measure 32
0002
0000
0000
0000
1003
0010
0100
0000
0001
0010
0100
0000
1000
0000
1001
0000
,  // measure 33
0001
0100
0000
0100
0010
0000
0000
0000
0010
0000
1001
0000
0101
0000
0000
0000
,  // measure 34
2000
0000
0000
0000
3001
0010
0100
0000
1000
0010
0100
0000
0001
0000
1001
0000
,  // measure 35
1000
0100
0000
0100
0010
0000
0000
0000
0010
0000
1001
0000
1100
0000
0000
0001
,  // measure 36
0010
0100
0010
0001
1000
0001
0010
0000
0001
0000
0001
1000
0000
1000
0001
0000
,  // measure 37
0100
0000
0000
0120
0000
0000
1030
0000
0000
1002
0000
0000
0103
0000
0010
0000
,  // measure 38
2000
0000
0000
0000
3001
0100
0001
0000
0010
0100
1000
0000
0002
0000
0000
0000
,  // measure 39
0100
0000
0010
2000
0000
0000
0000
3003
;
