#VERSION:0.83;
#TITLE:Eternity;
#SUBTITLE:;
#ARTIST:Orion vs. Alya;
#TITLETRANSLIT:;
#SUBTITLETRANSLIT:;
#ARTISTTRANSLIT:;
#GENRE:;
#ORIGIN:;
#CREDIT:;
#BANNER:Eternity bn2.png;
#BACKGROUND:Eternity bg.png;
#PREVIEWVID:;
#JACKET:;
#CDIMAGE:;
#DISCIMAGE:;
#LYRICSPATH:;
#CDTITLE:;
#MUSIC:Eternity.mp3;
#OFFSET:-7.175000;
#SAMPLESTART:42.450001;
#SAMPLELENGTH:12.000000;
#SELECTABLE:YES;
#BPMS:0.000=136.000,
240.000=272.000,
248.000=136.000;
#STOPS:;
#DELAYS:;
#WARPS:;
#TIMESIGNATURES:0.000=4=4;
#TICKCOUNTS:0.000=4;
#COMBOS:0.000=1;
#SPEEDS:0.000=1.000=0.000=0;
#SCROLLS:0.000=1.000;
#FAKES:;
#LABELS:0.000=Song Start;
#BGCHANGES:;
#KEYSOUNDS:;
#ATTACKS:
;

//---------------dance-single - ----------------
#NOTEDATA:;
#CHARTNAME:;
#STEPSTYPE:dance-single;
#DESCRIPTION:;
#CHARTSTYLE:;
#DIFFICULTY:Easy;
#METER:3;
#RADARVALUES:0.274692,0.368045,0.180267,0.413946,0.000000,288.000000,261.000000,27.000000,62.000000,0.000000,0.000000,0.000000,0.000000,0.000000,0.274692,0.368045,0.180267,0.413946,0.000000,288.000000,261.000000,27.000000,62.000000,0.000000,0.000000,0.000000,0.000000,0.000000;
#CREDIT:;
#NOTES:
// measure 0
0000
0000
0000
0000
,  // measure 1
0000
0000
0000
0000
,  // measure 2
0000
0000
0000
0000
,  // measure 3
0000
0000
0000
0000
,  // measure 4
1001
0100
0100
0100
,  // measure 5
0100
0100
0010
0001
,  // measure 6
1000
0010
0010
0010
,  // measure 7
0100
0100
0001
0001
,  // measure 8
0010
0010
0010
0010
,  // measure 9
0100
0100
1000
1000
,  // measure 10
0001
0001
0001
0001
,  // measure 11
0010
0010
0100
0110
,  // measure 12
2002
3003
0200
0300
,  // measure 13
0020
1030
0200
0301
,  // measure 14
0020
0030
0200
0300
,  // measure 15
2000
3100
0002
0013
,  // measure 16
2000
3000
0020
0030
,  // measure 17
0200
0301
0020
1030
,  // measure 18
0002
0023
0230
2300
,  // measure 19
3200
0320
0032
1003
,  // measure 20
2002
3003
0100
0010
,  // measure 21
0002
0103
0020
1030
,  // measure 22
0002
0000
0100
0003
,  // measure 23
2000
3001
0200
0301
,  // measure 24
0020
0000
0100
0030
,  // measure 25
2000
3000
0002
0003
,  // measure 26
1001
1000
0110
0010
,  // measure 27
1001
0001
0110
0100
,  // measure 28
1001
0100
0020
0030
,  // measure 29
2000
3100
0002
0013
,  // measure 30
2000
0000
0010
3000
,  // measure 31
0002
1003
0200
1300
,  // measure 32
0020
0000
0100
0030
,  // measure 33
0002
0003
2000
3000
,  // measure 34
1001
0001
0110
0100
,  // measure 35
1001
1000
0110
0010
,  // measure 36
2002
0000
0000
0000
3003
0000
0000
1000
,  // measure 37
0001
0100
0000
0100
,  // measure 38
0000
0010
0000
0010
,  // measure 39
1000
0001
0000
0001
,  // measure 40
0000
1000
0000
1000
,  // measure 41
0001
0000
0100
0100
0000
0000
0100
0000
,  // measure 42
0000
0010
0000
0010
,  // measure 43
1000
0100
0000
0100
,  // measure 44
0001
0010
0000
0010
,  // measure 45
0100
1000
0001
1000
,  // measure 46
0010
0100
0001
0100
,  // measure 47
0010
1000
0100
1000
,  // measure 48
0001
0100
0010
0100
,  // measure 49
0001
0000
1000
1000
0000
0000
0100
0000
,  // measure 50
1000
0001
0100
0001
,  // measure 51
1000
0010
0100
0010
,  // measure 52
1000
0001
1000
0000
0010
0000
0110
0000
,  // measure 53
1001
0100
0100
0100
,  // measure 54
0100
0100
0100
0100
,  // measure 55
0010
0010
0010
0010
,  // measure 56
0010
0010
0010
0010
,  // measure 57
1000
0100
0001
0100
,  // measure 58
1000
0010
0001
0010
,  // measure 59
1000
1000
0001
0001
,  // measure 60
0010
0000
0010
0000
,  // measure 61
0100
0000
0100
0000
,  // measure 62
2002
3003
0100
0010
,  // measure 63
2000
3100
0020
0031
,  // measure 64
2000
0010
0010
3010
,  // measure 65
0002
1003
0200
1300
,  // measure 66
0020
0100
0100
0130
,  // measure 67
0002
0103
2000
3100
,  // measure 68
1001
1000
0110
0010
,  // measure 69
1001
0001
0110
0100
,  // measure 70
1001
0100
0020
0130
,  // measure 71
0002
0103
2000
3010
,  // measure 72
0002
0100
0100
0103
,  // measure 73
2000
3001
0200
0301
,  // measure 74
0020
0100
0100
0130
,  // measure 75
2000
3100
0002
0103
,  // measure 76
1001
0001
0110
0100
,  // measure 77
1001
1000
0110
0010
,  // measure 78
2002
0000
0000
3003
;

//---------------dance-single - ----------------
#NOTEDATA:;
#CHARTNAME:;
#STEPSTYPE:dance-single;
#DESCRIPTION:;
#CHARTSTYLE:;
#DIFFICULTY:Medium;
#METER:6;
#RADARVALUES:0.397732,0.473200,0.140208,0.267062,0.083457,417.000000,396.000000,21.000000,40.000000,0.000000,0.000000,0.000000,0.000000,0.000000,0.397732,0.473200,0.140208,0.267062,0.083457,417.000000,396.000000,21.000000,40.000000,0.000000,0.000000,0.000000,0.000000,0.000000;
#CREDIT:;
#NOTES:
// measure 0
0000
0000
0000
0000
,  // measure 1
0000
0000
0000
0000
,  // measure 2
0000
0000
0000
0000
,  // measure 3
0000
0000
0000
0000
,  // measure 4
1001
0000
0000
0000
0100
0000
0000
1000
0000
1000
0000
0000
0001
0000
0000
0000
,  // measure 5
1000
0000
0000
0000
0001
0000
0000
0010
0000
0010
0000
0000
0100
0000
0000
0000
,  // measure 6
0010
0000
0000
0000
0001
0000
0000
0100
0000
0100
0000
0000
1000
0000
0000
0000
,  // measure 7
0100
0000
0000
0000
0001
0000
0000
0010
0000
0010
0000
0000
0001
0000
0000
0000
,  // measure 8
1000
0000
0000
0000
0100
0000
0000
0001
0000
0001
0000
0000
0100
0000
0000
0000
,  // measure 9
1000
0000
0000
0000
0001
0000
0000
0010
0000
0010
0000
0000
0001
0000
0000
0000
,  // measure 10
0010
0000
0000
0000
0001
0000
0000
0100
0000
0100
0000
0000
0010
0000
0000
0000
,  // measure 11
1000
0000
0000
0000
0001
0000
0000
0100
0000
0100
0000
0000
0010
0000
0000
0000
,  // measure 12
2001
3010
0200
0301
,  // measure 13
0020
0000
0030
0100
2000
0000
3001
0100
,  // measure 14
0020
0000
0000
0000
1000
0000
0000
0100
0000
0100
0000
0000
1030
0000
0000
0000
,  // measure 15
0002
0010
0203
0010
,  // measure 16
0302
0000
0000
0000
1000
0000
0000
0100
0000
0100
0000
0000
1003
0000
0000
0000
,  // measure 17
0020
1000
0230
0301
,  // measure 18
1000
0100
0010
0001
0100
0010
1000
0001
,  // measure 19
0010
0100
1000
0001
1000
0100
0010
0001
,  // measure 20
1001
0000
1000
0100
0001
0000
0100
1000
,  // measure 21
0002
0000
0103
0010
2000
0000
3100
0010
,  // measure 22
0002
0100
0100
0103
,  // measure 23
0010
1000
0100
0000
0001
0100
1000
0000
,  // measure 24
0002
0100
0100
0103
,  // measure 25
0010
0100
0001
0000
1000
0100
0010
0000
,  // measure 26
1002
0103
0201
0310
,  // measure 27
0120
1030
2010
3001
,  // measure 28
1001
0000
0001
0100
1000
0000
0100
0001
,  // measure 29
1000
0100
0010
0001
0100
1000
0100
0001
,  // measure 30
0020
0100
0100
0130
,  // measure 31
0001
1000
0100
0000
1000
0001
0100
0000
,  // measure 32
0020
0100
0100
0130
,  // measure 33
0001
0010
0100
0000
1000
0010
0100
0000
,  // measure 34
2001
3100
1200
0310
,  // measure 35
0120
0031
0012
1003
,  // measure 36
2002
0000
0000
0000
3003
0000
0000
0010
,  // measure 37
1000
0001
0000
0001
1000
0100
0000
1000
,  // measure 38
0000
0000
1000
0000
0000
0000
0001
0000
0000
0000
0010
0000
0000
0010
0000
0000
,  // measure 39
0100
1000
0000
1000
0001
0100
0000
0100
,  // measure 40
0000
0010
0000
0010
0000
1000
0000
0001
,  // measure 41
0010
0001
0100
1000
0000
1000
0000
0100
,  // measure 42
0000
0100
0000
0001
0000
0001
0000
0010
,  // measure 43
0000
0010
0000
1000
0000
1000
0000
0001
,  // measure 44
0000
0001
0000
1000
0100
1000
0001
0010
,  // measure 45
0100
1000
0000
0001
0100
1000
0000
0100
,  // measure 46
0001
0000
0010
0000
0000
0000
0010
0000
0001
0000
0000
1000
0000
0000
0001
0000
,  // measure 47
0010
0000
0000
0100
0000
0000
1000
0000
0010
0000
0100
0000
0000
0000
0100
0000
,  // measure 48
0001
1000
0000
1000
0010
0100
0010
1000
,  // measure 49
0001
0000
0100
1000
0000
0010
1001
0000
,  // measure 50
1000
1100
0001
0101
,  // measure 51
0001
0100
1000
0100
0001
0100
1000
0100
,  // measure 52
0001
0010
0100
1000
0001
0000
0110
0000
,  // measure 53
2001
0100
0001
0100
,  // measure 54
0001
0100
0001
3100
,  // measure 55
0002
0100
1000
0100
,  // measure 56
1000
0100
1000
0103
,  // measure 57
2000
0000
0000
0100
0000
0000
3100
0000
0000
1000
0100
0010
,  // measure 58
0002
0100
0103
0001
,  // measure 59
1000
0010
1000
0010
0100
0001
0100
0001
,  // measure 60
1000
0001
1000
0001
,  // measure 61
0010
0100
0010
0100
,  // measure 62
1002
0000
1003
0100
0001
0000
0100
1000
,  // measure 63
0002
0000
0103
0010
2000
0000
3100
0010
,  // measure 64
0002
0100
0100
0103
,  // measure 65
0010
1000
0100
0000
0010
0001
0100
0000
,  // measure 66
0002
0010
0010
0013
,  // measure 67
0100
1000
0001
0000
0100
0001
1000
0000
,  // measure 68
0001
0010
0100
1000
0100
0001
0100
1000
,  // measure 69
0010
0100
0001
1000
0100
0001
0100
1000
,  // measure 70
2001
0000
3001
0100
1000
0000
0100
0001
,  // measure 71
0010
0100
1000
0001
0100
1000
0100
0001
,  // measure 72
2000
0100
0100
3100
,  // measure 73
0010
0001
0100
0000
0010
1000
0100
0000
,  // measure 74
2000
0010
0010
3010
,  // measure 75
0100
0001
1000
0000
0100
1000
0001
0000
,  // measure 76
1000
0010
0100
0001
0100
1000
0100
0001
,  // measure 77
0010
0100
1000
0001
1000
0100
0001
0100
,  // measure 78
2002
0000
0000
3003
;

//---------------dance-single - ----------------
#NOTEDATA:;
#CHARTNAME:;
#STEPSTYPE:dance-single;
#DESCRIPTION:;
#CHARTSTYLE:;
#DIFFICULTY:Hard;
#METER:10;
#RADARVALUES:0.709622,0.893823,0.393916,0.206973,0.771141,744.000000,685.000000,59.000000,31.000000,0.000000,0.000000,0.000000,0.000000,0.000000,0.709622,0.893823,0.393916,0.206973,0.771141,744.000000,685.000000,59.000000,31.000000,0.000000,0.000000,0.000000,0.000000,0.000000;
#CREDIT:;
#NOTES:
// measure 0
0000
0000
0000
0000
,  // measure 1
0000
0000
0000
0000
,  // measure 2
0000
0000
0000
0000
,  // measure 3
0000
0000
0000
0000
,  // measure 4
1001
0010
0000
0100
1000
0000
1000
0001
0000
1000
0000
0001
1000
0000
1000
0100
,  // measure 5
0000
1000
0000
0001
0100
0000
0100
0001
0000
1000
0000
0001
0010
0000
0100
1000
,  // measure 6
0000
0100
0000
0010
0001
0000
0001
1000
0000
0001
0000
1000
0001
0000
0001
0010
,  // measure 7
0000
0001
0000
1000
0010
0000
0010
1000
0000
0001
0000
1000
0100
0000
0010
0001
,  // measure 8
0000
1000
0000
1000
0010
0000
0010
1000
0000
0001
0000
1000
0100
0000
0010
0001
,  // measure 9
0000
1000
0000
0001
0010
0000
0010
0001
0000
1000
0000
0001
0010
0000
0100
1000
,  // measure 10
0000
0001
0000
0001
0100
0000
0100
0001
0000
1000
0000
0001
0010
0000
0010
0100
,  // measure 11
0000
1000
0000
1000
0010
0000
0010
1000
0000
0001
0000
1000
0010
0000
0010
0100
,  // measure 12
2001
3010
0201
1300
,  // measure 13
0210
0000
0301
0010
2100
0000
3001
0100
,  // measure 14
0001
0010
0000
0010
0001
0000
1000
0010
0000
0100
0000
0010
1000
0000
0001
1000
,  // measure 15
0000
0010
0000
0010
1000
0000
0001
0010
0000
0100
0000
0010
0001
0000
1000
0001
,  // measure 16
1000
0100
0000
0010
0001
0000
1000
0001
0000
0100
0000
0001
0010
0000
0100
1000
,  // measure 17
0001
0010
0000
0100
1000
0000
0001
1000
0000
0100
0000
1000
0010
0000
0100
0001
,  // measure 18
1000
0010
0000
0100
0001
0000
1000
0001
0000
0010
0000
0001
1000
0000
0010
0100
,  // measure 19
0001
0010
0001
0010
0100
0010
0100
0010
0001
1000
0001
1000
0010
1000
0010
1000
,  // measure 20
2001
0000
3100
0010
0012
1000
0103
0010
,  // measure 21
2010
0000
3100
0010
0102
0000
0103
0010
,  // measure 22
2001
0000
0000
0000
3001
0000
0000
0000
1000
0000
0001
0010
0001
0000
1000
0000
,  // measure 23
1002
0010
0103
0000
2001
0100
3010
0100
,  // measure 24
0012
0000
0000
0000
1003
0000
0100
0000
0010
0000
0001
1000
0001
0000
0100
0000
,  // measure 25
1010
0100
0101
0000
0011
0100
1100
0000
,  // measure 26
2001
0100
3010
0000
1002
0100
0013
0000
,  // measure 27
0120
1000
0031
0000
0210
1000
0301
0000
,  // measure 28
1000
0100
1000
0000
0001
0100
0001
0000
1000
0010
1000
0000
0001
0100
0001
0000
,  // measure 29
0010
0100
1000
0000
0010
0100
0001
0000
0010
0100
1000
0000
0010
0100
0001
0000
,  // measure 30
1001
0000
0100
0000
1100
0000
0000
0000
0001
0100
0001
0000
1000
0100
1000
0000
,  // measure 31
1002
0000
0100
0000
0013
0000
0000
0000
1001
0000
0010
0100
0010
0000
0001
0000
,  // measure 32
1001
0000
0010
0000
0011
0000
0000
0000
1000
0010
1000
0000
0001
0010
0001
0000
,  // measure 33
2001
0000
0010
0000
3100
0000
0000
0000
1001
0000
0100
0010
0100
0000
0000
0000
,  // measure 34
1001
0000
0001
0000
0100
0010
1000
0000
1001
0000
1000
0000
0100
0010
0001
0000
,  // measure 35
1000
0001
1000
0000
0100
0010
0100
0000
1000
0001
1000
0000
0100
0010
0100
0000
,  // measure 36
2002
0000
0000
0000
0000
0000
0000
0000
3003
0000
0000
0000
0000
0000
0010
0100
,  // measure 37
1001
0000
1000
0100
0000
0000
1000
0100
0000
0000
0001
0100
0000
0000
0001
0100
,  // measure 38
0000
0000
0010
1000
0000
0000
0010
1000
0000
0000
0001
0010
0000
0000
0001
0010
,  // measure 39
0001
0000
1000
0100
0000
0000
1000
0100
0000
0000
0010
0001
0000
0000
0010
0001
,  // measure 40
0000
0000
0010
0100
0000
0000
0010
0100
0000
0000
1000
0001
1000
0000
0100
0010
,  // measure 41
0100
0000
1000
0001
0000
0000
0100
0000
0110
0000
0010
1000
0000
0000
1000
0100
,  // measure 42
0000
0000
0100
0010
0000
0000
0010
0001
0000
0000
0001
0100
0000
0000
0100
1000
,  // measure 43
0000
0000
1000
0010
0000
0000
0010
0001
0000
0000
0001
1000
0000
0000
1000
0100
,  // measure 44
0000
0000
0001
0010
0000
0000
1000
0100
0000
0000
1000
0001
1000
0000
0100
0010
,  // measure 45
1001
0100
0010
0001
1000
0010
0100
0001
,  // measure 46
0100
0000
0010
0000
1000
0000
0001
1000
0100
0000
0100
0010
0000
0010
0001
0000
,  // measure 47
1000
0000
1000
0010
0000
0010
0100
0000
0001
0000
0010
0000
0100
0000
1000
0000
,  // measure 48
0001
0000
0010
0100
0010
0000
0001
0000
1000
0000
0010
0100
0010
0000
1000
0001
,  // measure 49
1000
0000
0000
1000
0010
0000
1000
0000
0001
0000
0100
0000
0010
0000
1000
0000
,  // measure 50
0001
0000
0010
0100
1000
0000
0001
0000
1000
0000
0010
0100
0001
0000
1000
0000
,  // measure 51
0001
0010
0001
0000
1000
0100
1000
0000
0001
0100
0001
0000
1000
0010
1000
0000
,  // measure 52
0001
0100
0001
0100
0010
1000
0010
0100
0001
0010
0001
0010
0100
1000
0100
0010
,  // measure 53
1001
0000
0000
1000
0100
0000
0000
0100
1000
0000
0000
1000
0100
0000
0000
0100
,  // measure 54
0010
0000
0000
0010
0001
0000
0000
0001
0010
0000
0000
0010
0001
0000
0100
0010
,  // measure 55
0100
0000
0000
0100
0001
0000
0000
0001
0100
0000
0000
0100
0001
0000
0000
0001
,  // measure 56
1000
0000
0000
1000
0010
0000
0000
0010
1000
0000
0000
1000
0010
0000
1000
0001
,  // measure 57
1000
0000
0000
0000
0000
0000
0000
0000
0000
0100
0000
0000
0010
0000
0000
0000
0000
0000
0000
0000
0000
0001
0000
0000
0100
0000
0000
0000
0000
0000
0000
0000
0000
0001
0000
0000
1000
0000
0000
0000
0100
0000
0000
0000
0010
0000
0000
0000
,  // measure 58
0001
0010
0100
1000
0001
0010
0100
1000
,  // measure 59
0001
0010
0001
0000
0100
1000
0100
0000
0001
0010
0001
0000
0010
0100
0010
0000
,  // measure 60
0001
1000
0001
1000
0010
0100
0010
0100
,  // measure 61
0001
0010
0100
1000
0010
0100
0001
1000
,  // measure 62
1002
0100
0013
0000
2001
0100
3010
0000
,  // measure 63
0001
1000
0001
0000
1000
0100
1000
0000
0001
0100
0001
0000
1000
0001
1000
0000
,  // measure 64
0120
0000
1000
0000
0031
0000
0000
0000
1000
0010
1000
0000
0001
0100
0001
0000
,  // measure 65
0210
0000
0001
0000
1300
0000
0000
0000
1001
0000
0010
0100
0010
0000
1000
0000
,  // measure 66
0120
0000
0100
0000
0130
0000
0000
0000
0001
0010
0001
0000
1000
0100
1000
0000
,  // measure 67
1002
0100
0103
0000
2001
0010
3010
0000
,  // measure 68
1001
0100
1010
0000
1001
0010
0101
0000
,  // measure 69
1001
0100
0011
0000
1001
0010
1100
0000
,  // measure 70
1000
0010
0100
0001
0010
0000
0001
0100
0001
1000
0100
0010
0001
0000
1000
0001
,  // measure 71
0100
0010
1000
0000
0100
0010
0001
0000
0100
0010
1000
0000
0100
0010
0001
0000
,  // measure 72
1001
0000
1000
0000
1100
0000
0000
0000
0001
0100
0001
0100
0001
0000
0100
0000
,  // measure 73
1010
0000
0100
0000
0101
0000
0000
0000
0001
0100
0001
0100
0001
0000
0010
0000
,  // measure 74
2001
0000
0100
0000
3010
0000
0000
0000
0001
0010
0100
0000
1000
0010
0100
0000
,  // measure 75
1002
0000
0100
0000
0013
0000
0000
0000
1000
0100
0010
0000
0001
0100
0010
0000
,  // measure 76
1000
0100
1000
0100
0010
0001
0010
0001
0100
0010
0100
0010
1000
0001
1000
0001
,  // measure 77
1000
0100
0010
0001
0100
0001
1000
0100
1000
0010
0100
0001
0010
0001
1000
0010
,  // measure 78
2002
0000
0000
3003
;
