#TITLE:Endless Sorrow;
#SUBTITLE:(A Agressive Mix);
#ARTIST:浜崎あゆみ;
#TITLETRANSLIT:;
#SUBTITLETRANSLIT:;
#ARTISTTRANSLIT:Ayumi Hamasaki;
#GENRE:;
#CREDIT:;
#BANNER:Endless Sorrow bn2.png;
#BACKGROUND:Endless Sorrow bg.png;
#LYRICSPATH:;
#CDTITLE:;
#MUSIC:Endless Sorrow (A Agressive Mix).mp3;
#OFFSET:-0.055000;
#SAMPLESTART:63.480000;
#SAMPLELENGTH:12.000000;
#SELECTABLE:YES;
#BPMS:0.000000=140.000000
;
#STOPS:
;
#BGCHANGES:;
#KEYSOUNDS:;
#ATTACKS:;

//---------------dance-single - ----------------
#NOTES:
     dance-single:
     :
     Easy:
     3:
     0.290626,0.406643,0.251964,0.531925,0.000000,218.000000,191.000000,27.000000,57.000000,0.000000,0.000000,0.290626,0.406643,0.251964,0.531925,0.000000,218.000000,191.000000,27.000000,57.000000,0.000000,0.000000:
// measure 0
0000
0000
0000
0000
,  // measure 1
0000
0000
0000
0000
,  // measure 2
0000
0000
0000
0000
,  // measure 3
0000
0000
0000
0000
,  // measure 4
0001
0001
0020
0130
,  // measure 5
0020
0130
0020
0130
,  // measure 6
1000
1000
0020
0130
,  // measure 7
2002
0000
0000
3003
,  // measure 8
1000
1000
0010
0100
,  // measure 9
0001
0001
0020
0230
,  // measure 10
1300
1000
0001
1000
,  // measure 11
0100
0100
0020
0230
,  // measure 12
1300
1000
0001
0001
,  // measure 13
0010
0010
0002
2003
,  // measure 14
3001
0001
1000
1000
,  // measure 15
0010
0100
1001
0110
,  // measure 16
1001
0000
1000
0000
,  // measure 17
0010
0000
0100
0001
,  // measure 18
1001
1000
0100
0000
,  // measure 19
0010
0000
0001
1000
,  // measure 20
1001
0000
0100
0000
,  // measure 21
1000
0000
0001
0010
,  // measure 22
1001
0000
0001
0000
,  // measure 23
0010
0000
0100
0100
,  // measure 24
1001
0100
0100
1000
,  // measure 25
0001
0001
0010
0100
,  // measure 26
1000
1000
0010
0100
,  // measure 27
1001
0001
0010
0100
,  // measure 28
1001
1000
0100
0010
,  // measure 29
0001
0010
1000
0100
,  // measure 30
1001
0010
0100
1000
,  // measure 31
1001
1001
0110
0110
,  // measure 32
1000
1000
0100
0100
,  // measure 33
1000
0010
0100
0001
,  // measure 34
0010
0010
0001
0001
,  // measure 35
0010
0100
1000
0100
,  // measure 36
2002
0000
0000
3003
,  // measure 37
2000
3000
0020
0030
,  // measure 38
0200
0300
0002
0003
,  // measure 39
2000
3000
0020
0030
,  // measure 40
0100
0001
0001
0010
,  // measure 41
0002
0003
0020
0030
,  // measure 42
0002
0003
2000
3000
,  // measure 43
0002
0003
0020
0030
,  // measure 44
0200
1300
1001
0110
,  // measure 45
0020
0030
0002
0003
,  // measure 46
0020
0030
0200
0300
,  // measure 47
2000
3000
0020
0130
,  // measure 48
0001
1000
0100
0010
,  // measure 49
0002
0003
0020
0030
,  // measure 50
0002
0003
2000
3010
,  // measure 51
0200
0300
0002
0013
,  // measure 52
0200
1300
0002
1003
,  // measure 53
2002
0000
0000
3003
,  // measure 54
2001
3001
0010
1000
,  // measure 55
0002
0103
2000
3002
,  // measure 56
0023
0130
1000
0001
,  // measure 57
2000
3100
0001
0110
,  // measure 58
2000
3100
0001
0010
,  // measure 59
0002
1003
0020
0230
,  // measure 60
0301
1001
1000
0110
,  // measure 61
2002
3003
1001
0110
,  // measure 62
2002
3003
0000
0000
;

//---------------dance-single - ----------------
#NOTES:
     dance-single:
     :
     Medium:
     6:
     0.375947,0.406643,0.205304,0.494597,0.000000,282.000000,260.000000,22.000000,53.000000,0.000000,0.000000,0.375947,0.406643,0.205304,0.494597,0.000000,282.000000,260.000000,22.000000,53.000000,0.000000,0.000000:
// measure 0
0000
0000
0000
0000
,  // measure 1
0000
0000
0000
0000
,  // measure 2
0000
0000
0000
0000
,  // measure 3
0000
0000
0000
0000
,  // measure 4
1000
0000
1000
0000
0010
0100
0010
0000
,  // measure 5
0100
0010
0100
0000
0010
0100
0001
0000
,  // measure 6
0100
0000
0100
0000
0010
1000
0010
0000
,  // measure 7
2002
0000
0000
3003
,  // measure 8
1000
0000
1000
0000
0001
0010
0001
0010
,  // measure 9
0001
0000
1000
0000
0010
0100
0001
0000
,  // measure 10
0010
0000
0010
0000
0100
1000
0100
1000
,  // measure 11
0100
0000
0010
0000
0001
1000
0100
1000
,  // measure 12
0001
0000
0001
0000
1000
0010
1000
0010
,  // measure 13
1000
0000
0100
0000
0010
0001
0100
0000
,  // measure 14
0010
0000
1000
0000
0001
0010
0001
0000
,  // measure 15
1001
0100
1001
0110
,  // measure 16
1001
0000
0000
1000
0010
0000
0000
0010
,  // measure 17
0002
0000
0000
0103
0000
1000
0001
0000
,  // measure 18
2000
0000
0000
3002
0000
0000
0000
0013
,  // measure 19
0100
0000
1001
0000
1100
0000
0100
0010
,  // measure 20
0002
0000
0000
1003
2000
0000
0000
3100
,  // measure 21
0020
0000
0000
0130
1000
0001
1000
0000
,  // measure 22
0020
0000
0000
0230
0000
0000
0000
0301
,  // measure 23
1000
0000
1001
0000
0011
0000
0001
1000
,  // measure 24
0200
0000
0000
0310
0001
0000
0000
1000
,  // measure 25
0020
0000
0000
0230
0000
0000
0301
0000
,  // measure 26
1000
0000
0001
0000
0010
0100
1000
0000
,  // measure 27
1001
0000
0001
0000
1000
0010
1000
0001
,  // measure 28
0002
0000
0000
0013
0020
0000
0000
0130
,  // measure 29
1000
0000
0001
0000
1000
0100
0010
0001
,  // measure 30
2000
3001
0002
0103
,  // measure 31
0001
1000
0001
1000
0001
0000
0110
0000
,  // measure 32
1001
0000
1000
0100
0000
0100
0000
0010
,  // measure 33
0000
0010
0000
0001
1000
0000
0110
0000
,  // measure 34
0001
1000
0100
0000
1000
0000
0001
0020
,  // measure 35
0000
0230
0000
0000
1300
0001
0100
0000
,  // measure 36
2002
0000
0000
3003
,  // measure 37
0002
0000
0000
0023
0000
0000
0230
0000
,  // measure 38
2300
0000
0000
3002
0000
0000
1003
0000
,  // measure 39
0020
0000
0000
0230
0000
0000
0302
0000
,  // measure 40
2003
3100
1001
0110
,  // measure 41
2000
0000
0000
3020
0000
0000
0230
0000
,  // measure 42
0302
0000
0000
2003
0000
0000
3100
0000
,  // measure 43
0020
0000
0000
0230
0000
0000
2300
0000
,  // measure 44
3002
0103
1001
0110
,  // measure 45
1000
0000
0001
0200
0000
0000
0301
0000
,  // measure 46
0020
0000
0130
2000
0000
0000
3001
0000
,  // measure 47
2000
0000
3010
0200
0000
0000
0301
0000
,  // measure 48
2000
3010
1001
0110
,  // measure 49
0001
0010
0100
2000
0000
0000
3100
0000
,  // measure 50
0010
0001
1000
0200
0000
0000
1300
0000
,  // measure 51
0001
1000
0010
0200
0000
0000
0301
0000
,  // measure 52
0020
0100
0100
0130
,  // measure 53
2002
0000
0000
3003
,  // measure 54
0100
0000
0100
0000
0010
0001
0010
0001
,  // measure 55
0010
0000
0100
0000
1000
0010
0100
0000
,  // measure 56
0001
0000
0001
0000
1000
0100
1000
0100
,  // measure 57
1000
0000
0010
0000
0100
0001
0010
0100
,  // measure 58
1000
0000
1000
0000
0010
0100
0001
1000
,  // measure 59
0001
0000
0100
0000
0010
1000
0001
0000
,  // measure 60
0010
0000
0100
0000
1000
0001
0100
0001
,  // measure 61
1000
0000
0010
0000
0100
0001
1000
0100
,  // measure 62
2002
3003
0000
0000
;

//---------------dance-single - ----------------
#NOTES:
     dance-single:
     :
     Hard:
     8:
     0.571919,0.580918,0.307956,0.177308,0.023330,429.000000,396.000000,33.000000,19.000000,0.000000,0.000000,0.571919,0.580918,0.307956,0.177308,0.023330,429.000000,396.000000,33.000000,19.000000,0.000000,0.000000:
// measure 0
0000
0000
0000
0000
,  // measure 1
0000
0000
0000
0000
,  // measure 2
0000
0000
0000
0000
,  // measure 3
0000
0000
0000
0000
,  // measure 4
0010
1000
0001
0000
0010
0000
1001
0000
,  // measure 5
0100
1001
0010
1001
,  // measure 6
1000
0001
0100
0010
1000
0001
0100
0001
,  // measure 7
0020
0000
0000
0030
,  // measure 8
1001
0001
1000
0010
0100
0001
0100
0010
,  // measure 9
1010
0010
1000
0001
0010
0100
1100
0000
,  // measure 10
1001
1000
0001
0010
0100
1000
0010
0100
,  // measure 11
0101
0001
0010
0100
0010
0001
1000
0100
,  // measure 12
0110
0010
0001
0100
0010
1000
0001
0100
,  // measure 13
0110
0010
1000
0001
0010
0100
1100
0000
,  // measure 14
1001
0001
0100
0010
1000
0001
0010
0100
,  // measure 15
1100
0100
1001
0110
,  // measure 16
1001
0000
1000
0001
0010
0000
0010
0001
,  // measure 17
1000
1000
0000
0020
0000
0130
0001
0000
,  // measure 18
1001
0000
0001
2000
0000
3001
0100
0010
,  // measure 19
0100
0001
0010
0001
1000
0010
0100
0001
,  // measure 20
1000
0000
0001
1000
0200
0000
1300
0001
,  // measure 21
0020
0000
0130
1000
0001
1000
0010
1000
,  // measure 22
0002
0000
0000
2003
0010
0000
3100
0000
,  // measure 23
0010
0001
0100
0010
1000
0100
1001
0000
,  // measure 24
0001
1000
0100
1000
0010
0100
0001
0010
,  // measure 25
0001
1000
0010
0100
0001
1000
0001
0010
,  // measure 26
0100
1000
0001
0010
0100
0010
0001
1000
,  // measure 27
0010
0100
0001
0100
0010
1000
0001
0010
,  // measure 28
0100
0000
1001
1000
0100
0000
0011
0010
,  // measure 29
0100
0000
1001
1000
0010
0000
0110
0100
,  // measure 30
0001
0000
1001
1000
0010
0000
1001
0000
,  // measure 31
1000
0001
1000
0001
1000
0001
1000
0001
1000
0000
0000
0100
0000
0000
0010
0000
,  // measure 32
0001
0100
0001
0100
0010
1000
0010
1000
,  // measure 33
0001
0010
0001
0010
0100
1000
0100
1000
,  // measure 34
0010
1000
0100
0010
0001
0100
0010
1000
,  // measure 35
0001
1000
0010
0100
0001
1000
0010
0100
,  // measure 36
2002
0000
0000
3003
,  // measure 37
1000
0010
0100
0002
0000
0103
0010
1000
,  // measure 38
0001
0010
0100
2000
0000
3100
0010
0001
,  // measure 39
1000
0001
0010
0200
0000
1300
0010
0000
,  // measure 40
0100
0001
1000
0010
1001
0000
0110
0000
,  // measure 41
0001
0010
0100
2000
0000
3010
0100
0001
,  // measure 42
1000
0010
0100
0002
0000
0013
0100
1000
,  // measure 43
0010
0100
0001
2000
0000
3010
0100
0000
,  // measure 44
0001
1000
0100
0010
1001
0000
0110
0000
,  // measure 45
0001
0010
0100
1000
0001
1000
0100
1000
,  // measure 46
0010
0100
0001
1000
0001
0010
0100
1000
,  // measure 47
0010
0100
0001
0100
0010
1000
0001
0010
,  // measure 48
0100
1000
0010
0001
1001
0000
0110
0000
,  // measure 49
1000
0100
0001
0100
1000
0010
0100
0001
,  // measure 50
0010
0100
1000
0010
1000
0100
0010
0001
,  // measure 51
1000
0100
1000
0010
0100
0001
0010
0001
,  // measure 52
0100
0010
1000
0001
0010
0100
1000
0001
,  // measure 53
2002
0000
0000
3003
,  // measure 54
1000
0100
1000
0010
0100
0001
0100
0010
,  // measure 55
1000
0100
1000
0010
0001
0010
1000
0000
,  // measure 56
1000
0001
0100
0010
0100
0001
0010
0100
,  // measure 57
1000
0100
0010
0001
1000
0010
0100
0001
,  // measure 58
0010
0100
1000
0001
1000
0010
1000
0100
,  // measure 59
1000
0001
1000
0001
0010
0100
1000
0000
,  // measure 60
0010
1000
0001
0010
0001
1000
0010
0100
,  // measure 61
0001
0100
1000
0010
0001
1000
0010
0100
,  // measure 62
2002
3003
0000
0000
;
