#TITLE:Dynamite Rave;
#SUBTITLE:(Super Euro Version);
#ARTIST:Naoki;
#TITLETRANSLIT:;
#SUBTITLETRANSLIT:;
#ARTISTTRANSLIT:;
#GENRE:;
#CREDIT:;
#BANNER:dynaraveeuro bn.png;
#BACKGROUND:dynaraveeuro bg.png;
#LYRICSPATH:;
#CDTITLE:;
#MUSIC:dynaraveeuro.mp3;
#OFFSET:-0.090000;
#SAMPLESTART:52.873001;
#SAMPLELENGTH:12.000000;
#SELECTABLE:YES;
#BPMS:0.000000=150.000000
;
#STOPS:
;
#BGCHANGES:;
#KEYSOUNDS:;
#ATTACKS:;

//---------------dance-single - ----------------
#NOTES:
     dance-single:
     :
     Easy:
     5:
     0.470352,0.549128,1.185748,0.000000,0.000000,286.000000,183.000000,103.000000,0.000000,0.000000,0.000000,0.470352,0.549128,1.185748,0.000000,0.000000,286.000000,183.000000,103.000000,0.000000,0.000000,0.000000:
// measure 0
0000
0000
0000
0000
,  // measure 1
0000
0000
0000
0000
,  // measure 2
0000
0000
0000
0000
,  // measure 3
0000
0000
0000
0000
,  // measure 4
0110
1001
1100
0101
,  // measure 5
0110
1001
1010
0011
,  // measure 6
0010
0010
0001
0001
,  // measure 7
1001
0000
0000
0000
,  // measure 8
1001
0110
1100
0100
,  // measure 9
0101
0110
1001
1000
,  // measure 10
1001
0110
0011
0010
,  // measure 11
1010
0110
1001
0110
,  // measure 12
1001
1000
0100
0110
,  // measure 13
1001
0001
0100
0110
,  // measure 14
1001
1000
0010
0110
,  // measure 15
1001
0001
0010
0110
,  // measure 16
1000
0001
0010
0100
,  // measure 17
0001
1000
0100
0010
,  // measure 18
0110
1001
0110
1001
,  // measure 19
1100
0101
1100
0101
,  // measure 20
1000
0100
0001
0010
,  // measure 21
1000
0100
0001
0010
,  // measure 22
0011
0011
1100
1100
,  // measure 23
0110
1001
0110
1001
,  // measure 24
1001
0000
0000
0000
,  // measure 25
1001
1001
1000
0010
,  // measure 26
0100
0100
0001
0010
,  // measure 27
0100
0100
1000
0010
,  // measure 28
0100
0100
0001
0110
,  // measure 29
1001
1001
1000
0010
,  // measure 30
0100
0100
0001
0010
,  // measure 31
0100
0100
1000
0001
,  // measure 32
0010
0010
0101
1100
,  // measure 33
1001
0110
1001
1100
,  // measure 34
1000
0001
1000
0010
,  // measure 35
1001
0110
1001
1100
,  // measure 36
0101
0101
1010
0101
,  // measure 37
1001
0110
1001
0010
,  // measure 38
0001
0001
1000
0010
,  // measure 39
0100
0100
0001
1000
,  // measure 40
1010
1010
0101
0110
,  // measure 41
1001
0000
0000
0110
,  // measure 42
1001
0000
0000
0000
,  // measure 43
1010
0101
0101
0101
,  // measure 44
0000
0000
0000
0110
,  // measure 45
1001
0110
1100
0100
,  // measure 46
0101
0110
1001
1000
,  // measure 47
1001
0110
0011
0010
,  // measure 48
1010
0110
1001
0110
,  // measure 49
1001
1000
0100
0110
,  // measure 50
1001
0001
0100
0110
,  // measure 51
1001
1000
0010
0110
,  // measure 52
1001
0001
0010
0110
,  // measure 53
1001
0000
0000
0000
;

//---------------dance-single - ----------------
#NOTES:
     dance-single:
     :
     Medium:
     7:
     0.501599,0.579635,0.656191,0.000000,0.000000,305.000000,248.000000,57.000000,0.000000,0.000000,0.000000,0.501599,0.579635,0.656191,0.000000,0.000000,305.000000,248.000000,57.000000,0.000000,0.000000,0.000000:
// measure 0
0000
0000
0000
0000
,  // measure 1
0000
0000
0000
0000
,  // measure 2
0000
0000
0000
0000
,  // measure 3
0000
0000
0000
0000
,  // measure 4
1001
0110
1100
0011
,  // measure 5
1010
0101
0110
1001
,  // measure 6
0010
1000
0100
0000
0010
0001
0100
0000
,  // measure 7
1001
0000
0000
0000
,  // measure 8
0010
1000
0100
0000
0110
0000
1001
0000
,  // measure 9
0010
0001
0100
0000
0110
0000
1001
0000
,  // measure 10
0100
1000
0010
0000
0110
0000
1001
0000
,  // measure 11
0100
0001
0010
0000
0110
0000
1001
0000
,  // measure 12
0010
0100
0001
0000
1000
0100
0010
0001
,  // measure 13
0100
0010
1000
0000
0001
0010
0100
1000
,  // measure 14
0010
0100
0001
0000
1000
0100
0010
0001
,  // measure 15
0100
0010
1000
0000
0110
0000
1001
0000
,  // measure 16
1100
0101
1100
0101
,  // measure 17
1000
0001
0100
0000
0001
1000
0010
0000
,  // measure 18
0010
1000
0100
0000
0010
0001
0100
0000
,  // measure 19
0010
1000
0010
1000
0010
1000
0010
0000
,  // measure 20
1001
0110
1001
1100
,  // measure 21
0101
0100
0110
1001
,  // measure 22
0010
1000
0100
0010
0001
0100
0010
1000
,  // measure 23
0100
0010
0001
0100
0010
0110
1001
0000
,  // measure 24
1001
0000
0000
0000
,  // measure 25
0110
0000
1001
0000
0010
1000
0100
0000
,  // measure 26
0010
0010
0001
0000
0100
0100
0010
0000
,  // measure 27
1000
0010
0100
0000
0001
0010
0100
0000
,  // measure 28
1000
0001
1000
0000
0100
0100
0100
0000
,  // measure 29
0010
0010
0010
0000
0001
0001
0001
0000
,  // measure 30
1000
0010
0100
0010
1000
0001
0100
0000
,  // measure 31
0001
0010
0100
0000
1000
0010
0100
0000
,  // measure 32
0001
0010
0100
1000
0010
0100
0001
0000
,  // measure 33
1001
0000
1000
0000
0110
0000
0000
0010
,  // measure 34
0000
1000
0001
0100
0000
0000
0000
0010
,  // measure 35
0000
1000
0100
0010
0001
0100
0000
0100
,  // measure 36
0000
0010
1000
0001
0010
0000
1001
0000
,  // measure 37
0000
0110
1001
0000
,  // measure 38
1000
0100
0001
0100
0000
0000
0000
0000
,  // measure 39
0001
0010
0100
1000
0001
0010
0100
1000
,  // measure 40
1001
0110
1001
0000
,  // measure 41
1001
1001
0000
0000
,  // measure 42
0000
0010
0000
0010
0000
0010
0000
0000
,  // measure 43
0000
0000
0000
0000
,  // measure 44
0001
1000
1001
0000
,  // measure 45
0010
1000
0100
0000
0110
0000
1001
0000
,  // measure 46
0010
0001
0100
0000
0110
0000
1001
0000
,  // measure 47
0100
1000
0010
0000
0110
0000
1001
0000
,  // measure 48
0100
0001
0010
0000
0110
0000
1001
0000
,  // measure 49
0010
0100
0001
0000
1000
0100
0010
0001
,  // measure 50
0100
0010
1000
0000
0001
0010
0100
1000
,  // measure 51
0010
0100
0001
0000
1000
0100
0010
0001
,  // measure 52
0100
0010
1000
0000
0110
0000
1001
0000
,  // measure 53
1001
0000
0000
0000
;

//---------------dance-single - ----------------
#NOTES:
     dance-single:
     :
     Hard:
     9:
     0.675926,0.762678,0.207218,0.000000,0.495021,411.000000,393.000000,18.000000,0.000000,0.000000,0.000000,0.675926,0.762678,0.207218,0.000000,0.495021,411.000000,393.000000,18.000000,0.000000,0.000000,0.000000:
// measure 0
0000
0000
0000
0000
,  // measure 1
0000
0000
0000
0000
,  // measure 2
0000
0000
0000
0000
,  // measure 3
0000
0000
0000
0000
,  // measure 4
0010
0000
0001
0000
0100
0000
0001
0010
0000
0100
1000
0000
0010
0000
1000
0000
,  // measure 5
0100
0000
1000
0000
0010
0000
1000
0100
0000
0010
0001
0000
0100
0000
0010
0000
,  // measure 6
1000
0000
0100
0000
0001
0000
0100
1000
0000
0010
1000
0000
0001
0000
0100
0000
,  // measure 7
1001
0000
0000
0000
,  // measure 8
1000
0000
0100
1000
0000
0100
1000
0100
1000
0100
1000
0100
1000
0000
0100
0000
,  // measure 9
0001
0000
0100
0001
0000
0100
0001
0100
0001
0100
0001
0100
0001
0000
0100
0000
,  // measure 10
1000
0000
0100
1000
0000
0100
1000
0100
1000
0100
1000
0100
1000
0000
0100
0000
,  // measure 11
0001
0000
0100
0001
0000
0100
0001
0100
0001
0000
0000
0000
1001
0000
0000
0000
,  // measure 12
1000
0000
0010
1000
0000
0010
1000
0010
1000
0010
1000
0010
1000
0000
0010
0000
,  // measure 13
0001
0000
0010
0001
0000
0010
0001
0010
0001
0010
0001
0010
0001
0000
0010
0000
,  // measure 14
1000
0000
0010
1000
0000
0010
1000
0010
1000
0010
1000
0010
1000
0000
0010
0000
,  // measure 15
0001
0000
0010
0001
0000
0010
0001
0010
0001
0000
0000
0000
1001
0000
0000
0000
,  // measure 16
1001
0000
0000
0010
0100
0000
0001
0010
,  // measure 17
0100
0000
0000
1000
0000
0000
0110
0000
,  // measure 18
0010
1000
0100
0001
0100
1000
0010
0100
,  // measure 19
0010
1000
0001
0100
1000
0100
0001
1000
,  // measure 20
0001
0000
1000
0010
0100
0000
0001
0010
,  // measure 21
0100
1000
0010
0100
0000
0000
0000
0000
,  // measure 22
0010
1000
0100
0001
0100
1000
0001
0100
,  // measure 23
1000
0100
0001
1000
0100
0010
0001
0000
,  // measure 24
1001
0000
0000
0000
,  // measure 25
0001
0000
0010
0000
0001
0000
0000
0000
1000
0100
1000
0000
0100
0000
0000
0000
,  // measure 26
1000
0000
0010
0000
0100
0000
0001
0000
1000
0001
1000
0000
0001
0000
0000
0000
,  // measure 27
1000
0000
0010
0000
1000
0000
0000
0000
0001
0100
0001
0000
0100
0000
0000
0000
,  // measure 28
0001
0000
0010
0000
0100
0000
1000
0000
0001
1000
0001
0000
1000
0000
0000
0000
,  // measure 29
1000
0000
0001
0000
1000
0000
0000
0000
0010
0100
0010
0000
0100
0000
0000
0000
,  // measure 30
0001
0000
0010
0000
0100
0000
1000
0000
0010
1000
0010
0000
1000
0000
0100
0000
,  // measure 31
0001
0000
1000
0000
0001
0000
0000
0000
0100
0010
0100
0000
0010
0000
0000
0000
,  // measure 32
1000
0000
0001
0000
0100
0000
0010
0000
1000
0001
0100
0000
0010
0000
0010
0000
,  // measure 33
1001
0100
0100
0000
1001
0010
0010
0000
,  // measure 34
0010
0001
0010
0100
0000
0000
1000
0010
,  // measure 35
0000
0100
0001
0010
0100
1000
0010
0100
,  // measure 36
0000
0100
0010
1000
0001
0000
1000
0100
,  // measure 37
0010
0000
1001
0001
0101
0000
1001
0000
,  // measure 38
0010
1000
0100
0010
0000
0000
0000
0000
,  // measure 39
0010
1000
0100
1000
0001
0010
0100
1000
,  // measure 40
1010
0000
0101
1001
1010
0000
0000
0000
,  // measure 41
0010
1000
0100
0001
0100
1000
0001
0100
,  // measure 42
1000
0100
0001
1000
0100
0010
0001
1000
,  // measure 43
0010
0100
0001
1000
0100
1000
0001
0100
,  // measure 44
1000
0100
0001
1000
0100
0010
0000
0000
,  // measure 45
1000
0000
0100
1000
0000
0100
1000
0100
1000
0100
1000
0100
1000
0000
0100
0000
,  // measure 46
0001
0000
0100
0001
0000
0100
0001
0100
0001
0100
0001
0100
0001
0000
0100
0000
,  // measure 47
1000
0000
0100
1000
0000
0100
1000
0100
1000
0100
1000
0100
1000
0000
0100
0000
,  // measure 48
0001
0000
0100
0001
0000
0100
0001
0100
0001
0000
0000
0000
1001
0000
0000
0000
,  // measure 49
1000
0000
0010
1000
0000
0010
1000
0010
1000
0010
1000
0010
1000
0000
0010
0000
,  // measure 50
0001
0000
0010
0001
0000
0010
0001
0010
0001
0010
0001
0010
0001
0000
0010
0000
,  // measure 51
1000
0000
0010
1000
0000
0010
1000
0010
1000
0010
1000
0010
1000
0000
0010
0000
,  // measure 52
0001
0000
0010
0001
0000
0010
0001
0010
0001
0000
0000
0000
1001
0000
0000
0000
,  // measure 53
1001
0000
0000
0000
;
