#TITLE:Dynamite Drop;
#SUBTITLE:;
#ARTIST:NAOKI vs Scotty D.;
#TITLETRANSLIT:;
#SUBTITLETRANSLIT:;
#ARTISTTRANSLIT:;
#GENRE:;
#CREDIT:;
#BANNER:Dynamite Drop bn2.png;
#BACKGROUND:dynamitedrop bg.png;
#LYRICSPATH:;
#CDTITLE:;
#MUSIC:Naoki VS Scotty D. - Dynamite Drop.mp3;
#OFFSET:-0.060000;
#SAMPLESTART:46.020000;
#SAMPLELENGTH:12.000000;
#SELECTABLE:YES;
#BPMS:0.000000=150.050003
;
#STOPS:
;
#BGCHANGES:;
#KEYSOUNDS:;
#ATTACKS:;

//---------------dance-single - ----------------
#NOTES:
     dance-single:
     :
     Easy:
     5:
     0.382612,0.458216,0.315622,0.261516,0.000000,297.000000,262.000000,35.000000,29.000000,0.000000,0.000000,0.382612,0.458216,0.315622,0.261516,0.000000,297.000000,262.000000,35.000000,29.000000,0.000000,0.000000:
// measure 0
0000
0000
0000
0000
,  // measure 1
0000
0000
0000
0000
,  // measure 2
0000
0000
0000
0000
,  // measure 3
0000
0000
0000
0000
,  // measure 4
1000
1000
0100
0001
,  // measure 5
1000
1000
0010
0001
,  // measure 6
1000
1000
0100
0001
,  // measure 7
0010
0010
0100
1000
,  // measure 8
1001
0001
1000
0100
,  // measure 9
0010
1000
0100
0010
,  // measure 10
1001
0010
0100
1000
,  // measure 11
1010
1010
0101
1010
,  // measure 12
2002
0000
0000
3003
,  // measure 13
1000
1000
0010
0010
,  // measure 14
0100
0001
1000
2000
,  // measure 15
3001
0010
1000
0001
,  // measure 16
0100
1000
0010
0002
,  // measure 17
0103
0100
0010
1000
,  // measure 18
0001
0010
1000
0100
,  // measure 19
0001
1000
0100
1000
,  // measure 20
0010
0100
0001
0110
,  // measure 21
2000
3010
0100
0010
,  // measure 22
2000
3100
0010
0001
,  // measure 23
2000
3100
0100
1000
,  // measure 24
0020
0130
0001
0001
,  // measure 25
2001
3010
0100
0001
,  // measure 26
0012
1003
0010
0100
,  // measure 27
2100
3010
0100
0010
,  // measure 28
1002
0103
2001
3010
,  // measure 29
1001
0100
1001
0010
,  // measure 30
0001
0010
0011
0100
,  // measure 31
1010
0100
0011
0010
,  // measure 32
0100
1000
0010
0001
,  // measure 33
1001
0110
1001
0100
,  // measure 34
1000
0000
1000
0010
0000
0100
0000
0100
,  // measure 35
0001
1000
0001
1000
0001
0100
0001
0100
,  // measure 36
0001
1001
2200
3300
,  // measure 37
1000
0000
0001
0000
0000
0100
0000
0100
,  // measure 38
0000
0000
1000
0000
0000
0010
0000
0010
,  // measure 39
0000
0000
1000
0000
0000
0100
0000
0100
,  // measure 40
0000
0000
0001
0000
0000
0010
0000
0010
,  // measure 41
0100
0000
0001
0000
0000
1000
0000
1000
,  // measure 42
0000
0000
0100
0000
0000
0010
0000
0010
,  // measure 43
0001
0000
1000
0000
0000
0100
0000
0100
,  // measure 44
0010
0001
0011
1100
,  // measure 45
1001
1000
0100
0200
,  // measure 46
1300
0010
0100
0002
,  // measure 47
1003
0200
0310
2000
,  // measure 48
3010
0001
0100
0010
,  // measure 49
1001
2000
3001
0100
,  // measure 50
0020
2030
3100
0010
,  // measure 51
0020
0031
2000
3100
,  // measure 52
0010
0000
0001
0000
1000
0001
1000
0001
,  // measure 53
2000
3100
0000
0100
,  // measure 54
0020
0031
0100
0010
,  // measure 55
1001
1100
1100
1000
,  // measure 56
0001
0001
0010
0000
0100
0000
1000
1000
,  // measure 57
1000
0010
0100
0001
,  // measure 58
0010
0000
1001
0000
0100
0000
0010
0010
,  // measure 59
0010
1001
1001
0100
,  // measure 60
1000
0000
0001
0010
0000
0000
0100
0000
,  // measure 61
1000
0100
1000
0100
0010
0001
0010
0001
,  // measure 62
1000
1001
0002
0013
,  // measure 63
0100
0000
0100
0000
,  // measure 64
0010
0100
1000
0001
,  // measure 65
1000
0000
0010
0000
1000
0001
1000
0001
,  // measure 66
1000
0001
1000
0001
1000
0001
1000
0001
,  // measure 67
0000
2002
0000
3003
;

//---------------dance-single - ----------------
#NOTES:
     dance-single:
     :
     Medium:
     7:
     0.510149,0.519312,0.279551,0.171338,0.000000,396.000000,365.000000,31.000000,19.000000,0.000000,0.000000,0.510149,0.519312,0.279551,0.171338,0.000000,396.000000,365.000000,31.000000,19.000000,0.000000,0.000000:
// measure 0
0000
0000
0000
0000
,  // measure 1
0000
0000
0000
0000
,  // measure 2
0000
0000
0000
0000
,  // measure 3
0000
0000
0000
0000
,  // measure 4
0020
0000
0130
0000
1000
0001
0010
0000
,  // measure 5
0001
0010
0100
0000
1000
0010
0100
0001
,  // measure 6
2000
0000
3001
0100
0010
0000
1000
0001
,  // measure 7
1001
1100
1001
0100
,  // measure 8
1000
0100
1000
0010
0020
0000
0130
0001
,  // measure 9
2000
0000
0000
3200
0000
0000
0310
0000
,  // measure 10
0001
1000
0010
0000
0100
0001
0010
0000
,  // measure 11
0100
1000
0010
0000
0100
0001
1000
0100
,  // measure 12
0020
0000
0000
0030
,  // measure 13
1000
0100
1000
0000
0001
0001
0001
0000
,  // measure 14
0010
0100
1000
0000
0001
0100
0100
0000
,  // measure 15
0010
1000
0001
0000
0100
0100
0001
0000
,  // measure 16
1000
0010
0100
0010
1000
0001
0010
0000
,  // measure 17
0001
1000
0100
0000
1000
0010
0100
0000
,  // measure 18
0001
1000
1000
0000
0010
0100
0010
0000
,  // measure 19
1000
1000
0010
0000
0100
0001
0001
0000
,  // measure 20
1000
1000
0100
0010
0010
0010
0100
0000
,  // measure 21
1001
0000
1100
0000
0001
1000
0100
0000
,  // measure 22
0010
0001
0010
0000
0100
1000
0010
0100
,  // measure 23
0001
1000
0001
0000
0010
0100
1000
0000
,  // measure 24
0110
0000
1010
0000
0100
0010
0001
0010
,  // measure 25
0100
0000
1001
0000
1000
1000
0010
0000
,  // measure 26
0100
0001
0010
0000
0100
1000
0001
1000
,  // measure 27
0100
0010
0001
0000
1000
0100
1000
0000
,  // measure 28
0001
0100
0001
0000
1001
0000
0110
0000
,  // measure 29
1001
0000
0100
0000
1100
0000
0000
0002
,  // measure 30
0000
0103
0010
1000
0000
0001
1000
0100
,  // measure 31
0010
0000
1000
0100
1000
0000
0001
0100
,  // measure 32
0010
0000
1000
0001
0010
0000
0110
0000
,  // measure 33
1001
0000
0010
0000
0011
0000
1000
0001
,  // measure 34
0001
0100
0010
1000
0000
0001
1000
0100
,  // measure 35
0010
0001
0010
0001
0100
1000
0100
0001
,  // measure 36
0010
0010
1001
0110
,  // measure 37
1001
1000
0000
0100
0000
0010
0001
1000
,  // measure 38
0000
0010
0000
0100
0000
0001
1000
0100
,  // measure 39
0000
0010
0000
0100
0000
1000
0010
0100
,  // measure 40
0000
0001
0010
0100
0000
0010
0000
0100
,  // measure 41
1000
0001
0000
1000
0000
0010
0100
0001
,  // measure 42
0000
0010
0000
0100
0000
0010
0001
1000
,  // measure 43
0010
0010
0100
0000
0010
0010
0100
0000
,  // measure 44
0001
1000
0001
1000
0001
1000
0001
1000
,  // measure 45
1001
0000
1100
0000
0001
0100
0010
0000
,  // measure 46
1000
0100
0010
0000
0001
0100
0010
0000
,  // measure 47
1001
0000
1001
0000
0010
0100
0001
0000
,  // measure 48
1000
0100
1000
0000
0001
0010
0001
0000
,  // measure 49
1000
1000
0010
0100
0010
1000
0100
0000
,  // measure 50
0010
0001
1000
0100
0010
0100
1000
0000
,  // measure 51
0001
1000
0100
0000
1000
0010
0100
0000
,  // measure 52
0001
1000
0001
0100
1000
0100
0001
0010
,  // measure 53
0002
1000
2003
0100
,  // measure 54
3200
0010
0320
0031
,  // measure 55
1001
0110
1100
0100
,  // measure 56
0010
0100
0001
0010
0100
1000
0001
2000
,  // measure 57
0001
0000
3010
0000
0002
0000
0103
0020
,  // measure 58
0000
0130
0001
1000
0020
0000
0130
0001
,  // measure 59
1000
0000
1001
0000
1001
0000
0010
0100
,  // measure 60
0020
0000
0130
2000
0000
3001
0010
0100
,  // measure 61
1000
0001
0100
0001
1000
0001
0010
0001
,  // measure 62
1001
0000
0110
0000
1000
0100
0001
0010
,  // measure 63
0100
0100
0010
0010
,  // measure 64
1001
0000
0010
0000
0010
0100
1000
0000
,  // measure 65
1000
0010
0100
0000
0100
0001
1000
0001
,  // measure 66
0100
0001
1000
0001
0100
0001
0010
0010
,  // measure 67
0000
2002
0000
3003
;

//---------------dance-single - ----------------
#NOTES:
     dance-single:
     :
     Hard:
     9:
     0.620939,0.610955,0.351694,0.135267,0.180356,482.000000,443.000000,39.000000,15.000000,0.000000,0.000000,0.620939,0.610955,0.351694,0.135267,0.180356,482.000000,443.000000,39.000000,15.000000,0.000000,0.000000:
// measure 0
0000
0000
0000
0000
,  // measure 1
0000
0000
0000
0000
,  // measure 2
0000
0000
0000
0000
,  // measure 3
0000
0000
0000
0000
,  // measure 4
0020
0000
1030
0000
0200
0000
0310
0001
,  // measure 5
1001
0000
0010
0000
0001
0010
0100
1000
,  // measure 6
1100
0000
0001
1000
0100
0000
0010
0001
,  // measure 7
1000
0000
0001
0000
0010
0000
0100
0000
1000
0100
1000
0000
0001
0100
0001
0000
,  // measure 8
0010
0000
1001
0000
0010
0100
1000
0010
,  // measure 9
0100
0001
1000
0000
0010
0100
0001
0000
,  // measure 10
1000
0000
0001
0000
1000
0000
0010
0100
0010
1000
0100
0000
1000
0000
0000
0000
,  // measure 11
0001
0000
1000
0000
0001
0000
0010
0100
0010
0001
0100
0000
0010
0000
0000
0000
,  // measure 12
2002
0000
0000
3003
,  // measure 13
1001
0000
0000
0000
1100
0000
0000
0000
0001
0010
0001
0000
1000
0000
0000
0000
,  // measure 14
1001
0000
0000
0000
0101
0000
0000
0000
1000
0010
1000
0000
0001
0000
0000
0000
,  // measure 15
1000
0100
0001
1000
0010
0001
0100
0000
,  // measure 16
0001
0100
1000
0001
0010
1000
0100
0000
,  // measure 17
1001
0000
0000
0000
1010
0000
0000
0000
0001
0100
0001
0000
1000
0000
0000
0000
,  // measure 18
1001
0000
0000
0000
0011
0000
0000
0000
1000
0100
1000
0000
0001
0000
0000
0000
,  // measure 19
1000
0010
0001
1000
0100
0001
0010
0000
,  // measure 20
0001
0010
1000
0001
0100
1000
0010
0000
,  // measure 21
1000
0000
0100
0000
1000
0000
0000
0000
0001
0100
0001
0000
1000
0000
0000
0000
,  // measure 22
0001
0000
0010
0000
0100
0000
0010
0000
0001
1000
0001
0000
1000
0000
0000
0000
,  // measure 23
1001
0000
0000
0000
0110
0000
0000
0000
0001
1000
0001
0000
0010
0000
0000
0000
,  // measure 24
1000
0000
0100
0000
0010
0000
0001
0000
0100
0010
1000
0000
0001
1000
0000
0000
,  // measure 25
1000
0010
0100
0010
1000
0001
0010
0000
,  // measure 26
0001
0010
0100
0010
0001
1000
0010
0000
,  // measure 27
0001
1000
0100
0000
0001
1000
0100
0000
,  // measure 28
0001
0000
1000
0100
1000
0010
0100
0001
0010
0000
0100
0000
1000
0000
0001
0000
,  // measure 29
1001
0100
0100
0000
1001
0010
0100
2000
,  // measure 30
0000
0000
3001
0000
0100
0000
0010
1000
0001
0000
1000
0000
0001
0000
0002
0000
,  // measure 31
1000
1003
0010
0100
0010
1000
1000
0002
,  // measure 32
0000
0013
0100
1000
0001
0010
0100
1000
,  // measure 33
1001
0000
1000
0000
1100
0000
0000
0000
0011
0000
0000
0000
1000
0001
1000
0000
,  // measure 34
0010
0100
0001
0020
0100
0130
1000
0010
,  // measure 35
1000
0100
0010
0100
0010
0001
0100
0010
,  // measure 36
1001
0000
1010
0000
1001
0100
1000
0001
,  // measure 37
0010
0000
1001
0000
0000
0001
0010
0100
,  // measure 38
1000
0000
0010
0000
0100
0000
0000
0000
0000
0000
0001
0000
1000
0100
1000
0000
,  // measure 39
0010
0000
0100
0000
0001
0000
0000
0000
0000
0000
1000
0100
0010
0000
0001
0000
,  // measure 40
1000
1000
0010
0000
0000
0100
0001
1000
,  // measure 41
0100
0010
0100
0000
1000
0000
0000
0000
0000
0000
1000
0010
0100
0000
0001
0100
,  // measure 42
0001
1000
0100
0000
0000
1000
0001
0010
,  // measure 43
0001
0000
0100
0000
0010
0000
0000
0000
0000
0000
1000
0010
1000
0000
0001
0000
,  // measure 44
1001
0110
1001
0110
,  // measure 45
0001
0000
1000
0100
1000
0000
0001
0000
0010
0000
0001
0000
1000
0000
0000
0000
,  // measure 46
0010
0000
0100
0001
0100
0000
0010
0000
1000
0000
0001
0000
0010
0000
0000
0000
,  // measure 47
0001
0000
1000
0100
1000
0000
0001
0000
0010
0000
0001
0000
1000
0000
0000
0000
,  // measure 48
0100
0000
0010
0001
0010
0000
0100
0000
1000
0001
0100
0000
0010
1000
0000
0000
,  // measure 49
0001
0000
0010
0000
0100
0000
1000
0000
0001
1000
0100
0000
1000
0000
0000
0000
,  // measure 50
0010
0000
0100
0000
0001
0000
0010
0100
1000
0000
0010
0000
0100
0000
0000
0000
,  // measure 51
0001
0100
0001
0000
0100
0000
0010
0000
1000
0001
0100
0000
0010
0000
0000
0000
,  // measure 52
1000
0100
1000
0000
0001
0000
1000
0000
0001
0010
0001
0000
1000
0000
0001
0000
,  // measure 53
2000
0100
0100
3010
,  // measure 54
0002
0000
1000
0000
1003
0001
0100
0010
,  // measure 55
1001
0000
1100
0000
1000
0100
0010
0001
,  // measure 56
0010
0100
0010
0000
1000
0000
0002
0000
1000
0000
1003
0000
0100
0000
0010
0000
,  // measure 57
1001
0000
0000
0000
1000
0000
0010
0000
0100
0000
0001
1000
0100
0000
0020
0000
,  // measure 58
0000
0130
1000
0100
0010
0001
0100
0010
,  // measure 59
1001
0000
2000
0001
3001
0000
0110
0000
,  // measure 60
1000
0100
0010
0001
0010
0100
1000
0001
,  // measure 61
1001
0100
1000
0001
0100
0010
0100
0001
,  // measure 62
0011
0000
0110
0000
1001
1000
0001
0010
,  // measure 63
1001
0100
1000
0100
,  // measure 64
0010
0001
0010
0000
0100
1000
0100
0000
,  // measure 65
0010
0001
0100
0000
0010
1000
0100
0010
,  // measure 66
1000
0001
0010
1000
0001
0010
0100
1100
,  // measure 67
0000
2002
0000
3003
;
