#TITLE:Dive;
#SUBTITLE:(Into Your Heart);
#ARTIST:NAOKI feat.Paula Terry;
#TITLETRANSLIT:;
#SUBTITLETRANSLIT:;
#ARTISTTRANSLIT:;
#GENRE:;
#CREDIT:;
#BANNER:diveinheart bn2.png;
#BACKGROUND:diveinheart bg.png;
#LYRICSPATH:;
#CDTITLE:;
#MUSIC:Dive Into Your Heart.mp3;
#OFFSET:0.765000;
#SAMPLESTART:51.449997;
#SAMPLELENGTH:12.000000;
#SELECTABLE:YES;
#BPMS:0.000000=155.000000
;
#STOPS:67.000000=1.155000
;
#BGCHANGES:0.000=Diveinheart.avi=1.000=1=0=0=StretchNoLoop==CrossFade==,
99999=-nosongbg-=1.000=0=0=0 // don't automatically add -songbackground-
;
#KEYSOUNDS:;
#ATTACKS:;

//---------------dance-single - ----------------
#NOTES:
     dance-single:
     :
     Easy:
     4:
     0.366028,0.462984,0.274810,0.040413,0.004041,317.000000,283.000000,34.000000,5.000000,0.000000,0.000000,0.366028,0.462984,0.274810,0.040413,0.004041,317.000000,283.000000,34.000000,5.000000,0.000000,0.000000:
0000
0000
0000
0000
,
0000
0000
0000
0000
,
0000
0000
0000
0000
,
0000
0000
0000
0000
,
0000
0000
0000
0100
,
0010
0001
0010
0100
,
0100
0010
0100
0010
,
0100
1000
0100
0010
,
0010
0100
0010
1001
,
1000
0100
1000
0101
,
0010
0100
1000
0011
,
0001
1000
0100
0010
,
0010
0000
0100
0000
1000
0001
0100
0000
,
0010
0100
0100
0001
,
0010
0001
1000
0100
,
0010
0100
0100
1000
,
0010
0000
0000
0000
0100
0000
0000
0000
0001
0000
0000
1000
0000
0000
0000
0000
,
0100
0100
1000
1000
,
0010
0100
0010
1000
,
0100
0010
0010
0100
,
1000
0001
0010
0001
,
1000
0001
0010
0100
,
0100
1000
0010
0100
,
0001
0010
0010
0100
,
1000
0000
0001
0000
0010
0000
0100
1000
,
0002
0000
1003
0010
,
0200
0000
0301
1000
,
2000
0000
3002
0000
,
0203
0000
0000
0000
0310
0000
1000
0001
,
0100
1001
0100
0001
,
0110
1000
0010
0100
,
1001
0000
0000
1000
0001
0000
0000
0010
,
0000
0010
0000
0010
0000
0010
0000
0000
,
1001
0100
0010
0001
,
1000
1000
0100
0001
,
0100
0010
0001
0100
,
0010
1010
0100
0101
,
1001
0001
0010
0100
,
0010
0001
0100
1000
,
0100
0010
1000
0100
,
0010
0000
0001
1000
0000
0000
0010
0000
,
1001
0100
0100
0100
,
0010
0010
0001
0001
,
1000
1000
1000
0010
,
0100
0100
0001
0001
,
1000
0010
0100
0010
,
1000
0010
0100
1001
,
0100
0001
0010
1001
,
0010
1100
0001
0110
,
1001
0010
0100
0010
,
0001
0001
1000
0010
,
0100
0100
0001
0010
,
0100
0100
0010
0010
,
1001
0100
0010
0010
,
0100
1000
0001
0001
,
0100
0010
1000
1000
,
0100
0001
0010
0010
,
1001
0100
0010
0000
,
0100
0000
0000
0000
0000
1000
0000
0000
,
1001
0100
0010
0100
,
1100
0010
0101
0010
,
1000
0100
0001
0010
,
0001
0100
1000
0100
,
1001
0100
0011
0100
,
1001
0100
1001
1001
,
1010
0101
0010
0100
,
1000
0010
0001
0100
,
1001
0010
0100
0001
,
0110
0000
1000
0000
0110
0000
0001
0010
,
0100
1000
0010
1000
,
0100
0001
0010
1000
,
0001
1000
0001
0010
,
0100
0000
1000
0001
0000
0000
0010
0000
,
1001
0100
1000
0010
,
0100
0100
0010
0110
,
1001
0000
1000
0001
0000
0010
0000
0000
,
0001
0000
1000
0001
0000
0000
0000
0000
;

//---------------dance-single - ----------------
#NOTES:
     dance-single:
     :
     Medium:
     6:
     0.426070,0.432118,0.299058,0.000000,0.008083,369.000000,332.000000,37.000000,0.000000,0.000000,0.000000,0.426070,0.432118,0.299058,0.000000,0.008083,369.000000,332.000000,37.000000,0.000000,0.000000,0.000000:
0000
0000
0000
0000
,
0000
0000
0000
0000
,
0000
0000
0000
0000
,
0000
0000
0000
0000
,
0000
0000
0000
0010
,
1000
0000
0001
0100
0001
0000
1000
0000
,
0100
0000
0010
0001
0010
0000
0001
0000
,
0010
0000
0100
1000
0000
0010
0000
0010
,
0000
0100
0000
0001
0010
0000
1001
0000
,
0001
0010
0000
0000
0100
0000
1001
0000
,
1000
0100
0000
0000
0010
0000
1001
0000
,
0100
0000
0010
0001
0000
0100
0000
0100
,
0000
0010
0000
1000
0100
0000
1001
0000
,
0001
0010
0000
0000
0100
0000
1001
0000
,
1000
0100
0000
0000
0010
0000
1001
0000
,
0001
0000
0010
0000
0100
0000
1000
0010
,
1000
0000
0000
0000
0100
0000
0010
0000
0001
0000
0000
1000
0000
0000
0000
0000
,
1000
0001
0100
0000
0010
0000
1000
0000
,
0001
0000
0010
0100
0000
0000
1000
1000
,
0010
0000
0100
0000
0001
0000
0010
0100
,
0000
0100
0000
1000
0000
0100
1000
0000
,
1001
0000
0001
0010
0000
0000
0100
0000
,
1000
0010
0000
1000
0000
0001
1000
0000
,
0010
0000
1001
0000
0100
0000
0001
1000
,
0010
0100
0010
0010
,
1001
0000
0000
1000
0000
1000
0100
0000
,
0001
0010
0100
0010
,
0001
0000
0000
0000
1000
0000
0000
0000
0001
0000
0000
0010
0000
0000
0100
0000
,
1000
0000
0001
1000
0000
0000
0100
0000
,
1010
0000
0000
0100
0000
0010
0001
0000
,
0011
0000
0000
0100
0000
1000
0010
0000
,
1001
0100
1001
1001
,
0000
1000
0010
1000
0000
1001
0000
0000
,
0001
1000
0001
0000
1000
0000
0100
0010
,
0000
0001
0000
0100
0000
0010
1000
0000
,
0001
0000
0010
0000
0100
0000
0010
0001
,
0000
1000
0100
1000
0000
0001
0010
0000
,
1001
0000
0001
0010
0100
0000
1000
0100
,
0000
0100
0000
0010
0000
0100
1000
0100
,
0000
1000
0010
1000
,
0001
0001
0010
0001
0000
1000
0010
0000
,
1001
0100
0010
0010
,
0100
0000
1000
0000
0010
0000
0100
0001
,
1000
0100
0010
0001
,
1000
0000
0100
0000
0001
0000
0100
1000
,
0010
0000
1000
0000
0001
0010
0100
0000
,
1000
0000
1001
0000
1000
0010
0100
0000
,
0010
1001
0100
1001
,
0010
0101
0010
1100
,
1001
0100
0010
0001
,
1000
0001
0010
0100
,
1001
0100
0010
0100
,
0001
0010
1001
0100
,
1001
0000
0001
0000
0010
0000
0001
0010
,
0001
1000
0100
0010
,
0001
0100
0010
0000
1000
0100
0010
0000
,
0100
1000
0001
0000
0100
0010
1000
0000
,
1001
0100
0000
0100
,
0000
0000
0100
0000
0000
1100
0000
0000
,
1001
0000
0001
0010
0100
0000
1000
0010
,
0000
0100
0000
1001
0000
0001
0010
0000
,
1001
0000
1000
0100
0010
0000
0001
0010
,
0000
0100
0000
1000
0000
0010
0100
0000
,
1001
0100
0000
0010
,
0001
1000
0001
1000
0001
1000
0001
1000
,
0001
0000
0010
0100
1000
0000
0100
0010
,
0000
0001
0000
0100
0000
0010
1000
0100
,
0010
0000
0001
0000
0100
0000
0100
0010
,
0000
1000
0000
0001
0000
0010
0000
0100
,
1000
0000
0010
0000
1001
0000
0010
0001
,
0000
0100
0000
0010
0000
1000
0010
0100
,
0001
0000
1001
0000
0000
0001
0010
0000
,
0100
1000
0010
1000
0000
0001
0001
0000
,
1001
0010
0100
1000
,
0110
0000
0001
0000
0110
0000
1000
0100
,
1000
0000
0010
0100
0000
0001
0000
1000
,
0001
0001
0100
0100
0000
0000
0000
0000
;

//---------------dance-single - ----------------
#NOTES:
     dance-single:
     :
     Hard:
     8:
     0.557702,0.555580,0.299058,0.024248,0.028289,483.000000,446.000000,37.000000,3.000000,0.000000,0.000000,0.557702,0.555580,0.299058,0.024248,0.028289,483.000000,446.000000,37.000000,3.000000,0.000000,0.000000:
// measure 0
0000
0000
0000
0000
,  // measure 1
0000
0000
0000
0000
,  // measure 2
0000
0000
0000
0000
,  // measure 3
0000
0000
0000
0000
,  // measure 4
0000
0000
0000
1001
,  // measure 5
0110
0000
1000
0100
1000
0000
1010
0000
,  // measure 6
0101
0000
0001
0010
0100
0000
1000
0010
,  // measure 7
0100
0000
0001
0010
0100
0000
1000
0100
,  // measure 8
1000
0100
0000
1000
0100
0010
0001
0000
,  // measure 9
1000
0010
0000
0100
0001
0010
0100
0000
,  // measure 10
0010
0001
0000
0100
0010
1000
0100
0000
,  // measure 11
1000
0100
0010
0100
0000
1000
0000
0010
,  // measure 12
0000
0100
0000
0001
0010
0100
0110
0000
,  // measure 13
0100
0001
0000
1000
0100
1000
1001
0000
,  // measure 14
0001
0010
0000
0100
0010
0011
0000
1100
,  // measure 15
0000
1001
0000
1000
0100
0010
0001
0100
,  // measure 16
0001
0000
0010
0000
0100
0000
1000
0000
0010
0100
0010
0100
0000
0000
0000
0000
,  // measure 17
0010
0000
0001
0010
0001
0000
1000
0100
,  // measure 18
1000
0001
0100
0010
0000
1000
0100
0010
,  // measure 19
0001
0100
1000
0100
0001
0010
0001
1000
,  // measure 20
0010
0100
0010
1000
0100
0010
0001
0010
,  // measure 21
1001
0000
0001
0010
0100
0000
1000
0100
,  // measure 22
1000
0010
0000
1000
0100
0010
0100
1000
,  // measure 23
0001
0100
0010
0000
1001
0000
0010
1100
,  // measure 24
0000
0000
0011
0000
0000
0000
0010
0000
0001
1000
0000
0001
1000
0000
0001
0000
,  // measure 25
1000
0000
1000
0001
0000
1000
0100
0010
,  // measure 26
0001
0000
1000
0010
0100
0000
1001
0000
,  // measure 27
1100
0000
0000
0000
1000
0000
0100
0000
1000
0000
0000
0010
0000
0000
0100
0000
,  // measure 28
0000
0002
0000
0013
0000
0100
1000
0010
,  // measure 29
0110
0000
0100
0002
0000
0103
0010
0100
,  // measure 30
0101
0000
0001
2000
0000
3100
0010
0100
,  // measure 31
1100
0000
1000
0010
1010
0000
0100
0101
,  // measure 32
0000
1100
0001
0100
0000
1001
0000
0000
,  // measure 33
1000
0100
0010
0000
0001
0100
0001
0010
,  // measure 34
0000
0001
0000
0100
0010
1000
0001
1000
,  // measure 35
0010
0100
0001
0000
0110
0000
1000
0100
,  // measure 36
0000
0010
0000
0101
0000
1000
0010
0100
,  // measure 37
0001
1000
0100
0000
0010
0001
0100
0001
,  // measure 38
0000
0010
0100
1000
0000
1000
0010
0100
,  // measure 39
0010
0000
1000
0100
0010
0100
1000
0010
,  // measure 40
0100
0010
1000
1010
0000
0101
0001
0000
,  // measure 41
1000
0100
0010
0000
0001
0100
0010
0000
,  // measure 42
1000
0100
0010
0100
1000
0010
0100
0000
,  // measure 43
0001
0010
0100
0000
1000
0010
0100
0000
,  // measure 44
0001
0000
0010
0000
0100
0000
0010
0000
0001
0000
1000
0000
0100
0010
0000
0100
,  // measure 45
1000
0100
1000
0000
0001
0010
0001
0000
,  // measure 46
1000
0100
1000
0001
0010
0001
1000
0000
,  // measure 47
0010
0100
0101
0000
0010
0100
1100
0000
,  // measure 48
1000
0001
0100
0010
0100
0001
1001
0000
,  // measure 49
1000
0100
1000
0100
0000
0010
0001
0100
,  // measure 50
0010
1000
0010
1000
0000
0001
0010
0100
,  // measure 51
1000
0000
0010
0100
0001
0000
0010
0000
,  // measure 52
1001
1000
0010
0100
0000
0001
0010
0000
,  // measure 53
1001
0000
1000
0100
1000
0010
0100
0000
,  // measure 54
0001
0000
0010
0100
0000
1000
0001
0000
,  // measure 55
1000
0010
0100
0010
1000
0100
0010
0100
,  // measure 56
1000
0001
0010
0100
0010
0001
0100
0010
,  // measure 57
1000
0000
0010
0000
1000
1000
0100
0010
,  // measure 58
0000
0001
0000
0100
0000
1001
0000
0000
,  // measure 59
1000
0100
0010
0000
0100
1000
0010
0000
,  // measure 60
0100
0001
0010
0000
0001
0010
0100
0000
,  // measure 61
1000
0010
0100
0010
1000
0001
0010
0100
,  // measure 62
0000
1000
0000
0001
0010
0001
1000
0100
,  // measure 63
0000
0000
0010
0001
0010
0000
0100
1000
,  // measure 64
0010
0100
0001
0010
0100
0010
0100
1000
,  // measure 65
0001
0000
0010
0100
0010
0001
1000
0010
,  // measure 66
0000
0100
0000
0001
0000
0010
0100
1000
,  // measure 67
0001
0000
0010
0000
0100
1000
0010
0100
,  // measure 68
0000
0100
0010
0100
0000
0001
1000
0100
,  // measure 69
0010
0000
1001
0000
1000
0100
0010
0100
,  // measure 70
0000
1000
0000
0010
0000
0100
0010
0100
,  // measure 71
0000
0001
1000
0100
1000
0010
1000
0100
,  // measure 72
0010
0001
0010
1100
0000
0010
0001
0000
,  // measure 73
1001
0000
1000
0000
0001
0010
0100
0000
,  // measure 74
1000
0100
0010
0000
0001
0010
0010
0100
,  // measure 75
1000
1000
0010
0100
0000
0001
0000
1000
,  // measure 76
0001
0001
0101
1100
0000
0000
0000
0000
;
