#VERSION:0.83;
#TITLE:Depend On You;
#SUBTITLE:(Svenson & Gielen Club Mix);
#ARTIST:浜崎あゆみ;
#TITLETRANSLIT:;
#SUBTITLETRANSLIT:;
#ARTISTTRANSLIT:Ayumi Hamasaki;
#GENRE:;
#ORIGIN:;
#CREDIT:;
#BANNER:Depend On You sgcm bn.png;
#BACKGROUND:Depend On You sgcm bg.png;
#PREVIEWVID:;
#JACKET:;
#CDIMAGE:;
#DISCIMAGE:;
#LYRICSPATH:;
#CDTITLE:;
#MUSIC:Depend On You (Svenson & Gielen Club Mix).mp3;
#OFFSET:-0.065000;
#SAMPLESTART:69.719994;
#SAMPLELENGTH:12.000000;
#SELECTABLE:YES;
#BPMS:0.000=139.960;
#STOPS:;
#DELAYS:;
#WARPS:;
#TIMESIGNATURES:0.000=4=4;
#TICKCOUNTS:0.000=4;
#COMBOS:0.000=1;
#SPEEDS:0.000=1.000=0.000=0;
#SCROLLS:0.000=1.000;
#FAKES:;
#LABELS:0.000=Song Start;
#BGCHANGES:;
#KEYSOUNDS:;
#ATTACKS:
;

//---------------dance-single - ----------------
#NOTEDATA:;
#CHARTNAME:;
#STEPSTYPE:dance-single;
#DESCRIPTION:;
#CHARTSTYLE:;
#DIFFICULTY:Easy;
#METER:3;
#RADARVALUES:0.273460,0.339475,0.299097,0.667983,0.000000,192.000000,162.000000,30.000000,67.000000,0.000000,0.000000,0.000000,0.000000,0.000000,0.273460,0.339475,0.299097,0.667983,0.000000,192.000000,162.000000,30.000000,67.000000,0.000000,0.000000,0.000000,0.000000,0.000000;
#CREDIT:;
#NOTES:
// measure 0
0000
0000
0000
0000
,  // measure 1
0000
0000
0000
0000
,  // measure 2
0000
0000
0000
0000
,  // measure 3
0000
0000
0000
0000
,  // measure 4
2000
3000
0020
0030
,  // measure 5
2000
3000
0002
0003
,  // measure 6
0200
0300
0020
0030
,  // measure 7
2000
3000
0002
0003
,  // measure 8
1001
0100
0010
0010
,  // measure 9
0001
0100
1000
1000
,  // measure 10
0100
0001
0010
0010
,  // measure 11
0200
1300
0002
0013
,  // measure 12
1001
0100
1000
0001
,  // measure 13
0100
0010
1000
1000
,  // measure 14
0001
0100
0010
1000
,  // measure 15
0002
1003
2000
3001
,  // measure 16
1001
0010
0100
1000
,  // measure 17
0001
0100
0100
0001
,  // measure 18
0010
0100
1000
0001
,  // measure 19
2002
0000
3003
0000
,  // measure 20
1001
0010
0100
0001
,  // measure 21
0010
0100
0100
1000
,  // measure 22
0001
0010
0100
0010
,  // measure 23
2002
0000
3003
0000
,  // measure 24
1001
0010
0100
1000
,  // measure 25
0001
0010
1001
0100
,  // measure 26
0010
0001
1000
0100
,  // measure 27
2002
0000
3003
0100
,  // measure 28
1001
0010
1001
0100
,  // measure 29
2002
3003
0010
0100
,  // measure 30
2001
3001
0010
0010
,  // measure 31
2002
3003
0100
0100
,  // measure 32
0020
0030
2000
3000
,  // measure 33
0002
0003
1000
0010
,  // measure 34
0200
0300
0001
1000
,  // measure 35
0220
0330
0001
1000
,  // measure 36
0020
0130
0001
0000
,  // measure 37
0002
0013
0100
0000
,  // measure 38
2000
3010
0200
0301
,  // measure 39
0020
0000
0230
0000
,  // measure 40
1300
0010
1001
0000
,  // measure 41
2002
3003
0220
0330
,  // measure 42
1000
0010
0100
0100
,  // measure 43
2002
3003
0022
0033
,  // measure 44
0001
0220
0000
0330
,  // measure 45
1000
0010
2002
3003
,  // measure 46
0001
0010
2002
3003
,  // measure 47
2000
0000
3002
0103
,  // measure 48
2002
0000
3003
0010
,  // measure 49
2002
3003
0220
0330
,  // measure 50
1000
0010
0100
0001
,  // measure 51
0220
0330
2200
3300
,  // measure 52
1000
0020
0000
0030
,  // measure 53
0100
0001
2002
3003
,  // measure 54
0001
0010
2002
3003
,  // measure 55
1000
0000
0100
0000
0001
0000
0010
0200
,  // measure 56
0000
0000
0000
0300
;

//---------------dance-single - ----------------
#NOTEDATA:;
#CHARTNAME:;
#STEPSTYPE:dance-single;
#DESCRIPTION:;
#CHARTSTYLE:;
#DIFFICULTY:Medium;
#METER:5;
#RADARVALUES:0.367462,0.452633,0.219338,0.658013,0.019940,258.000000,236.000000,22.000000,66.000000,0.000000,0.000000,0.000000,0.000000,0.000000,0.367462,0.452633,0.219338,0.658013,0.019940,258.000000,236.000000,22.000000,66.000000,0.000000,0.000000,0.000000,0.000000,0.000000;
#CREDIT:;
#NOTES:
// measure 0
0000
0000
0000
0000
,  // measure 1
0000
0000
0000
0000
,  // measure 2
0000
0000
0000
0000
,  // measure 3
0000
0000
0000
0000
,  // measure 4
2000
0000
3000
0001
0020
0000
0030
0100
,  // measure 5
2000
0000
3000
0001
0020
0000
0030
0100
,  // measure 6
2000
0000
3000
0001
2000
0000
3000
0100
,  // measure 7
0020
0000
0030
0001
2000
0000
3100
0000
,  // measure 8
1000
0000
0001
0010
0100
0000
1001
0000
,  // measure 9
0001
0000
1000
0100
0010
0000
1001
0000
,  // measure 10
1000
0000
0001
0010
0001
0000
0110
0000
,  // measure 11
0001
0000
1000
0010
1000
0000
0110
0000
,  // measure 12
1001
0000
0010
0100
0001
0000
0110
0000
,  // measure 13
1001
0000
0100
0001
1000
0000
0110
0000
,  // measure 14
1001
0000
0100
0010
1000
0000
0110
0000
,  // measure 15
0001
0000
0000
0001
0000
0000
0001
0000
1000
0000
0000
1000
0000
0000
1000
0000
,  // measure 16
0020
0000
0130
0000
0002
0000
1003
0100
,  // measure 17
1000
0000
0001
0200
0000
0300
0010
0000
,  // measure 18
1000
0000
0001
0200
0000
2300
0000
3020
,  // measure 19
0000
0030
0001
0000
1000
0000
0010
0100
,  // measure 20
0020
0000
1030
0000
0002
0000
0103
0010
,  // measure 21
1000
0000
0001
0200
0000
0300
0001
0000
,  // measure 22
0010
0000
0001
2000
0000
3020
0000
0032
,  // measure 23
0000
0003
0100
0000
1000
0000
0001
0100
,  // measure 24
0002
0000
0013
0200
0000
2300
0000
3001
,  // measure 25
0020
0000
0031
0200
0000
0300
1000
0100
,  // measure 26
0001
0000
1000
0002
0000
0023
0000
0230
,  // measure 27
0000
0300
1000
0000
0001
0010
0100
0010
,  // measure 28
0002
0000
1003
0200
0000
1300
0001
0020
,  // measure 29
0000
0030
0100
1000
0001
1000
0010
0200
,  // measure 30
0000
0300
0010
0000
1000
0000
0001
0000
,  // measure 31
1001
0000
0000
0100
0010
0000
1001
0000
,  // measure 32
2000
0000
3001
0000
2000
0000
3010
0100
,  // measure 33
0002
1003
0002
0023
,  // measure 34
0230
0000
1000
0000
1300
0001
0000
0020
,  // measure 35
0000
0000
0030
0000
0100
0000
0000
0000
0100
0000
0000
0010
0000
0000
1000
0000
,  // measure 36
0002
0000
0103
2000
0000
3000
0000
0100
,  // measure 37
0001
0000
0000
0010
0000
0000
2000
0000
0000
0000
3000
0000
0000
0000
0100
0000
,  // measure 38
0010
1002
0103
2001
,  // measure 39
3020
0000
0130
0001
2000
0000
3001
0000
,  // measure 40
0100
0010
1000
0001
1000
0000
0010
0000
,  // measure 41
1001
0000
0000
1000
0100
0000
0001
0000
,  // measure 42
0020
1030
0001
0010
,  // measure 43
1001
0000
0000
0001
0020
0000
0031
2000
,  // measure 44
0000
3010
0020
0000
0130
0000
0000
0100
,  // measure 45
0001
0010
1001
0100
,  // measure 46
0100
0000
0010
1000
0002
0000
0003
0000
,  // measure 47
2000
0000
3100
0000
2000
0000
3001
0020
,  // measure 48
0200
0000
0000
0330
0000
1000
0001
0000
,  // measure 49
0110
0000
0000
1000
0002
0000
0003
2000
,  // measure 50
0000
3000
0010
0000
0100
0000
0001
0100
,  // measure 51
1000
0000
0100
0000
0002
0000
0103
0020
,  // measure 52
0000
1030
0002
0000
0000
0003
0000
0100
,  // measure 53
0010
2001
3100
1002
,  // measure 54
0013
2001
3100
1002
,  // measure 55
0013
0100
1000
0000
0002
0000
0103
0200
,  // measure 56
0000
0000
0000
0300
;

//---------------dance-single - ----------------
#NOTEDATA:;
#CHARTNAME:;
#STEPSTYPE:dance-single;
#DESCRIPTION:;
#CHARTSTYLE:;
#DIFFICULTY:Hard;
#METER:7;
#RADARVALUES:0.472858,0.480923,0.119639,0.498495,0.209368,332.000000,320.000000,12.000000,50.000000,0.000000,0.000000,0.000000,0.000000,0.000000,0.472858,0.480923,0.119639,0.498495,0.209368,332.000000,320.000000,12.000000,50.000000,0.000000,0.000000,0.000000,0.000000,0.000000;
#CREDIT:;
#NOTES:
// measure 0
0000
0000
0000
0000
,  // measure 1
0000
0000
0000
0000
,  // measure 2
0000
0000
0000
0000
,  // measure 3
0000
0000
0000
0000
,  // measure 4
1001
0000
0000
0100
0000
0000
0010
0000
0001
0000
0000
0001
0000
0000
1000
0000
,  // measure 5
0010
0000
0000
0100
0000
0000
0010
0000
1000
0000
0000
0001
0000
0000
0100
0000
,  // measure 6
0001
0000
0000
1000
0000
0000
0100
0000
0010
0000
0000
0001
0000
0000
1000
0000
,  // measure 7
0010
0000
0000
0010
0000
0000
0010
0000
0100
0000
0000
0001
0000
0000
1000
0000
,  // measure 8
0001
0100
0000
0001
0000
0000
1000
0000
0010
1000
0000
0010
0000
0000
0100
0000
,  // measure 9
0001
1000
0000
0001
0000
0000
0100
0000
0010
0100
0000
0010
0000
0000
1000
0000
,  // measure 10
0001
1000
0000
0100
0000
0000
1000
0000
0001
0100
0000
0001
0000
0000
1000
0000
,  // measure 11
0010
1000
0000
0001
0000
0000
1000
0000
0001
1000
0000
0100
0000
0000
0010
0000
,  // measure 12
0001
0010
0000
0100
0000
0000
0010
0000
0001
1000
0000
0100
0000
0000
0100
0000
,  // measure 13
1000
0001
0000
0100
0000
0000
0010
0000
1000
0001
0000
0100
0000
0000
0100
0000
,  // measure 14
0010
1000
0000
0100
0000
0000
0010
0000
0001
1000
0000
0100
0000
0000
0010
0000
,  // measure 15
0001
0000
0000
0001
0000
0000
0001
0000
1000
0000
0000
1000
0000
0000
0100
0000
,  // measure 16
0020
0000
0031
0100
0010
0200
0000
0301
,  // measure 17
2000
0000
3001
0100
1000
0000
0100
0001
,  // measure 18
0010
0100
1000
0002
0000
2003
0000
3200
,  // measure 19
0310
0000
1001
0000
0100
0000
0001
0100
,  // measure 20
0020
0000
1030
0100
1000
0002
0000
0103
,  // measure 21
0010
0100
0001
0100
1000
0000
0100
0001
,  // measure 22
2000
0000
3010
0200
0000
0302
0000
1003
,  // measure 23
0100
0000
1001
0000
0010
0000
0110
1000
,  // measure 24
0001
0010
1000
0002
0000
0203
0000
0310
,  // measure 25
1000
0001
0100
2000
0000
0000
3100
0001
,  // measure 26
0020
0000
0031
2000
0000
3002
0000
0203
,  // measure 27
0310
0000
1001
0000
0110
0001
1000
0100
,  // measure 28
0020
0000
0130
2000
3100
0010
0001
0200
,  // measure 29
0310
0000
1000
0001
0001
0100
0010
1000
,  // measure 30
1001
0000
1000
0001
0010
0100
1000
0010
,  // measure 31
0100
0001
0010
0100
1000
0000
0110
0000
,  // measure 32
0001
1000
0010
0200
0000
0310
1000
0001
,  // measure 33
0200
0000
0310
0000
1000
0001
0100
0001
,  // measure 34
2000
0100
3100
0000
0010
0002
0000
2003
,  // measure 35
0000
0000
3010
0000
0000
0000
1000
0000
0001
0000
0000
1000
0000
0000
0001
0000
,  // measure 36
0020
0000
0130
2000
0000
3001
0000
0100
,  // measure 37
0010
0000
0000
0100
0000
0000
0002
0000
0000
0000
1003
0000
0000
0000
0100
0000
,  // measure 38
0010
0000
0000
0001
0000
0000
0010
0000
0100
0000
0000
0100
0000
0000
1000
0000
,  // measure 39
1002
0000
0000
1000
2000
0000
3003
0000
,  // measure 40
0001
0100
0010
1000
0110
0000
1001
0000
,  // measure 41
1000
0001
0100
0001
0010
0000
0001
2000
,  // measure 42
0000
3010
0100
0001
0000
0001
0010
0100
,  // measure 43
1000
0000
0001
0100
0002
0000
0103
0020
,  // measure 44
0000
1030
2000
0000
0000
0000
3000
0100
,  // measure 45
0020
0000
0031
2000
0000
3001
0100
0001
,  // measure 46
0020
0000
0031
0200
0000
0310
1000
0000
,  // measure 47
0001
1000
0110
0000
2000
0000
3001
0200
,  // measure 48
0020
0000
0000
0330
0000
1000
0001
0000
,  // measure 49
0100
0010
1000
0100
1000
0001
0100
2000
,  // measure 50
0000
3001
0010
0200
0000
1300
0010
0100
,  // measure 51
0001
0010
0001
0100
0020
0000
0130
0002
,  // measure 52
0000
0013
0200
0000
1300
0000
0001
0100
,  // measure 53
1000
0100
0001
0020
0000
0130
1000
0100
,  // measure 54
0001
0100
1000
0020
0000
0130
0001
0000
,  // measure 55
1000
0001
0010
1000
0010
0001
0100
2000
,  // measure 56
0000
0000
0000
3000
;
