#TITLE:Csikos Post;
#SUBTITLE:;
#ARTIST:Banya;
#TITLETRANSLIT:;
#SUBTITLETRANSLIT:;
#ARTISTTRANSLIT:;
#GENRE:;
#CREDIT:;
#BANNER:csikospostbn.png;
#BACKGROUND:csikospostbg.png;
#LYRICSPATH:;
#CDTITLE:;
#MUSIC:Csikos post.mp3;
#OFFSET:-0.042000;
#SAMPLESTART:32.000000;
#SAMPLELENGTH:12.000000;
#SELECTABLE:YES;
#BPMS:0.000000=180.000000
;
#STOPS:
;
#BGCHANGES:;
#KEYSOUNDS:;
#ATTACKS:;

//---------------dance-single - ----------------
#NOTES:
     dance-single:
     :
     Easy:
     6:
     0.450446,0.653386,0.412110,0.000000,0.000000,329.000000,286.000000,43.000000,0.000000,0.000000,0.000000,0.450446,0.653386,0.412110,0.000000,0.000000,329.000000,286.000000,43.000000,0.000000,0.000000,0.000000:
// measure 0
0000
0000
0000
0000
,  // measure 1
0000
0000
0000
0000
,  // measure 2
0000
0000
0000
0000
,  // measure 3
0000
0000
0000
0000
,  // measure 4
0010
0010
0100
0100
,  // measure 5
1001
0110
1001
0000
,  // measure 6
1000
0010
0100
0010
,  // measure 7
0001
1000
0001
1000
,  // measure 8
0100
0100
0010
0010
,  // measure 9
0110
0000
1001
0000
0100
0100
0100
0000
,  // measure 10
1000
0100
0001
0100
,  // measure 11
0010
0010
1000
1000
,  // measure 12
0001
0100
0010
1000
,  // measure 13
0010
0000
0100
0100
0100
0000
1001
0000
,  // measure 14
1000
0100
0001
0100
,  // measure 15
1000
0100
0001
0100
,  // measure 16
1000
1000
0001
0001
,  // measure 17
0010
0010
0100
0100
,  // measure 18
0001
0100
1000
0000
0100
0000
0001
0000
,  // measure 19
1000
0100
0001
0000
0100
0000
1000
0000
,  // measure 20
0010
0010
0110
1001
,  // measure 21
0100
0100
0100
0000
0100
0000
0010
0000
,  // measure 22
1001
0100
0100
0010
,  // measure 23
1001
0100
0010
0110
,  // measure 24
1001
1000
0001
0010
,  // measure 25
0100
0100
1001
0000
,  // measure 26
1000
0010
0100
0010
,  // measure 27
1000
0000
0010
0000
0100
0100
0100
0000
,  // measure 28
1001
0001
0100
1000
,  // measure 29
0100
0100
0010
0000
,  // measure 30
0010
1000
0010
0001
,  // measure 31
0010
0000
0100
0100
0100
0000
1001
0000
,  // measure 32
1000
0001
1001
0100
,  // measure 33
0001
0100
0001
0101
,  // measure 34
1000
0001
1010
0010
,  // measure 35
0001
0010
0011
0100
,  // measure 36
1001
0110
1001
0000
,  // measure 37
0110
1001
0110
0000
,  // measure 38
0010
1000
0010
0000
0100
0001
0100
0000
,  // measure 39
0100
0010
0100
0000
1001
0000
0100
0000
,  // measure 40
0010
0000
0000
0000
,  // measure 41
0001
0000
0000
0000
,  // measure 42
0100
0000
0000
0000
,  // measure 43
1000
0000
0000
0000
,  // measure 44
0100
0000
0000
0000
,  // measure 45
1000
0000
0000
0000
,  // measure 46
0100
0000
0100
0000
,  // measure 47
0001
0001
1000
1000
,  // measure 48
0010
0010
0100
0100
,  // measure 49
0001
0000
0010
0000
0100
0000
1000
1000
,  // measure 50
1000
0010
0100
0001
,  // measure 51
0010
0000
0100
0000
0010
0000
0100
0100
,  // measure 52
0100
1000
0010
0001
,  // measure 53
0001
0000
1000
0000
0010
0000
0001
0001
,  // measure 54
0001
0010
0100
1000
,  // measure 55
0100
0000
0001
0000
1000
0000
0010
0010
,  // measure 56
0010
0001
1000
0001
,  // measure 57
0100
0000
0001
0000
0100
0000
1000
0100
,  // measure 58
0001
0010
0010
0100
,  // measure 59
0100
0000
0001
0000
1000
0000
0001
0100
,  // measure 60
1000
0100
0100
0001
,  // measure 61
0100
0000
1000
0000
0100
0000
0001
0100
,  // measure 62
1000
0100
0100
0010
,  // measure 63
0010
0001
0010
0110
,  // measure 64
1001
1100
0101
1100
,  // measure 65
1001
0101
1100
0101
,  // measure 66
0010
0010
0100
0100
,  // measure 67
0010
0010
0100
0100
,  // measure 68
1001
0110
1001
0110
,  // measure 69
1100
1010
0011
0101
,  // measure 70
0010
0010
0100
0100
,  // measure 71
0001
1000
0001
1000
0001
0000
1000
0000
,  // measure 72
0100
0100
0010
0010
,  // measure 73
1000
0001
1000
0001
1000
0000
0001
0000
,  // measure 74
0010
0100
0010
0100
,  // measure 75
1000
0001
0010
0100
1000
0000
0010
0000
;

//---------------dance-single - ----------------
#NOTES:
     dance-single:
     :
     Medium:
     7:
     0.539440,0.653386,0.565454,0.038336,0.000000,394.000000,335.000000,59.000000,4.000000,0.000000,0.000000,0.539440,0.653386,0.565454,0.038336,0.000000,394.000000,335.000000,59.000000,4.000000,0.000000,0.000000:
// measure 0
0000
0000
0000
0000
,  // measure 1
0000
0000
0000
0000
,  // measure 2
0000
0000
0000
0000
,  // measure 3
0000
0000
0000
0000
,  // measure 4
0010
1000
0010
0000
0100
0001
0100
0000
,  // measure 5
1001
0110
1001
0000
,  // measure 6
0101
0100
0010
0100
,  // measure 7
0001
0100
1000
0100
,  // measure 8
0100
1000
0100
0010
,  // measure 9
0100
0000
0001
0000
0100
0100
0100
0000
,  // measure 10
1001
0010
0001
0001
,  // measure 11
0010
1000
0100
0000
,  // measure 12
1000
0010
1000
0000
0100
0001
0100
0000
,  // measure 13
0010
1000
0100
0000
1001
0000
0000
0000
,  // measure 14
0110
1001
1100
0101
,  // measure 15
0110
1010
0011
1001
,  // measure 16
0010
0000
0010
1000
0100
0000
1001
0000
,  // measure 17
0010
0000
0010
0001
0100
0000
1001
0000
,  // measure 18
0110
1001
1010
0011
,  // measure 19
1001
0101
0110
1001
,  // measure 20
0010
1000
0001
0000
0010
0000
0100
0000
,  // measure 21
1000
0010
0100
0001
0010
0000
1001
0000
,  // measure 22
0001
1000
0001
0000
0100
0010
0100
0000
,  // measure 23
1001
0110
1001
0000
,  // measure 24
1100
0001
0100
0010
,  // measure 25
0001
1000
0010
0010
,  // measure 26
1000
0010
1000
0001
,  // measure 27
0100
0000
0001
0000
1000
1000
1000
0000
,  // measure 28
0110
0001
0100
0100
,  // measure 29
0010
0010
1001
0110
,  // measure 30
0010
1000
0001
0000
0100
0001
1000
0000
,  // measure 31
0100
0000
0010
0001
0100
0000
1001
0000
,  // measure 32
0110
0110
1001
0000
,  // measure 33
0110
1001
1001
0000
,  // measure 34
1000
1000
0001
0001
,  // measure 35
0010
0010
0100
0100
,  // measure 36
1001
0110
1001
0110
,  // measure 37
1100
0101
1100
0101
,  // measure 38
0010
0100
0010
0000
0100
0000
0010
0000
,  // measure 39
0010
1000
0100
0001
0100
0000
1001
0000
,  // measure 40
0020
0001
0000
0130
,  // measure 41
2000
0100
0000
3001
,  // measure 42
0020
0001
0000
0130
,  // measure 43
2000
0100
0000
3001
,  // measure 44
0010
1000
0100
0001
,  // measure 45
0100
1000
0010
0001
,  // measure 46
0010
1000
0100
0001
,  // measure 47
0100
1000
0010
0001
,  // measure 48
0010
0000
1000
0000
0100
1000
0100
0000
,  // measure 49
1000
0000
0001
0000
0100
0001
0100
0001
,  // measure 50
0100
0000
1000
0000
0010
1000
0010
0000
,  // measure 51
1000
0000
0100
0000
1000
0100
1000
0100
,  // measure 52
1000
0000
0001
0000
0010
0001
0010
0000
,  // measure 53
0001
0000
0100
0000
0001
0100
0001
0100
,  // measure 54
1000
0000
0010
0000
1000
0010
1000
0010
,  // measure 55
0100
0000
0010
0000
0100
0010
0001
1000
,  // measure 56
0010
0010
0001
0001
,  // measure 57
1000
0000
1000
0000
0100
0100
0001
0001
,  // measure 58
1000
1000
0010
0010
,  // measure 59
0100
0000
0100
0000
0001
0001
1000
1000
,  // measure 60
0100
0100
0001
0001
,  // measure 61
1000
0000
1000
0000
0010
0010
0001
0001
,  // measure 62
1000
0000
1000
0000
0100
0100
0001
0001
,  // measure 63
1000
0000
0100
0000
0001
0001
1000
0001
,  // measure 64
1000
1001
0010
0110
,  // measure 65
0001
1001
0100
0110
,  // measure 66
1000
0000
1000
0010
1000
0000
1001
0000
,  // measure 67
0001
0000
0001
0100
0001
0000
1001
0000
,  // measure 68
0010
1001
0010
1001
,  // measure 69
0100
1001
0100
1001
,  // measure 70
1000
0001
1000
0000
0010
0100
0010
0000
,  // measure 71
1000
0001
1000
0001
1000
0000
0001
0000
,  // measure 72
0100
0010
0100
0000
0001
1000
0001
0000
,  // measure 73
0100
0010
0100
0010
0100
0000
1001
0000
,  // measure 74
0010
1000
0100
0000
0010
0001
0100
0000
,  // measure 75
0010
1000
0100
0010
0001
0000
0100
0000
;

//---------------dance-single - ----------------
#NOTES:
     dance-single:
     :
     Hard:
     9:
     0.694153,0.653386,0.565454,0.000000,0.000000,507.000000,448.000000,59.000000,0.000000,0.000000,0.000000,0.694153,0.653386,0.565454,0.000000,0.000000,507.000000,448.000000,59.000000,0.000000,0.000000,0.000000:
// measure 0
0000
0000
0000
0000
,  // measure 1
0000
0000
0000
0000
,  // measure 2
0000
0000
0000
0000
,  // measure 3
0000
0000
0000
0000
,  // measure 4
0010
0100
0010
0000
0010
1000
0010
0000
,  // measure 5
0010
0100
0001
0010
0100
0000
0110
0000
,  // measure 6
1001
0000
0001
0010
0100
0000
0010
0000
,  // measure 7
1001
0110
1001
0000
,  // measure 8
0010
0100
0001
0000
0010
0100
1000
0000
,  // measure 9
0010
0000
0100
0000
1001
1001
1001
0000
,  // measure 10
0010
0000
0100
0001
0010
0000
0100
0000
,  // measure 11
1001
0110
1001
0000
,  // measure 12
0100
0001
0100
1000
0010
1000
0010
0001
,  // measure 13
0100
0000
0010
0100
0010
0000
0100
0000
,  // measure 14
1001
0000
0110
0000
1001
0000
0001
1000
,  // measure 15
0010
0100
1001
0000
,  // measure 16
0010
0000
0010
0100
0001
0010
0100
0000
,  // measure 17
0100
0000
0100
0010
1000
0100
0010
0000
,  // measure 18
1100
0101
1100
0101
,  // measure 19
1010
0011
1010
0011
,  // measure 20
0001
0010
0100
0000
1000
0010
0100
0001
,  // measure 21
0010
0001
1000
0100
1000
0000
1001
0000
,  // measure 22
0010
0010
0010
0000
0100
0100
0100
0000
,  // measure 23
0001
0010
0100
1000
0100
0000
0110
0000
,  // measure 24
1001
0000
0010
1000
0100
0000
0010
0000
,  // measure 25
0100
0001
1000
0000
1001
0000
0110
0000
,  // measure 26
0010
1000
0100
0000
0010
0001
0100
0000
,  // measure 27
1100
0000
0101
0000
0110
0110
0110
0000
,  // measure 28
0010
0000
0010
0010
0010
0000
0100
0000
,  // measure 29
0110
1001
1001
0000
,  // measure 30
0010
1000
0010
0001
0010
1000
0010
0001
,  // measure 31
0100
0000
0010
0001
0010
0000
1001
0000
,  // measure 32
0001
0010
0100
1000
0010
0000
1001
0000
,  // measure 33
1000
0010
0100
0001
0010
0000
1001
0000
,  // measure 34
1001
0000
0010
1000
0100
1000
0010
0000
,  // measure 35
1001
0000
0010
0001
0100
0001
0010
0000
,  // measure 36
1100
0101
1001
0000
,  // measure 37
0011
1010
1001
0000
,  // measure 38
0100
0010
0100
0000
0100
0010
1000
0001
,  // measure 39
0010
0001
1000
0010
0100
0000
1001
0000
,  // measure 40
1000
0010
0010
0010
1000
0001
0001
0001
,  // measure 41
1000
0100
0100
0100
1000
0001
0001
0001
,  // measure 42
1000
0100
0100
0100
1000
0001
0001
0001
,  // measure 43
1000
0010
0010
0010
1000
0001
0001
0001
,  // measure 44
0100
0010
0010
0010
0100
0001
0001
0001
,  // measure 45
1000
0010
0010
0010
1000
0010
0010
0010
,  // measure 46
0100
0001
0001
0001
1000
0001
0001
0001
,  // measure 47
1000
0010
0010
0010
0100
0000
1001
0000
,  // measure 48
0010
1000
0100
1000
0010
1000
0100
1000
,  // measure 49
0001
0010
0001
0100
0001
0010
0001
0100
,  // measure 50
0010
1000
0100
1000
0001
0010
0100
1000
,  // measure 51
0010
1000
0100
1000
0001
0010
0001
0100
,  // measure 52
0010
1000
0010
1000
0001
0010
0001
0010
,  // measure 53
0001
0100
0010
1000
0001
1000
0010
0100
,  // measure 54
0001
1000
0010
1000
0001
1000
0010
1000
,  // measure 55
0100
1000
0100
1000
0001
1000
0010
1000
,  // measure 56
0001
0100
0010
0100
0010
1000
0001
1000
,  // measure 57
0010
1000
0001
0100
0010
1000
0100
1000
,  // measure 58
0100
0010
0001
1000
0010
1000
0001
0010
,  // measure 59
0100
1000
0001
1000
0010
0100
0001
1000
,  // measure 60
0010
0100
0001
0010
0100
1000
0010
0100
,  // measure 61
0001
1000
0010
1000
0001
0100
0010
1000
,  // measure 62
0001
1000
0100
1000
0001
1000
0010
1000
,  // measure 63
0001
0100
0010
1000
0001
0100
0010
0100
,  // measure 64
0001
0000
1000
0000
0001
0000
0100
0010
,  // measure 65
1000
0000
0001
0000
1000
0000
0001
0010
,  // measure 66
0100
0000
0100
0010
0001
1000
0010
0000
,  // measure 67
0100
0000
0010
1000
0001
0010
0100
0000
,  // measure 68
1100
0101
1001
0000
,  // measure 69
0101
1100
1001
1010
,  // measure 70
0010
1000
0010
0000
0100
1000
0001
0010
,  // measure 71
0100
0010
0001
0100
0010
0000
1001
0000
,  // measure 72
1000
0010
1000
0000
0010
1000
0100
0001
,  // measure 73
0100
1000
0010
0100
0001
0000
1001
0000
,  // measure 74
1000
0010
1000
0000
1000
0010
0100
0001
,  // measure 75
0010
0100
1000
0010
0100
0000
1001
0000
;
