#TITLE:Come Chameleon;
#SUBTITLE:;
#ARTIST:Smile .dk;
#TITLETRANSLIT:;
#SUBTITLETRANSLIT:;
#ARTISTTRANSLIT:;
#GENRE:;
#CREDIT:;
#BANNER:Comecham bn2.png;
#BACKGROUND:Comecham bg.png;
#LYRICSPATH:;
#CDTITLE:;
#MUSIC:Smile .dk - Come Chameleon (Short Edit).mp3;
#OFFSET:-1.425000;
#SAMPLESTART:38.084999;
#SAMPLELENGTH:12.000000;
#SELECTABLE:YES;
#BPMS:0.000000=131.000000
;
#STOPS:
;
#BGCHANGES:;
#KEYSOUNDS:;
#ATTACKS:;

//---------------dance-single - ----------------
#NOTES:
     dance-single:
     :
     Easy:
     3:
     0.300586,0.366638,0.325098,0.243823,0.000000,233.000000,197.000000,36.000000,27.000000,0.000000,0.000000,0.300586,0.366638,0.325098,0.243823,0.000000,233.000000,197.000000,36.000000,27.000000,0.000000,0.000000:
// measure 0
0000
0000
0000
0000
,  // measure 1
0000
0000
0000
0000
,  // measure 2
0000
0000
0000
0000
,  // measure 3
0000
0000
0000
0000
,  // measure 4
2000
3000
0001
0010
,  // measure 5
0100
0100
0100
0010
,  // measure 6
0100
0100
0100
0010
,  // measure 7
0001
1000
0010
0100
,  // measure 8
1001
0001
1000
0100
,  // measure 9
2002
3003
0100
0100
,  // measure 10
0010
0010
1001
0100
,  // measure 11
1000
0001
1001
0000
,  // measure 12
1001
0100
0010
0010
,  // measure 13
2002
3003
0010
0010
,  // measure 14
0100
1000
0001
0000
,  // measure 15
1001
0110
0110
0000
,  // measure 16
1001
0001
0001
0000
,  // measure 17
1000
0100
1000
0010
,  // measure 18
0100
0100
0001
0010
,  // measure 19
2002
0000
3003
0110
,  // measure 20
1001
0001
0010
0100
,  // measure 21
1000
1000
0100
0010
,  // measure 22
0001
0001
0100
0010
,  // measure 23
1000
1000
0100
0010
,  // measure 24
1001
0001
0100
1000
,  // measure 25
0100
0001
0010
0001
,  // measure 26
0100
1000
0010
1000
,  // measure 27
0100
0001
0010
1001
,  // measure 28
1001
1000
1000
1000
,  // measure 29
0001
0001
0001
0011
,  // measure 30
1001
0000
1000
0010
,  // measure 31
2002
3003
0100
0010
,  // measure 32
0100
0100
0010
0001
,  // measure 33
0100
0010
2002
3003
,  // measure 34
1001
0000
0001
0010
,  // measure 35
2002
3003
0000
0100
,  // measure 36
1000
1000
0100
0001
,  // measure 37
0011
0101
1100
1010
,  // measure 38
1001
0010
0010
0000
,  // measure 39
0010
0100
1000
0110
,  // measure 40
0001
0100
0100
0010
,  // measure 41
2020
0000
3030
0101
,  // measure 42
1001
0001
0010
0100
,  // measure 43
1000
1000
0100
0010
,  // measure 44
0001
0001
0100
0010
,  // measure 45
1000
1000
0100
0010
,  // measure 46
1001
0001
0100
1000
,  // measure 47
0100
0001
0010
0001
,  // measure 48
0100
1000
0010
1000
,  // measure 49
0100
0001
0010
1001
,  // measure 50
1002
0000
1003
0010
,  // measure 51
0200
0301
0010
0200
,  // measure 52
2300
3010
0100
0002
,  // measure 53
0023
0031
1000
0010
,  // measure 54
2001
0000
3010
0100
,  // measure 55
0002
1003
0100
0020
,  // measure 56
0230
1300
0001
0020
,  // measure 57
0032
1003
1000
0010
,  // measure 58
1001
0000
0000
0000
;

//---------------dance-single - ----------------
#NOTES:
     dance-single:
     :
     Medium:
     6:
     0.421853,0.497580,0.234793,0.234793,0.000000,327.000000,301.000000,26.000000,26.000000,0.000000,0.000000,0.421853,0.497580,0.234793,0.234793,0.000000,327.000000,301.000000,26.000000,26.000000,0.000000,0.000000:
// measure 0
0000
0000
0000
0000
,  // measure 1
0000
0000
0000
0000
,  // measure 2
0000
0000
0000
0000
,  // measure 3
0000
0000
0000
0000
,  // measure 4
2000
0000
0000
3100
0010
0000
0100
0000
,  // measure 5
1000
0000
1000
0100
1000
0000
0001
0000
,  // measure 6
0001
0000
0001
0010
0001
0000
0100
0000
,  // measure 7
0010
0000
0010
1000
0001
0020
0000
0030
,  // measure 8
0002
0000
0003
1000
0100
0000
0001
0000
,  // measure 9
0100
0000
1000
0010
0100
0000
0100
0000
,  // measure 10
0001
0000
1000
0100
1000
0000
1000
0100
,  // measure 11
1000
0010
0000
0010
0000
0010
0100
0001
,  // measure 12
2000
0000
3000
0100
0010
0000
0100
0000
,  // measure 13
1000
0000
0010
0100
0001
0000
1000
0100
,  // measure 14
1000
1000
0000
1000
0000
0000
0100
0010
,  // measure 15
0001
0010
0000
0100
0000
1000
0001
0000
,  // measure 16
1001
0000
0100
1000
0100
0000
1001
0000
,  // measure 17
0010
0001
0000
0100
0010
0000
0100
0000
,  // measure 18
0001
0000
1000
0100
2000
0000
3010
0200
,  // measure 19
0002
0000
0303
0101
,  // measure 20
1001
0000
0100
1000
0010
0000
0100
0001
,  // measure 21
0010
0000
0100
1000
0100
0020
0000
0030
,  // measure 22
0100
0000
0100
1000
0001
0020
0000
0031
,  // measure 23
1000
0000
0010
0100
0010
1000
1001
0000
,  // measure 24
1001
0000
0001
0100
0010
0100
0001
1000
,  // measure 25
0100
0000
0100
1000
0100
0010
0001
0000
,  // measure 26
1001
0000
1000
0100
1000
0010
0100
0010
,  // measure 27
1000
0000
1000
0100
1000
0010
1010
0000
,  // measure 28
1100
1000
0100
1000
0100
1000
0100
1000
,  // measure 29
0001
0010
0001
0010
0001
0010
0011
0000
,  // measure 30
1001
0000
1000
0010
0100
0010
1000
0100
,  // measure 31
0010
0000
0011
0000
1001
0000
0000
0100
,  // measure 32
0010
0000
0010
0100
0010
0000
1000
0001
,  // measure 33
0100
0010
0000
1001
0000
0010
0100
1000
,  // measure 34
0001
0000
0000
0100
0010
0100
0001
1000
,  // measure 35
0100
0000
0010
0001
0010
0000
0001
0100
,  // measure 36
0010
1000
0000
1001
0000
0000
0001
0001
,  // measure 37
0010
0100
0000
1100
0000
0100
0010
0000
,  // measure 38
0011
0000
0001
0010
0001
0000
1000
0100
,  // measure 39
0010
0100
0000
1000
0000
0001
0010
0100
,  // measure 40
0010
0001
0001
1000
0001
0000
0010
0200
,  // measure 41
2000
0000
3300
0011
,  // measure 42
1001
0000
0100
1000
0010
0000
0100
0001
,  // measure 43
0010
0000
0100
1000
0100
0020
0000
0030
,  // measure 44
0100
0000
0100
1000
0001
0020
0000
0031
,  // measure 45
1000
0000
0010
0100
0010
1000
1001
0000
,  // measure 46
1001
0000
0001
0100
0010
0100
0001
1000
,  // measure 47
0100
0000
0100
1000
0100
0010
0001
0000
,  // measure 48
1001
0000
1000
0100
1000
0010
0100
0010
,  // measure 49
1000
0000
1000
0100
1000
0010
1010
0000
,  // measure 50
2001
0000
0000
3100
0010
0000
0100
1000
,  // measure 51
0020
0000
0130
0001
0010
0200
0000
0000
,  // measure 52
2300
0000
3010
0100
0010
2000
0000
3001
,  // measure 53
0020
0000
0031
0100
0010
2000
0000
3000
,  // measure 54
1002
0000
0000
0103
0010
1000
0100
0000
,  // measure 55
2000
0000
3010
0100
0001
2000
0000
0000
,  // measure 56
3002
0000
1003
0100
1000
0020
0000
1030
,  // measure 57
0002
0000
1003
0100
0010
0001
1000
0000
,  // measure 58
1100
0000
0000
0000
;

//---------------dance-single - ----------------
#NOTES:
     dance-single:
     :
     Hard:
     7:
     0.455395,0.497580,0.207701,0.135457,0.000000,353.000000,330.000000,23.000000,15.000000,0.000000,0.000000,0.455395,0.497580,0.207701,0.135457,0.000000,353.000000,330.000000,23.000000,15.000000,0.000000,0.000000:
// measure 0
0000
0000
0000
0000
,  // measure 1
0000
0000
0000
0000
,  // measure 2
0000
0000
0000
0000
,  // measure 3
0000
0000
0000
0000
,  // measure 4
2000
0000
0000
3100
0010
0100
1000
0001
,  // measure 5
0100
0000
0100
0001
0010
0001
0000
0000
,  // measure 6
0001
0000
0001
1000
0001
0010
0000
0010
,  // measure 7
0001
0000
0001
1000
0100
0020
0000
1030
,  // measure 8
1001
0000
0010
1000
0010
0100
0001
0010
,  // measure 9
0100
0000
1000
0001
0100
0000
1001
0000
,  // measure 10
0010
0000
0010
1000
0001
0000
0001
1000
,  // measure 11
0010
1010
0000
0101
0000
0010
0100
1000
,  // measure 12
0020
0000
0000
0130
0001
0100
0001
0010
,  // measure 13
0100
0000
1000
0100
0010
0000
0001
1000
,  // measure 14
0100
0010
0000
0010
0000
0000
0001
0001
,  // measure 15
0010
0100
0000
1100
0000
0010
0010
0010
,  // measure 16
1001
0000
1000
0100
1000
0000
0010
0100
,  // measure 17
0001
0010
0000
0100
0000
0100
1000
0001
,  // measure 18
0010
0100
1000
0100
0010
0000
0001
0100
,  // measure 19
2020
0000
3030
0110
,  // measure 20
1001
0000
0000
1000
0010
0100
1000
0100
,  // measure 21
0001
0000
0001
0100
0001
0010
0000
0100
,  // measure 22
1000
0000
1000
0100
1000
0010
0000
0010
,  // measure 23
0100
0000
0100
0001
0010
0100
0000
0100
,  // measure 24
1001
0000
1000
0001
0010
1000
0010
0001
,  // measure 25
0100
0000
0100
1000
0100
0001
0010
0100
,  // measure 26
1000
0000
1000
0100
1000
0010
0000
0010
,  // measure 27
0100
0000
0100
0001
0100
0010
1010
1000
,  // measure 28
1001
0010
1000
0010
1000
0001
1000
0001
,  // measure 29
0100
0001
0100
0001
0100
0010
0100
0010
,  // measure 30
1001
0000
0100
0010
1000
0100
0001
0100
,  // measure 31
1000
0000
1001
0000
0011
0000
0001
1000
,  // measure 32
0100
0000
0100
1000
0010
0000
0010
0100
,  // measure 33
0001
0010
0000
0010
0000
0010
0100
1000
,  // measure 34
0001
0000
1000
0100
0010
0100
0010
0001
,  // measure 35
0100
0010
1000
0000
0001
0010
0100
1000
,  // measure 36
0001
0000
0001
0100
1000
0000
1000
0100
,  // measure 37
0001
0010
0000
0010
0000
0010
0001
0100
,  // measure 38
0001
1000
1000
0100
1000
0000
0010
0100
,  // measure 39
0001
1000
0000
0100
0000
0100
0010
0001
,  // measure 40
1000
0010
0010
1000
0001
0000
0010
0200
,  // measure 41
0002
0000
0303
1010
,  // measure 42
1001
0000
0000
1000
0010
0100
1000
0100
,  // measure 43
0001
0000
0001
0100
0001
0010
0000
0100
,  // measure 44
1000
0000
1000
0100
1000
0010
0000
0010
,  // measure 45
0100
0000
0100
0001
0010
0100
0000
0100
,  // measure 46
1001
0000
1000
0001
0010
1000
0010
0001
,  // measure 47
0100
0000
0100
1000
0100
0001
0010
0100
,  // measure 48
1000
0000
1000
0100
1000
0010
0000
0010
,  // measure 49
0100
0000
0100
0001
0100
0010
1010
0000
,  // measure 50
1002
0000
0000
1003
0010
0100
0001
0100
,  // measure 51
0020
0000
1030
0001
1000
0010
0000
0100
,  // measure 52
0002
0000
0013
0100
0010
0002
0000
1003
,  // measure 53
0010
0000
0010
0100
0010
0001
1001
0000
,  // measure 54
2001
0000
0000
3100
0010
0100
1000
0010
,  // measure 55
0200
0000
0301
1000
0010
1000
0000
0100
,  // measure 56
0020
0000
0031
0100
0010
1000
0000
1000
,  // measure 57
0020
0000
1030
0100
0010
0001
0010
0100
,  // measure 58
1001
0000
0000
0000
;
