#TITLE:Colors;
#SUBTITLE:(Y&Co. Eurobeat Remix);
#ARTIST:Dj Taka;
#TITLETRANSLIT:;
#SUBTITLETRANSLIT:;
#ARTISTTRANSLIT:;
#GENRE:;
#CREDIT:;
#BANNER:ColorsY&CoEuro - bn.png;
#BACKGROUND:ColorsY&CoEuro - bg.png;
#LYRICSPATH:;
#CDTITLE:;
#MUSIC:Dj Taka - Colors (Y&Co. Eurobeat Remix).mp3;
#OFFSET:-1.620000;
#SAMPLESTART:50.360001;
#SAMPLELENGTH:12.000000;
#SELECTABLE:YES;
#BPMS:0.000000=155.039993
;
#STOPS:
;
#BGCHANGES:;
#KEYSOUNDS:;
#ATTACKS:;

//---------------dance-single - ----------------
#NOTES:
     dance-single:
     :
     Easy:
     4:
     0.321177,0.414233,0.173644,0.219340,0.009139,246.000000,227.000000,19.000000,24.000000,0.000000,0.000000,0.321177,0.414233,0.173644,0.219340,0.009139,246.000000,227.000000,19.000000,24.000000,0.000000,0.000000:
// measure 0
0000
0000
0000
0000
,  // measure 1
0000
0000
0000
0000
,  // measure 2
0000
0000
0000
0000
,  // measure 3
0000
0000
0000
0000
,  // measure 4
2000
3000
0002
0023
,  // measure 5
0230
2300
3000
0002
,  // measure 6
0203
0320
2030
3100
,  // measure 7
0020
0000
0000
0030
,  // measure 8
1001
0101
0100
0010
,  // measure 9
0100
0001
0001
0010
,  // measure 10
1001
1100
0010
0100
,  // measure 11
1000
0100
0001
0100
,  // measure 12
1001
1010
0100
0001
,  // measure 13
0010
0100
1000
0001
,  // measure 14
1001
0000
0011
0000
1000
0000
0100
0010
,  // measure 15
0000
0100
0100
0010
0000
0100
0010
0000
,  // measure 16
1001
0100
0000
0100
,  // measure 17
1001
0100
0000
0100
,  // measure 18
0010
0001
1000
0100
,  // measure 19
0001
0000
0010
0000
1000
0001
0100
0000
,  // measure 20
1001
0000
0100
0000
0000
1000
0001
1000
,  // measure 21
0000
0010
0000
0010
,  // measure 22
0002
0003
0010
0001
,  // measure 23
1000
0010
0100
0001
,  // measure 24
1000
0000
0000
1000
0000
0000
0100
0000
,  // measure 25
0001
0001
0100
1000
,  // measure 26
0010
0000
0010
0000
0100
0000
0001
1000
,  // measure 27
0001
0000
0000
0001
0000
0000
0010
0000
,  // measure 28
0100
0000
0000
0100
0000
0000
0010
0000
,  // measure 29
0002
0000
0003
0000
1000
0000
0001
0001
,  // measure 30
0001
0000
1000
1000
1000
0000
0010
0100
,  // measure 31
0020
0000
0030
0000
1000
0001
1000
0001
,  // measure 32
2000
0000
0000
0000
,  // measure 33
3200
0000
0320
0000
,  // measure 34
0032
0000
0000
0000
,  // measure 35
2003
0000
3002
0000
,  // measure 36
0013
0010
0010
0010
,  // measure 37
0100
0100
0100
0100
,  // measure 38
0010
0010
0010
0010
,  // measure 39
1000
0100
0001
0100
,  // measure 40
1001
0100
0010
0010
,  // measure 41
1000
0100
0001
0010
,  // measure 42
1000
1000
0001
0001
,  // measure 43
0010
1000
0100
0001
,  // measure 44
1000
0001
1000
0000
1000
0000
0110
0000
,  // measure 45
0001
1000
0001
0000
0001
0000
0110
0000
,  // measure 46
0010
0010
0010
0000
0100
0100
0100
0000
,  // measure 47
2002
3003
0100
0100
,  // measure 48
1001
0000
0001
0000
1000
0000
0100
0010
,  // measure 49
0000
0001
0010
0100
,  // measure 50
0010
0001
0100
1000
,  // measure 51
0100
0001
0010
1000
,  // measure 52
1001
0000
0010
0000
0100
0000
0000
0010
,  // measure 53
0000
0000
0010
0000
0000
0000
0000
0000
0000
0000
0001
0000
0000
1000
0000
0000
,  // measure 54
0010
0010
0100
0001
,  // measure 55
0020
0030
0100
0110
,  // measure 56
1001
0000
1000
0001
,  // measure 57
0010
0010
0001
0100
,  // measure 58
0010
0000
0000
0000
0000
0000
1000
0000
0001
0000
0000
1000
0000
0000
0001
0000
,  // measure 59
0000
0100
0100
0000
0010
0000
0010
0000
,  // measure 60
1000
0001
0010
0010
,  // measure 61
0100
2000
3000
0100
,  // measure 62
0010
0001
0100
1000
,  // measure 63
0010
0100
0000
0100
0000
0100
0000
0100
,  // measure 64
0020
0000
0000
0030
;

//---------------dance-single - ----------------
#NOTES:
     dance-single:
     :
     Medium:
     6:
     0.408652,0.473410,0.310732,0.265036,0.022848,313.000000,279.000000,34.000000,29.000000,0.000000,0.000000,0.408652,0.473410,0.310732,0.265036,0.022848,313.000000,279.000000,34.000000,29.000000,0.000000,0.000000:
// measure 0
0000
0000
0000
0000
,  // measure 1
0000
0000
0000
0000
,  // measure 2
0000
0000
0000
0000
,  // measure 3
0000
0000
0000
0000
,  // measure 4
0000
0000
2000
0000
3010
0100
0000
0100
,  // measure 5
0000
0200
0000
0300
0000
0001
0000
1000
,  // measure 6
0200
0000
0000
0310
0001
1000
0000
1000
,  // measure 7
0200
0000
0000
0300
,  // measure 8
0010
0000
1001
0000
1100
0000
0010
0001
,  // measure 9
0000
0011
0000
0110
0000
1100
0000
1001
,  // measure 10
0000
0000
1001
0000
0101
0000
0010
1000
,  // measure 11
0000
1010
0000
0110
0000
0001
1000
0000
,  // measure 12
0010
0000
1001
0000
0101
0000
0001
0010
,  // measure 13
0000
0110
0000
1100
0000
1000
0001
0000
,  // measure 14
0100
0000
0110
0000
0010
1000
0000
1000
,  // measure 15
0000
0001
0100
0010
0000
0010
0110
0000
,  // measure 16
1001
0000
0100
0000
0000
0001
1000
0000
,  // measure 17
0010
0000
0100
0000
0000
0001
1000
0000
,  // measure 18
0001
0000
0100
0000
0000
0100
0010
2000
,  // measure 19
0000
0000
3001
0010
0000
0110
0000
0100
,  // measure 20
1000
0000
1001
0000
0000
0001
0010
0100
,  // measure 21
0000
0100
0010
0100
0000
0100
0010
0100
,  // measure 22
2000
0000
0000
3001
0020
0000
0031
0100
,  // measure 23
0000
0010
0000
1010
0000
0101
0000
0100
,  // measure 24
0010
0000
1000
0100
1000
0000
0001
0000
,  // measure 25
0200
0010
0010
0310
,  // measure 26
1000
0001
0100
0000
0001
1000
0100
0000
,  // measure 27
0020
0000
0000
0032
0000
0000
2003
0000
,  // measure 28
3001
0000
1000
0100
1000
0000
0001
0000
,  // measure 29
0200
0000
0010
0000
0310
0000
1000
0001
,  // measure 30
0010
0000
0001
1000
0010
0000
1000
0001
,  // measure 31
0020
0000
0030
0000
0001
1000
0001
1000
,  // measure 32
0200
0010
0010
0310
,  // measure 33
0002
0103
0020
1030
,  // measure 34
0002
1000
1000
1000
,  // measure 35
0100
0100
1000
0103
,  // measure 36
0010
1001
0100
0101
,  // measure 37
0010
1001
0100
1100
,  // measure 38
0010
1001
0010
0110
,  // measure 39
0100
0000
1001
0000
0110
0000
0100
0010
,  // measure 40
0001
0000
1000
0000
0001
0000
1000
0100
,  // measure 41
0010
0000
0001
0100
0010
0000
1000
0100
,  // measure 42
0020
0001
0001
0031
,  // measure 43
2000
0001
0100
3001
,  // measure 44
1000
0100
1000
0000
0010
0000
0100
0000
,  // measure 45
0001
0100
0001
0000
0010
0000
0100
0000
,  // measure 46
1000
0100
1000
0000
0001
0100
0001
0000
,  // measure 47
2002
3003
0110
0110
,  // measure 48
1001
0000
1000
0000
0001
0000
0100
0010
,  // measure 49
0100
0000
0100
0001
1000
0000
0100
0010
,  // measure 50
0001
0000
0000
0000
1000
0000
0100
0000
0100
0000
0000
0010
0000
0000
0001
0000
,  // measure 51
0000
1000
2000
0000
3010
0000
0010
0000
,  // measure 52
1001
0000
0001
0100
1000
0100
0000
0001
,  // measure 53
0000
0000
0020
0000
0000
0000
0030
0000
0000
0000
0001
0000
0000
1000
0000
0000
,  // measure 54
0200
0000
0000
0000
0000
0000
1300
0000
0001
0000
0000
0001
0000
0000
0010
0000
,  // measure 55
0200
0000
1000
0000
1300
0000
0001
0100
,  // measure 56
0010
0000
1000
0001
1000
0000
0100
0020
,  // measure 57
0000
0030
0000
0001
1000
0000
0100
0000
,  // measure 58
0020
0000
0000
0000
0031
0000
0100
0000
0001
0000
0000
1000
0000
0000
0010
0000
,  // measure 59
0000
0100
0200
0000
0301
0000
1000
0000
,  // measure 60
0010
0000
1000
0100
0001
0000
0100
1000
,  // measure 61
0010
0000
0100
0001
0010
0100
0000
1000
,  // measure 62
0001
0000
0000
0000
0001
0000
0100
0000
0010
0000
0000
1000
0000
0000
0001
0000
,  // measure 63
0100
0010
0000
0010
0000
0010
0000
0010
,  // measure 64
0200
0000
0000
0300
;

//---------------dance-single - ----------------
#NOTES:
     dance-single:
     :
     Hard:
     7:
     0.475237,0.502998,0.310732,0.310732,0.022848,364.000000,330.000000,34.000000,34.000000,0.000000,0.000000,0.475237,0.502998,0.310732,0.310732,0.022848,364.000000,330.000000,34.000000,34.000000,0.000000,0.000000:
// measure 0
0000
0000
0000
0000
,  // measure 1
0000
0000
0000
0000
,  // measure 2
0000
0000
0000
0000
,  // measure 3
0000
0000
0000
0000
,  // measure 4
0000
0000
2000
0000
3010
0200
0000
0302
,  // measure 5
0000
0203
0000
0000
0000
0310
0000
1000
,  // measure 6
0002
0000
0000
1003
0010
1000
0000
0100
,  // measure 7
2002
0000
3003
0000
,  // measure 8
1001
0000
0011
0000
0110
0000
1000
0100
,  // measure 9
0010
0001
0000
1100
0000
0110
0000
1001
,  // measure 10
0010
0000
1010
0000
0110
0000
0001
0010
,  // measure 11
0100
1000
0000
0110
0000
0001
0110
0000
,  // measure 12
1001
0000
1010
0000
0110
0000
0001
0010
,  // measure 13
0100
0010
0001
1000
0000
0001
0010
0000
,  // measure 14
0100
0000
1001
0000
1000
0100
0000
0010
,  // measure 15
0000
0100
1000
0001
0000
0010
0110
0000
,  // measure 16
1000
0100
1000
0000
0000
0001
1000
0000
,  // measure 17
0001
0100
0001
0000
0000
1000
0001
0000
,  // measure 18
0010
0001
0100
0000
1000
0100
0001
2000
,  // measure 19
0000
0000
3010
0001
0000
0110
0000
0100
,  // measure 20
1001
0000
0110
0000
0000
1000
0010
0100
,  // measure 21
0000
1000
0010
0100
0000
1000
0010
0100
,  // measure 22
0002
0000
1003
0100
2000
0000
3010
0100
,  // measure 23
0000
0010
0000
1001
0000
0110
0000
1100
,  // measure 24
2001
0000
3100
0020
0000
0031
0100
0010
,  // measure 25
0200
0001
1000
0301
,  // measure 26
0010
0001
0100
1000
0100
0001
1000
0100
,  // measure 27
0020
0000
0031
0200
0000
0310
1000
0100
,  // measure 28
1002
0000
0103
0020
0000
1030
0100
0010
,  // measure 29
0200
0000
1000
0000
0301
0000
0100
0010
,  // measure 30
1001
0000
0100
0010
1001
0000
0100
0010
,  // measure 31
2002
0000
3003
0000
0001
0010
0100
1000
,  // measure 32
1001
0000
0001
1000
0001
0010
0000
0100
,  // measure 33
2000
0000
3010
0000
0100
0001
0000
1000
,  // measure 34
0020
0100
0100
0130
,  // measure 35
2000
0001
0010
3010
,  // measure 36
1000
0100
1000
0000
0001
0100
0001
0010
,  // measure 37
0100
0000
1000
0001
0100
0010
0000
0010
,  // measure 38
1000
0100
0001
0000
0001
0100
1000
0000
,  // measure 39
1000
0010
0001
0000
0001
0010
1000
0100
,  // measure 40
1001
0000
1000
0100
1000
0000
0001
0010
,  // measure 41
0100
0000
1000
0001
1000
0100
0000
1000
,  // measure 42
0001
0010
0000
0010
1000
0100
0000
0010
,  // measure 43
0001
0100
0000
0001
0100
1000
0000
0001
,  // measure 44
2000
0000
3010
0100
0001
0010
0100
1000
,  // measure 45
0002
0000
0103
0010
1000
0100
0010
0001
,  // measure 46
1000
0001
1000
0010
0100
0001
0100
0010
,  // measure 47
2002
0000
3003
0000
0100
0000
0100
0010
,  // measure 48
0001
0000
1000
0001
0100
0010
0100
0002
,  // measure 49
0000
1003
0000
0010
1000
0100
0010
0001
,  // measure 50
1000
0000
0000
0000
0000
0000
0010
0000
0100
0000
0000
0001
0000
0000
0010
0000
,  // measure 51
0000
0100
1000
0000
0001
1000
0100
1000
,  // measure 52
0001
0000
1010
0000
0001
0100
0001
0010
,  // measure 53
0000
0000
0100
0000
1000
0000
0000
0000
0001
0000
0010
0000
0000
0001
0000
0000
,  // measure 54
0200
0000
0000
0000
0310
0000
1000
0000
0100
0000
0000
0010
0000
0000
0001
0000
,  // measure 55
0200
0000
0010
0000
0310
0000
1000
0100
,  // measure 56
0001
0100
1000
0100
0010
0001
1000
0020
,  // measure 57
0000
0130
0000
0010
1000
0100
0001
0100
,  // measure 58
2000
0000
0000
0000
3010
0000
0100
0000
0001
0000
0000
1000
0000
0000
0001
0000
,  // measure 59
0000
0100
0100
0000
0110
0000
0110
0000
,  // measure 60
1000
0000
0011
0000
1000
0010
0100
0010
,  // measure 61
1000
0002
0000
0013
0000
0100
0000
1000
,  // measure 62
0001
0000
0000
0000
1000
0000
0100
0000
0001
0000
0000
0010
0000
0000
1000
0000
,  // measure 63
0001
0100
0000
0100
0000
0100
0000
0100
,  // measure 64
0020
0000
0000
0030
;
