#TITLE:Chill;
#SUBTITLE:(Rock Mix);
#ARTIST:Hirokazu Tanaka (Arranged by Dave Phaneuf);
#TITLETRANSLIT:;
#SUBTITLETRANSLIT:;
#ARTISTTRANSLIT:;
#GENRE:;
#CREDIT:;
#BANNER:chill bn.png;
#BACKGROUND:chill bg.png;
#LYRICSPATH:;
#CDTITLE:;
#MUSIC:chill.mp3;
#OFFSET:0.143000;
#SAMPLESTART:64.500000;
#SAMPLELENGTH:12.000000;
#SELECTABLE:YES;
#BPMS:0.000000=120.000000
;
#STOPS:127.500000=0.495000,
158.500000=0.495000,
236.000000=1.500000
;
#BGCHANGES:;
#KEYSOUNDS:;
#ATTACKS:;

//---------------dance-single - ----------------
#NOTES:
     dance-single:
     :
     Easy:
     4:
     0.284683,0.311324,0.130800,0.015388,0.007694,259.000000,242.000000,17.000000,2.000000,0.000000,0.000000,0.284683,0.311324,0.130800,0.015388,0.007694,259.000000,242.000000,17.000000,2.000000,0.000000,0.000000:
// measure 0
0000
0000
0000
0000
,  // measure 1
0000
0000
0000
0000
,  // measure 2
0000
0000
0000
0000
,  // measure 3
0000
0000
0000
0000
,  // measure 4
0000
0000
0010
0001
,  // measure 5
0001
0001
0100
0001
,  // measure 6
0010
0001
0100
1000
,  // measure 7
1000
1000
0010
1000
,  // measure 8
0100
1000
0001
0010
,  // measure 9
0010
0010
0001
0010
,  // measure 10
1000
0010
0001
0100
,  // measure 11
0100
0100
2002
0000
,  // measure 12
0000
3003
0000
0000
0010
0000
1000
0000
,  // measure 13
0001
1000
0010
1000
,  // measure 14
0001
1000
0100
1000
,  // measure 15
0001
0010
1000
0010
,  // measure 16
1001
0000
1000
0100
,  // measure 17
0001
0100
1000
0100
,  // measure 18
1000
0010
0001
0010
,  // measure 19
1000
0010
0001
0100
,  // measure 20
0001
0100
1001
0100
,  // measure 21
0010
0100
1001
0010
,  // measure 22
0100
0010
1001
0100
,  // measure 23
0010
0100
1001
0100
,  // measure 24
0001
0100
0001
0100
0000
0000
0000
0000
0000
0010
0000
0000
,  // measure 25
1000
0000
0100
0000
0010
1000
0010
0000
,  // measure 26
0100
0000
0001
0000
1000
0001
0010
0000
,  // measure 27
0100
0010
0001
0100
,  // measure 28
1000
0010
1000
0001
,  // measure 29
0100
0000
0001
0000
1000
0001
1000
0000
,  // measure 30
0010
0000
0100
0010
0100
0000
0010
0000
,  // measure 31
1000
0000
0100
0000
0010
0010
0010
0010
,  // measure 32
0000
1000
1000
1000
,  // measure 33
1000
0001
0001
0001
,  // measure 34
0001
1000
1000
1000
,  // measure 35
1000
0001
0001
0001
,  // measure 36
1000
0001
1000
0000
0010
0000
0001
0000
,  // measure 37
0100
0001
0010
1000
,  // measure 38
0100
1000
0010
0001
,  // measure 39
0100
0000
0001
0001
1000
1000
0000
0000
,  // measure 40
1001
0000
0100
0000
1000
0000
0001
1000
,  // measure 41
0010
0000
0100
0000
0001
1000
0010
0100
,  // measure 42
0010
0100
0001
0100
,  // measure 43
0001
0101
1000
1010
,  // measure 44
1000
0000
0001
0000
1000
0010
0001
0000
,  // measure 45
1000
0000
0001
0000
1000
0010
0001
0000
,  // measure 46
0010
1000
0100
0000
0001
0100
1000
0000
,  // measure 47
0001
0001
0010
0000
0100
0100
1000
0000
,  // measure 48
0001
1001
1000
1001
,  // measure 49
0001
0010
0100
1000
0000
0000
0010
0000
,  // measure 50
1000
0100
0001
0100
,  // measure 51
1000
0010
1001
0110
,  // measure 52
1001
0000
0100
0000
,  // measure 53
0010
0000
0100
0000
,  // measure 54
1001
0000
0100
0000
,  // measure 55
0010
0000
0100
0000
,  // measure 56
0010
1000
0100
1000
,  // measure 57
0010
0001
0100
0000
0001
0001
1000
0000
,  // measure 58
0010
0001
0100
0001
,  // measure 59
1001
0010
0001
0100
,  // measure 60
0001
0000
0100
1000
0010
0000
1000
1000
,  // measure 61
0001
0100
1000
0010
,  // measure 62
1000
1001
0000
0000
;

//---------------dance-single - ----------------
#NOTES:
     dance-single:
     :
     Medium:
     7:
     0.386905,0.431064,0.200048,0.015388,0.007694,352.000000,326.000000,26.000000,2.000000,0.000000,0.000000,0.386905,0.431064,0.200048,0.015388,0.007694,352.000000,326.000000,26.000000,2.000000,0.000000,0.000000:
// measure 0
0000
0000
0000
0000
,  // measure 1
0000
0000
0000
0000
,  // measure 2
0000
0000
0000
0000
,  // measure 3
0000
0000
0000
0000
,  // measure 4
0000
0000
0000
0000
0010
0100
0000
1000
,  // measure 5
0001
0000
0000
0010
0001
0000
0000
0100
,  // measure 6
0000
0010
1000
0100
0010
0001
0000
0001
,  // measure 7
1000
0000
0000
0010
0001
0010
0100
1000
,  // measure 8
0000
0000
0110
0000
1001
0100
0000
0010
,  // measure 9
0001
0000
0000
1000
0100
0000
0000
1001
,  // measure 10
0000
0000
0110
0000
0010
0100
0000
0001
,  // measure 11
0010
0100
1000
0100
2002
0000
0000
0000
,  // measure 12
0000
3003
0000
0000
1001
0001
0010
0100
,  // measure 13
1000
0000
0100
0000
1000
1000
0010
1000
,  // measure 14
0010
0000
0000
0000
0000
0010
0001
1000
,  // measure 15
0100
0000
1000
0001
1001
0000
0100
0000
,  // measure 16
0100
0000
0100
0000
1001
0100
0010
0100
,  // measure 17
0010
0000
0100
0000
1000
1000
0001
1000
,  // measure 18
0100
0000
0000
0000
0000
0010
1000
0100
,  // measure 19
1000
0000
0001
1000
0001
0000
0000
0000
,  // measure 20
0100
0100
0100
0000
0010
1000
0100
1000
,  // measure 21
0010
1000
0100
1000
0010
1000
0001
1000
,  // measure 22
0010
1000
0001
1000
0010
0001
0100
0001
,  // measure 23
0010
0001
0100
0001
0010
0100
0001
1000
,  // measure 24
0001
0000
0010
0000
0001
0000
0100
0000
0000
0000
0000
0000
0000
0000
0000
0010
0000
0000
1000
0000
0000
0100
0000
0000
,  // measure 25
0010
0000
0001
0100
0010
1000
0100
0001
,  // measure 26
0000
0000
0000
0000
0000
0010
0001
0100
,  // measure 27
0010
0000
1000
0100
0010
0001
0100
0010
,  // measure 28
0000
0000
0000
0000
0000
0010
1000
0100
,  // measure 29
0010
0000
0001
0100
0010
1000
0100
0001
,  // measure 30
0000
0000
0000
0000
0000
0010
0001
0100
,  // measure 31
0010
0000
1000
0100
0010
1001
0100
1001
,  // measure 32
0000
0000
0010
0100
0000
0001
1000
0000
,  // measure 33
0000
0010
0100
1000
0001
0100
1001
0000
,  // measure 34
0110
0000
0000
0010
0000
0000
0100
0000
,  // measure 35
0000
0000
1001
0000
0000
0110
0000
0000
,  // measure 36
1001
0000
1000
0100
0001
0000
0100
1000
,  // measure 37
0010
0000
1000
0001
0010
0001
1000
0010
,  // measure 38
1000
0100
1001
0000
0110
0000
1001
0000
,  // measure 39
0110
0000
0010
1000
0100
0001
0000
0000
,  // measure 40
0010
1000
0010
0000
0100
0001
0100
0000
,  // measure 41
0001
0010
0100
1000
0010
0100
0001
1000
,  // measure 42
0010
0000
0100
0010
0100
0000
0010
0000
,  // measure 43
1000
0100
0001
0100
1000
0010
1000
0100
,  // measure 44
0010
0000
1001
0000
0100
0100
0010
0000
,  // measure 45
0001
0000
0110
0000
1000
1000
0001
0000
,  // measure 46
0010
1000
0010
1000
0100
0010
0100
0010
,  // measure 47
0001
0010
0001
1000
0010
0010
1000
1000
,  // measure 48
0100
0000
0100
0000
1000
0100
0001
0000
,  // measure 49
0100
1000
0001
0010
0000
0000
0000
0000
,  // measure 50
0110
1100
0011
1001
,  // measure 51
0100
1000
0001
1000
0010
1000
0000
0000
,  // measure 52
0100
0001
0001
0000
0100
0001
0001
0000
,  // measure 53
0100
1000
1000
0000
0100
1000
1000
0000
,  // measure 54
0010
0010
0001
0001
,  // measure 55
0100
0100
1000
1000
,  // measure 56
0010
0010
0001
0100
1000
1000
0100
0001
,  // measure 57
0010
0010
0100
0000
0010
0010
0100
0000
,  // measure 58
0010
0010
0001
0100
1000
1000
0100
0001
,  // measure 59
0010
0000
0010
1000
0100
0001
0100
1000
,  // measure 60
0010
0001
0010
1000
0100
0000
1000
0010
,  // measure 61
0001
0000
0010
1000
0100
1000
0010
1000
,  // measure 62
0100
0010
1001
0000
0000
0000
0000
0000
;

//---------------dance-single - ----------------
#NOTES:
     dance-single:
     :
     Hard:
     9:
     0.560573,0.766337,0.530896,0.000000,0.361625,510.000000,441.000000,69.000000,0.000000,0.000000,0.000000,0.560573,0.766337,0.530896,0.000000,0.361625,510.000000,441.000000,69.000000,0.000000,0.000000,0.000000:
// measure 0
0000
0000
0000
0000
,  // measure 1
0000
0000
0000
0000
,  // measure 2
0000
0000
0000
0000
,  // measure 3
0000
0000
0000
0000
,  // measure 4
0000
0000
0000
0000
0010
1001
0000
0010
,  // measure 5
1001
0000
0000
0100
1001
0000
0100
1001
,  // measure 6
0000
0000
0000
0000
0001
1000
0001
0000
0010
0000
1001
0000
0000
0000
0010
0000
,  // measure 7
1001
0000
0000
0100
1001
0000
0100
1001
,  // measure 8
0000
0010
0100
0001
0010
1001
0100
0100
,  // measure 9
1001
0010
0010
0010
1001
0100
0100
1001
,  // measure 10
0000
0010
0001
1000
0010
0100
0000
0010
,  // measure 11
0100
0000
0000
0000
0000
0000
0000
0000
0001
0010
0100
1000
0001
0010
0100
1000
,  // measure 12
0001
0010
0100
1000
0001
0010
0100
1000
0010
0000
1000
0000
0001
0000
1000
0000
,  // measure 13
0001
0010
0010
0010
1000
1000
0010
1000
,  // measure 14
0100
0100
0001
0001
1000
0010
1000
0100
,  // measure 15
0001
1000
0010
0001
0100
1000
0100
0001
,  // measure 16
0100
0000
0010
0000
0100
0000
1000
0000
0000
0000
0010
1000
0100
0000
0001
0000
,  // measure 17
1000
1000
1000
1000
0001
0001
0010
0100
,  // measure 18
1000
0000
0010
1001
0000
0110
1001
0010
,  // measure 19
1001
0000
0010
0010
1001
0000
0000
0000
,  // measure 20
1000
0000
0001
0000
1000
0000
0000
0000
0010
0000
1000
0000
0100
0000
1000
0010
,  // measure 21
0000
0010
0100
0000
0001
1000
0001
0000
0001
0000
0001
0000
1000
0000
0100
0010
,  // measure 22
0000
0001
1000
0000
0100
0010
0100
0000
0010
1000
0100
0000
0100
1000
0010
0000
,  // measure 23
0001
0100
1000
0000
0100
0001
0010
0000
0010
0000
0010
0000
0100
0000
0000
0000
,  // measure 24
0010
0000
0000
1000
0000
0000
0100
0000
0000
1000
0000
0000
0001
0000
0000
0000
0100
0000
0000
0000
0010
0000
0000
0000
0000
0000
0000
0000
0000
0000
1001
0000
0000
0000
0000
0000
1001
0000
0000
0000
0000
0000
0110
0000
0000
0000
0000
0000
,  // measure 25
0110
0000
1100
1100
1001
1001
1100
1100
,  // measure 26
0000
0000
0000
0000
0000
0011
0011
1001
,  // measure 27
1001
0000
0110
0110
1001
1001
0101
0101
,  // measure 28
0000
0000
0000
0000
0000
0000
0000
0000
0000
0000
1000
0001
1000
0000
0100
0000
,  // measure 29
0010
0000
0010
0100
0010
0000
0100
0000
1000
0000
0100
0000
0001
0000
0100
0000
,  // measure 30
0000
0000
0000
0000
0000
0110
1001
1100
,  // measure 31
0011
0000
0000
0000
0101
0000
1010
0000
0010
1000
0001
0100
0010
0100
1001
0000
,  // measure 32
0000
0000
0010
1001
0000
0000
1001
0000
,  // measure 33
0000
0000
1001
0000
0000
1001
0000
0000
,  // measure 34
0110
0000
0010
1001
0000
0000
1001
0000
,  // measure 35
0000
0000
1001
0000
0000
1001
0000
0000
,  // measure 36
0001
0010
0100
1000
0010
0000
0000
0000
0010
0000
0000
0000
0001
0000
0100
0000
,  // measure 37
1000
0100
0010
0010
0010
0001
0010
0001
,  // measure 38
0010
0000
0001
0000
1000
0100
0001
0000
0010
0000
0100
0000
0100
0000
0001
0000
,  // measure 39
0010
0000
1000
0000
0001
1000
0100
1000
0010
1000
0001
0000
0000
0000
0000
0000
,  // measure 40
0001
0010
0100
1000
0010
1000
0001
1000
0100
1000
0010
0100
0001
1000
0100
0010
,  // measure 41
0001
1000
0010
1000
0100
0010
0001
1000
0000
0100
1000
0010
1000
0001
1000
0100
,  // measure 42
0010
0100
0010
0100
,  // measure 43
0001
1000
1010
0101
,  // measure 44
0001
1000
0000
0100
0000
0010
0000
0001
0100
1000
0100
0000
0010
0000
0000
0000
,  // measure 45
0010
1000
0000
0100
0000
0010
0000
1000
0001
1000
0001
0000
0010
0000
0000
0000
,  // measure 46
0010
1000
0100
0010
1000
0100
0010
0001
0100
0010
0001
0100
,  // measure 47
0001
0100
1000
0001
0100
1000
0001
0010
1000
0001
0010
1000
,  // measure 48
0010
0100
0010
0100
,  // measure 49
0010
0001
0010
0100
0010
1000
0010
0000
0000
0000
1001
0000
0110
0000
0110
0000
,  // measure 50
0010
0000
0000
1000
0100
0000
0010
0000
0001
0000
1000
0000
0010
0000
0000
0000
,  // measure 51
0100
0001
0010
0000
1000
0100
0001
0000
0010
1000
0100
0000
0000
0000
0000
0000
,  // measure 52
1001
0100
0100
0100
1001
0100
0100
0100
,  // measure 53
1001
0010
0010
0010
1001
0010
0010
0010
,  // measure 54
1000
0001
0001
0001
0010
0001
0001
0001
,  // measure 55
0100
0001
0001
0001
1000
0001
0001
0000
,  // measure 56
0010
1000
0010
0000
0001
0000
1000
0000
0010
0000
0010
0000
0100
0000
0001
0000
,  // measure 57
0100
0100
0010
0000
0100
0100
0010
0000
,  // measure 58
0001
0100
0001
0000
0010
0000
0100
0000
1000
0000
1000
0000
0010
0000
1000
0000
,  // measure 59
0100
0010
0100
0010
,  // measure 60
0100
0000
1001
1001
0110
0000
1001
1001
,  // measure 61
0110
0000
0000
0000
0001
1000
0010
1000
0100
1000
0001
1000
0010
0100
0001
1000
,  // measure 62
0010
1000
0100
0010
1001
0000
0000
0000
0000
0000
0000
0000
0000
0000
0000
0000
;
