#TITLE:CANDY☆;
#SUBTITLE:(Planet Remix);
#ARTIST:Luv UNLIMITED;
#TITLETRANSLIT:Candy;
#SUBTITLETRANSLIT:;
#ARTISTTRANSLIT:;
#GENRE:;
#CREDIT:;
#BANNER:Candyplanetremix bn2.png;
#BACKGROUND:Candyplanetremix bg.png;
#LYRICSPATH:;
#CDTITLE:;
#MUSIC:Luv Unlimited - Candy (Planet Remix).mp3;
#OFFSET:-0.440000;
#SAMPLESTART:60.920002;
#SAMPLELENGTH:12.000000;
#SELECTABLE:YES;
#BPMS:0.000000=198.440002
;
#STOPS:
;
#BGCHANGES:;
#KEYSOUNDS:;
#ATTACKS:;

//---------------dance-single - ----------------
#NOTES:
     dance-single:
     :
     Easy:
     5:
     0.402950,0.435137,0.206389,0.389846,0.000000,246.000000,228.000000,18.000000,34.000000,0.000000,0.000000,0.402950,0.435137,0.206389,0.389846,0.000000,246.000000,228.000000,18.000000,34.000000,0.000000,0.000000:
// measure 0
0000
0000
0000
0000
,  // measure 1
0000
0000
0000
0000
,  // measure 2
0000
0000
0000
0000
,  // measure 3
0000
0000
0000
0000
,  // measure 4
0001
0001
0100
1000
,  // measure 5
0001
0001
0100
1000
,  // measure 6
0001
0001
0100
0010
,  // measure 7
1001
0100
0200
0300
,  // measure 8
1000
0000
0000
1000
,  // measure 9
0001
0000
0000
0001
,  // measure 10
1000
0010
0100
0000
,  // measure 11
0001
0010
0100
0100
,  // measure 12
1000
0001
0100
0000
,  // measure 13
0001
1000
0100
0100
,  // measure 14
1000
0100
0001
0000
,  // measure 15
0100
0010
0001
1000
,  // measure 16
0001
0010
1000
0000
,  // measure 17
0010
0001
0100
0110
,  // measure 18
0001
0010
1000
0000
,  // measure 19
0001
0010
1000
0001
,  // measure 20
1000
0010
0001
0000
,  // measure 21
1000
0010
0001
1000
,  // measure 22
0001
0100
1000
0000
,  // measure 23
0001
0100
1000
0001
,  // measure 24
1000
0100
0001
0010
,  // measure 25
0100
0110
2002
3003
,  // measure 26
0001
0100
2000
3000
,  // measure 27
0001
0010
2000
3000
,  // measure 28
0001
0010
0100
0010
,  // measure 29
0001
1000
2002
3003
,  // measure 30
2000
0000
3002
0000
,  // measure 31
0103
0100
0010
1000
,  // measure 32
0001
0010
0100
1000
,  // measure 33
1000
0010
0100
0001
,  // measure 34
1000
0100
2200
3300
,  // measure 35
0001
0100
0202
0303
,  // measure 36
0001
0010
0200
1300
,  // measure 37
0010
0100
0220
0330
,  // measure 38
0002
0000
2003
0000
,  // measure 39
3100
0010
0001
1000
,  // measure 40
0010
0100
0001
1000
,  // measure 41
0001
0010
0100
1000
,  // measure 42
0001
0001
0100
0100
,  // measure 43
0001
0001
0010
0010
,  // measure 44
0100
0100
1000
1000
,  // measure 45
0100
0100
0010
0010
,  // measure 46
0001
0100
0001
0001
,  // measure 47
1000
0010
1000
1000
,  // measure 48
0001
0001
1000
1000
,  // measure 49
0100
0100
0001
0001
,  // measure 50
1000
0010
2002
3003
,  // measure 51
0001
0010
2002
3003
,  // measure 52
1000
0100
1001
0001
,  // measure 53
0010
0100
2002
3003
,  // measure 54
2000
0000
3002
0000
,  // measure 55
1003
0100
0010
0001
,  // measure 56
1000
0010
0100
0001
,  // measure 57
0010
0100
1000
0100
,  // measure 58
0010
1001
2002
3003
,  // measure 59
0010
0100
2002
3003
,  // measure 60
0010
0100
1001
0010
,  // measure 61
0001
1000
2002
3003
,  // measure 62
2000
0000
3002
0000
,  // measure 63
1003
0100
0010
0001
,  // measure 64
0010
0100
1000
0100
,  // measure 65
0001
0010
1000
0100
,  // measure 66
0001
0001
0010
1000
,  // measure 67
0001
0001
0100
1000
,  // measure 68
0001
0010
1000
0100
,  // measure 69
1001
0000
0000
0000
;

//---------------dance-single - ----------------
#NOTES:
     dance-single:
     :
     Medium:
     6:
     0.666669,0.712042,1.708441,0.114660,0.000000,407.000000,258.000000,149.000000,10.000000,0.000000,0.000000,0.666669,0.712042,1.708441,0.114660,0.000000,407.000000,258.000000,149.000000,10.000000,0.000000,0.000000:
// measure 0
0000
0000
0000
0000
,  // measure 1
0000
0000
0000
0000
,  // measure 2
0000
0000
0000
0000
,  // measure 3
0000
0000
0000
0000
,  // measure 4
1001
1001
0100
0010
,  // measure 5
1001
1001
0100
0010
,  // measure 6
1001
1001
0001
0100
,  // measure 7
1010
1100
0101
0011
,  // measure 8
1001
0000
0000
1000
0000
0000
1000
0000
,  // measure 9
0001
0000
0000
0001
0000
0000
0001
0000
,  // measure 10
1000
0010
0100
0101
,  // measure 11
0001
0010
0100
1100
,  // measure 12
1000
0001
0100
0110
,  // measure 13
0001
1000
0100
0110
,  // measure 14
1001
0010
0100
1100
,  // measure 15
1001
0010
0100
0101
,  // measure 16
0110
0001
1010
0001
,  // measure 17
0110
1000
0011
1000
,  // measure 18
1001
0010
0110
0100
,  // measure 19
1001
1010
1001
0001
,  // measure 20
1001
1000
0110
0100
,  // measure 21
1001
0011
1001
1000
,  // measure 22
1001
0010
1001
0100
,  // measure 23
1100
0011
1001
0100
,  // measure 24
1001
0010
1001
0100
,  // measure 25
0101
1010
2002
3003
,  // measure 26
1001
0101
0110
0100
,  // measure 27
1001
1100
0110
0100
,  // measure 28
1001
0011
0110
0100
,  // measure 29
1001
1010
0110
0100
,  // measure 30
0002
1003
2000
3001
,  // measure 31
0010
1001
0011
0010
,  // measure 32
1001
0101
1100
0001
,  // measure 33
0010
0100
1001
0110
,  // measure 34
1001
0010
1001
0100
,  // measure 35
1001
0011
1100
0100
,  // measure 36
1001
0010
1001
0100
,  // measure 37
1001
1010
0101
0100
,  // measure 38
0002
1003
2000
3001
,  // measure 39
0010
1001
1010
0110
,  // measure 40
1001
0010
0100
1000
,  // measure 41
0010
0100
1001
0110
,  // measure 42
1001
1000
1100
0001
,  // measure 43
0101
1000
1100
0001
,  // measure 44
1001
0001
0101
1000
,  // measure 45
1100
0001
0101
1000
,  // measure 46
1001
0001
1100
0001
,  // measure 47
1100
0001
1100
0011
,  // measure 48
1001
1000
0101
1000
,  // measure 49
0101
1000
0101
1010
,  // measure 50
1001
0011
0110
0100
,  // measure 51
1001
1010
0110
0100
,  // measure 52
1001
0101
0110
0100
,  // measure 53
1001
1100
0110
0100
,  // measure 54
2000
3001
0002
1003
,  // measure 55
0010
0110
1010
0101
,  // measure 56
1001
0010
1001
0100
,  // measure 57
0011
0011
1100
1100
,  // measure 58
1001
1010
0101
0100
,  // measure 59
1001
1010
0110
0100
,  // measure 60
1001
0011
1100
0100
,  // measure 61
1001
0011
0110
0100
,  // measure 62
2000
3001
0002
1003
,  // measure 63
0100
0110
0011
1001
,  // measure 64
1010
0110
1100
1010
,  // measure 65
1001
0110
1001
0110
,  // measure 66
1001
1000
0100
1100
,  // measure 67
1001
0001
0100
0101
,  // measure 68
1001
1100
1001
0101
,  // measure 69
1001
0000
0000
0000
;

//---------------dance-single - ----------------
#NOTES:
     dance-single:
     :
     Hard:
     9:
     0.665031,0.672484,0.458642,0.332515,0.000000,406.000000,366.000000,40.000000,29.000000,0.000000,0.000000,0.665031,0.672484,0.458642,0.332515,0.000000,406.000000,366.000000,40.000000,29.000000,0.000000,0.000000:
// measure 0
0000
0000
0000
0000
,  // measure 1
0000
0000
0000
0000
,  // measure 2
0000
0000
0000
0000
,  // measure 3
0000
0000
0000
0000
,  // measure 4
1001
0000
1001
0000
0100
1000
0001
0010
,  // measure 5
0000
1001
0000
0001
0100
0010
1000
0001
,  // measure 6
0010
0000
0110
0000
0100
1000
0010
0100
,  // measure 7
0001
0010
0100
1000
0000
1000
0001
0100
,  // measure 8
0001
0000
0001
0100
0000
0001
0100
0000
,  // measure 9
0001
0000
0001
1000
0000
0010
1000
0000
,  // measure 10
0100
0000
1001
0000
0001
0100
1000
0100
,  // measure 11
0000
0100
0010
0000
1000
0001
0100
0001
,  // measure 12
0010
0000
1001
0000
1000
0100
0001
0100
,  // measure 13
0000
0100
0010
0000
0001
1000
0100
1000
,  // measure 14
0001
0000
0110
0000
1000
0010
0100
0010
,  // measure 15
0000
0010
1000
0000
0001
0100
0010
1000
,  // measure 16
0001
0000
0110
0000
1000
0100
1000
0001
,  // measure 17
0000
0001
0010
0100
1000
0001
1000
0100
,  // measure 18
0020
0000
0031
0000
1000
0100
1000
0010
,  // measure 19
0000
0010
0001
0000
0010
1000
0100
1000
,  // measure 20
0020
0000
1030
0000
0001
0100
0001
0010
,  // measure 21
0000
0010
1000
0000
0010
0001
0100
0001
,  // measure 22
2000
0000
3001
0000
0100
0001
0010
1000
,  // measure 23
0000
1000
0010
0000
0001
0100
0010
0100
,  // measure 24
0002
0000
1003
0000
0100
1000
0010
0001
,  // measure 25
0000
0001
1000
2002
0000
0000
3003
0000
,  // measure 26
0010
0000
2001
0000
3100
0000
0001
0010
,  // measure 27
0000
0010
0001
0000
0200
0000
1300
0000
,  // measure 28
0010
0000
1002
0000
0103
0000
1000
0010
,  // measure 29
0000
0010
1000
0000
0200
0000
0301
0000
,  // measure 30
2000
0000
0000
3001
0200
0000
0310
0000
,  // measure 31
1000
1001
1100
0110
,  // measure 32
0010
0000
1001
0000
0100
0000
0010
0001
,  // measure 33
0000
0001
1000
0000
1001
0000
0110
0000
,  // measure 34
1001
0000
1000
0000
0100
0010
0001
1000
,  // measure 35
0000
1000
0001
0000
0100
0010
1000
0001
,  // measure 36
0020
0000
0130
1000
0001
0000
0001
0100
,  // measure 37
0000
0010
1000
0000
1001
0000
1000
0000
,  // measure 38
0002
0000
0000
1003
0200
0000
0310
0000
,  // measure 39
0001
1000
1100
1001
,  // measure 40
0001
0010
0100
1000
0001
0010
0100
0010
,  // measure 41
0000
0010
0001
1000
0002
0000
0203
0000
,  // measure 42
0310
0000
1000
0010
0000
1000
0010
0000
,  // measure 43
1000
0010
0000
1000
0010
0000
1010
0000
,  // measure 44
0100
0000
0001
0100
0000
0001
0100
0000
,  // measure 45
0001
0100
0000
0001
0100
0000
0101
0000
,  // measure 46
1001
0000
0001
0010
0000
0001
1000
0000
,  // measure 47
0001
0010
0000
0001
0100
0000
0110
0000
,  // measure 48
1001
0000
1000
0100
0000
1000
0001
0000
,  // measure 49
1000
0010
0000
0110
0000
0010
0100
0000
,  // measure 50
1001
0000
1100
0000
0120
0000
0031
1000
,  // measure 51
0000
1000
0001
0000
0100
0010
1000
0001
,  // measure 52
1001
0000
0101
0000
0120
0000
1030
0001
,  // measure 53
0000
0001
1000
0000
0100
0010
0001
1000
,  // measure 54
2001
0000
3001
0100
0010
0100
0001
0010
,  // measure 55
0100
1000
0002
0000
2003
0000
3020
0000
,  // measure 56
0130
0001
0010
0100
1000
0000
0100
0010
,  // measure 57
0000
0010
0100
0000
1001
0000
0110
0000
,  // measure 58
1001
0000
1000
0001
0200
0000
0301
0010
,  // measure 59
0000
0010
0100
0000
1000
0100
1000
0001
,  // measure 60
1001
0000
0001
1000
0200
0000
1300
0010
,  // measure 61
0000
0010
0100
0000
0001
0100
0001
1000
,  // measure 62
1002
0000
1003
0100
0010
0100
1000
0010
,  // measure 63
0100
0001
2000
0000
3200
0000
0320
0000
,  // measure 64
0031
0010
0100
1000
0100
0010
0001
1000
,  // measure 65
0001
1000
0100
0010
0001
1000
0100
1000
,  // measure 66
0010
0000
0001
0010
0000
1000
0010
0100
,  // measure 67
0001
1000
0001
0100
0000
0100
0010
1000
,  // measure 68
0001
0010
0100
1000
0100
0010
0001
0100
,  // measure 69
1001
0000
0000
0000
;
