#TITLE:Can't Stop Fallin' In Love;
#SUBTITLE:(Super Euro Version);
#ARTIST:Naoki;
#TITLETRANSLIT:;
#SUBTITLETRANSLIT:;
#ARTISTTRANSLIT:;
#GENRE:;
#CREDIT:;
#BANNER:cantstfiloveuro bn.png;
#BACKGROUND:cantstfiloveuro bg.png;
#LYRICSPATH:;
#CDTITLE:;
#MUSIC:cantstfiloveuro .mp3;
#OFFSET:-0.160000;
#SAMPLESTART:51.230000;
#SAMPLELENGTH:12.000000;
#SELECTABLE:YES;
#BPMS:0.000000=155.000000
;
#STOPS:
;
#BGCHANGES:;
#KEYSOUNDS:;
#ATTACKS:;

//---------------dance-single - ----------------
#NOTES:
     dance-single:
     :
     Easy:
     4:
     0.369448,0.473724,0.522730,0.000000,0.000000,282.000000,225.000000,57.000000,0.000000,0.000000,0.000000,0.369448,0.473724,0.522730,0.000000,0.000000,282.000000,225.000000,57.000000,0.000000,0.000000,0.000000:
// measure 0
0000
0000
0000
0000
,  // measure 1
0000
0000
0000
0000
,  // measure 2
0000
0000
0000
0000
,  // measure 3
0000
0000
0000
0000
,  // measure 4
0000
0000
0000
0000
,  // measure 5
1001
0100
0000
0100
,  // measure 6
1001
0010
0000
0010
,  // measure 7
1010
1000
0000
1000
,  // measure 8
1001
0001
0000
0110
,  // measure 9
1001
0110
1001
0000
,  // measure 10
0100
0000
0010
0000
,  // measure 11
1001
0110
1001
0000
,  // measure 12
0100
0000
0010
0000
,  // measure 13
1100
0101
1100
0000
,  // measure 14
0001
0000
1000
0000
,  // measure 15
1010
0101
0011
1100
,  // measure 16
0010
0010
0100
0100
,  // measure 17
1001
1000
1000
1000
,  // measure 18
0001
0010
0100
0100
,  // measure 19
0001
0000
1000
0000
,  // measure 20
0010
0100
0001
0010
,  // measure 21
0100
1000
1000
1000
,  // measure 22
0100
1000
0100
1000
,  // measure 23
0010
0001
0100
0001
,  // measure 24
0100
0000
0010
0000
,  // measure 25
1001
0100
0101
0100
,  // measure 26
1001
0100
0101
0100
,  // measure 27
1001
0010
1001
0010
,  // measure 28
1001
0000
1001
0000
,  // measure 29
1001
1000
0001
0100
,  // measure 30
0010
0010
0001
1000
,  // measure 31
0010
0000
0010
0000
,  // measure 32
1001
0110
1001
0000
,  // measure 33
1100
1000
0001
0101
,  // measure 34
1100
1000
0001
0101
,  // measure 35
1000
1010
0011
0001
,  // measure 36
1000
1010
0011
0001
,  // measure 37
0010
0001
0100
0001
,  // measure 38
0010
1000
0100
1000
,  // measure 39
0010
0100
0010
0100
,  // measure 40
0000
0001
0000
1000
,  // measure 41
0000
0100
0010
0001
,  // measure 42
1000
1000
0001
0001
,  // measure 43
0010
0010
1001
0100
,  // measure 44
1001
0110
1001
0110
,  // measure 45
1001
0100
0100
0010
,  // measure 46
0001
0000
1000
0000
,  // measure 47
0010
1000
0100
1000
,  // measure 48
0001
0001
0100
1000
,  // measure 49
1001
0001
0100
1000
,  // measure 50
1001
0001
0100
1000
,  // measure 51
1001
1000
0010
0001
,  // measure 52
1001
1000
0010
0001
,  // measure 53
0010
0001
0010
0001
,  // measure 54
1000
0100
1000
0100
,  // measure 55
0001
0100
1000
0100
,  // measure 56
0001
0010
1000
0010
,  // measure 57
1001
0100
1001
0010
,  // measure 58
1001
0100
1001
0010
,  // measure 59
1001
1000
1100
1000
,  // measure 60
0101
0001
0101
0001
,  // measure 61
0010
0010
0001
0001
,  // measure 62
0010
0010
0100
0000
,  // measure 63
0010
0000
0100
0000
,  // measure 64
1000
0001
1000
1000
,  // measure 65
0010
0100
0010
0000
,  // measure 66
0001
0001
1000
1000
,  // measure 67
0010
0100
0010
0000
,  // measure 68
1000
0000
1000
0000
0100
0000
0100
0100
;

//---------------dance-single - ----------------
#NOTES:
     dance-single:
     :
     Medium:
     7:
     0.497838,0.505305,0.696973,0.000000,0.027512,380.000000,304.000000,76.000000,0.000000,0.000000,0.000000,0.497838,0.505305,0.696973,0.000000,0.027512,380.000000,304.000000,76.000000,0.000000,0.000000,0.000000:
// measure 0
0000
0000
0000
0000
,  // measure 1
0000
0000
0000
0000
,  // measure 2
0000
0000
0000
0000
,  // measure 3
0000
0000
0000
0000
,  // measure 4
0000
0000
0000
0000
,  // measure 5
1000
0000
0000
0010
0000
0000
0100
0000
0000
0000
0001
0000
0010
0000
0100
0000
,  // measure 6
1000
0000
0000
0010
0000
0000
0100
0000
0000
0000
0001
0000
0010
0000
0100
0000
,  // measure 7
1000
0000
0000
0010
0000
0000
0100
0000
0000
0000
0001
0000
0010
0000
0100
0000
,  // measure 8
1000
0000
0010
0100
0000
0001
1000
0001
,  // measure 9
1001
0000
0110
0000
1001
0000
0000
1100
,  // measure 10
0000
0010
0010
0000
1001
0000
0110
0000
,  // measure 11
1001
0000
0110
0000
1001
0000
0000
0011
,  // measure 12
0000
0100
0100
0000
1001
0000
0110
0000
,  // measure 13
1001
0000
0110
0000
1001
0000
0000
1100
,  // measure 14
0000
0010
0010
0000
1001
0000
0110
0000
,  // measure 15
1001
0000
0000
0010
0010
0000
0000
0000
,  // measure 16
0010
1000
0100
0001
0100
1000
0010
0000
,  // measure 17
1000
1100
0001
0101
,  // measure 18
1000
1100
0001
0101
,  // measure 19
0100
0100
0001
0000
1000
1000
0010
0000
,  // measure 20
0100
0001
0001
0000
1000
0010
0010
0000
,  // measure 21
0010
1001
0010
1001
,  // measure 22
0100
1001
0100
1001
,  // measure 23
0010
1000
0100
0000
0001
0100
1000
0000
,  // measure 24
0010
1000
0100
0000
0001
0100
1000
0000
,  // measure 25
1001
0000
0110
0000
1001
0000
1000
0001
,  // measure 26
0000
0010
0000
0100
1000
0000
1001
0000
,  // measure 27
0010
0000
1010
0000
0010
0100
0010
0000
,  // measure 28
0001
1000
0000
0010
0000
0001
0000
0100
,  // measure 29
1000
0000
0110
0000
1001
0000
0010
1000
,  // measure 30
0000
1010
0000
1001
0000
0101
0000
0010
,  // measure 31
0010
0000
1001
0000
0001
0010
0100
1000
,  // measure 32
0000
0010
0100
0010
0000
0100
0100
0000
,  // measure 33
0010
0000
1000
0010
0000
0010
1000
0100
,  // measure 34
0010
1001
0100
1001
,  // measure 35
0010
0000
0001
0010
0000
0100
0000
0010
,  // measure 36
0100
1001
0010
1001
,  // measure 37
0010
0000
0100
1000
0000
0001
0000
0100
,  // measure 38
0000
0010
0000
0010
0100
0000
0100
0010
,  // measure 39
0000
0010
0100
0000
1001
0000
1000
0010
,  // measure 40
0000
0100
0100
0000
1001
0000
0000
0000
,  // measure 41
0010
0000
0000
1000
0000
0000
0001
0000
,  // measure 42
0000
0100
0000
0000
0010
0000
1000
0000
,  // measure 43
0001
0000
0000
0100
0000
0000
0010
0000
,  // measure 44
1001
0100
1001
0010
,  // measure 45
1000
0100
0001
0100
,  // measure 46
1000
0001
0100
0100
,  // measure 47
0010
1000
0100
0001
0100
1000
0010
0001
,  // measure 48
0010
0010
0000
0100
0000
1001
0000
0000
,  // measure 49
1000
0101
0001
1100
,  // measure 50
1000
0101
0001
1100
,  // measure 51
1000
0011
0001
1010
,  // measure 52
1000
0011
0001
1010
,  // measure 53
0010
0000
0100
0001
0000
1000
0000
0010
,  // measure 54
0000
0100
0000
0100
1000
0001
0100
0010
,  // measure 55
0000
0001
0100
0000
0010
1000
0100
0010
,  // measure 56
0000
0100
0100
0000
1001
0000
0110
0000
,  // measure 57
1001
0000
0110
0000
1001
0000
0000
1100
,  // measure 58
0000
0010
0010
0000
1001
0000
0110
0000
,  // measure 59
1001
0000
0110
0000
1001
0000
0000
0011
,  // measure 60
0000
0100
0100
0000
1001
0000
0110
0000
,  // measure 61
1001
0000
0110
0000
1001
0000
0000
1100
,  // measure 62
0000
0010
0010
0000
1001
0000
0110
0000
,  // measure 63
1001
0000
0000
0010
0010
0000
0000
0000
,  // measure 64
0010
1000
0100
0001
0100
1000
0010
0000
,  // measure 65
1000
0000
0000
0010
0000
0000
0100
0000
0000
0000
0001
0000
0010
0000
0100
0000
,  // measure 66
1000
0000
0000
0010
0000
0000
0100
0000
0000
0000
0001
0000
0010
0000
0100
0000
,  // measure 67
1000
0000
0000
0010
0000
0000
0100
0000
0000
0000
0001
0000
0010
0000
0100
0000
,  // measure 68
1000
1000
0010
0100
0001
1000
0010
0100
;

//---------------dance-single - ----------------
#NOTES:
     dance-single:
     :
     Hard:
     10:
     0.859425,0.916697,1.192190,0.000000,0.380584,656.000000,526.000000,130.000000,0.000000,0.000000,0.000000,0.859425,0.916697,1.192190,0.000000,0.380584,656.000000,526.000000,130.000000,0.000000,0.000000,0.000000:
// measure 0
0000
0000
0000
0000
,  // measure 1
0000
0000
0000
0000
,  // measure 2
0000
0000
0000
0000
,  // measure 3
0000
0000
0000
0000
,  // measure 4
0000
0000
0000
0000
,  // measure 5
0010
1000
0000
0001
0100
0000
0010
1000
0000
0100
0010
0000
0001
0000
0100
0000
,  // measure 6
0010
0100
0000
0001
1000
0000
0100
1000
0000
0010
0100
0000
0001
0000
1000
0000
,  // measure 7
0001
0010
0000
0100
1000
0000
0010
1000
0000
0001
0100
0000
0010
0000
0100
0000
,  // measure 8
0001
0100
0000
0010
1000
0000
1000
0100
0000
0010
0001
0000
0001
0000
1000
0000
,  // measure 9
1100
0001
0101
0010
1001
0000
0000
1010
,  // measure 10
0010
0100
1100
0010
1001
0000
1010
0001
,  // measure 11
0110
1000
1100
0000
1001
0001
0001
1001
,  // measure 12
0010
1010
0101
0001
1001
1000
1001
0001
,  // measure 13
1001
1000
1001
0010
0110
0000
0000
0001
,  // measure 14
0000
0010
1001
1000
1001
0010
0011
0100
,  // measure 15
1100
0100
0100
1001
1001
0000
1000
0000
,  // measure 16
0001
0010
0100
1000
0010
1000
0001
0100
0010
1000
0001
0100
0010
1000
0100
0010
,  // measure 17
0001
0000
0100
0000
0010
1000
0010
0000
0100
0000
0001
0000
0010
0001
0010
0000
,  // measure 18
0100
0000
1000
0000
0010
1000
0010
0000
0100
0000
0001
0000
1000
0100
1000
0000
,  // measure 19
0010
0000
0100
0000
0010
0100
0010
0000
1000
0000
0100
0000
1000
0100
1000
0000
,  // measure 20
0100
0000
0001
0000
1000
0010
1000
0000
0001
0000
0100
0000
0010
1000
0010
0000
,  // measure 21
0100
0000
0001
0000
0010
0100
0001
0000
1000
0000
0100
0000
0010
0001
0100
0000
,  // measure 22
0010
0000
1000
0000
0001
0100
0010
0000
1000
0000
0100
0000
1000
0010
0100
0000
,  // measure 23
0001
0000
0010
0000
0100
1000
0010
0000
0100
0000
0010
0000
1000
0001
0100
0000
,  // measure 24
0010
0010
0100
0100
0001
0001
1000
1000
,  // measure 25
1001
1000
1100
0100
0101
0001
0011
0010
,  // measure 26
1001
1000
0010
0100
0001
0010
0100
0100
,  // measure 27
1001
1000
1010
0010
0011
0001
0101
0100
,  // measure 28
1001
0110
0000
1100
0000
0011
0000
0000
,  // measure 29
1001
0100
1100
0100
0101
0100
0010
0110
,  // measure 30
1001
1000
0010
0100
0001
0101
0001
0010
,  // measure 31
1010
1010
0011
0011
0110
1001
0000
0110
,  // measure 32
0000
0100
0100
1001
0000
0100
1001
0000
,  // measure 33
1000
1000
1001
0001
1000
1001
1000
0001
,  // measure 34
0010
0010
0100
0000
0010
0010
1001
0000
,  // measure 35
0001
0001
1001
1000
0001
1001
0001
1000
,  // measure 36
0010
0010
0100
0000
0010
0010
1001
0000
,  // measure 37
0010
0010
0100
1100
0000
0101
0000
1001
,  // measure 38
0000
0110
0000
1001
0001
0010
0110
0000
,  // measure 39
0110
0100
1001
0000
1001
1000
0110
0000
,  // measure 40
0110
0010
1001
0000
1001
1001
0110
0000
,  // measure 41
1010
1010
1000
0101
0101
0001
1001
1001
,  // measure 42
1000
1100
0100
0100
0110
0010
1001
0000
,  // measure 43
0010
1000
0100
0001
0100
1000
0010
0001
,  // measure 44
0100
1000
0100
0001
0010
1000
0100
0001
,  // measure 45
0010
1000
0100
0000
0010
0001
0100
0000
0010
1000
0100
0000
0010
0001
0100
0000
,  // measure 46
0001
0100
0001
0000
0010
0001
0010
0000
1000
0010
1000
0000
0100
1000
0100
0000
,  // measure 47
0010
0100
0001
1000
0010
0100
0001
1000
0010
1000
0100
0010
0001
1000
0010
0100
,  // measure 48
0010
1001
0000
0100
0000
1001
0000
0000
,  // measure 49
1010
0010
0100
0101
0100
0010
1010
1001
,  // measure 50
1000
1000
0110
0000
0001
0001
0110
0000
,  // measure 51
0011
0010
0100
1100
0100
0010
0011
1001
,  // measure 52
0001
0001
0110
0000
1000
1000
0110
0000
,  // measure 53
1001
1001
0110
1001
0000
0110
0000
1001
,  // measure 54
0000
0000
0010
0000
0100
0000
0001
0000
0010
0100
1000
0001
0100
0000
0100
0000
,  // measure 55
1001
0100
0100
0000
1001
0100
0100
0000
,  // measure 56
1001
0010
0010
0000
1001
0010
0010
0000
,  // measure 57
1100
0001
0101
0010
1001
0000
0000
1010
,  // measure 58
0010
0100
1100
0010
1001
0000
1010
0001
,  // measure 59
0110
1000
1100
0000
1001
0001
0001
1001
,  // measure 60
0010
1010
0101
0001
1001
1000
1001
0001
,  // measure 61
1001
1000
1001
0010
0110
0000
0000
0001
,  // measure 62
0000
0010
1001
1000
1001
0010
0011
0100
,  // measure 63
1100
0100
0100
1001
1001
0000
1000
0000
,  // measure 64
0001
0010
0100
1000
0010
1000
0001
0100
0010
1000
0001
0100
0010
1000
0100
0000
,  // measure 65
0010
1000
0000
0001
0100
0000
0010
1000
0000
0100
0010
0000
0001
0000
0100
0000
,  // measure 66
0010
0100
0000
0001
1000
0000
0100
1000
0000
0010
0100
0000
0001
0000
1000
0000
,  // measure 67
0001
0010
0000
0100
1000
0000
0010
1000
0000
0001
0100
0000
0010
0000
0100
0000
,  // measure 68
0010
1000
0100
1000
0010
1000
0001
0100
0001
0010
0100
1000
0010
0100
0001
1000
;
