#TITLE:Buffalo Bill;
#SUBTITLE:(Momo Re-Edit);
#ARTIST:Zippers;
#TITLETRANSLIT:;
#SUBTITLETRANSLIT:;
#ARTISTTRANSLIT:;
#GENRE:;
#CREDIT:;
#BANNER:buffalobill bn2.png;
#BACKGROUND:buffalobill bg.png;
#LYRICSPATH:;
#CDTITLE:;
#MUSIC:Zippers - Buffalo Bill (Momo Re-Edit).mp3;
#OFFSET:-2.585000;
#SAMPLESTART:44.200001;
#SAMPLELENGTH:12.000000;
#SELECTABLE:YES;
#BPMS:0.000000=150.000000
;
#STOPS:
;
#BGCHANGES:;
#KEYSOUNDS:;
#ATTACKS:;

//---------------dance-single - ----------------
#NOTES:
     dance-single:
     :
     Easy:
     3:
     0.281703,0.318897,0.156857,0.313715,0.000000,176.000000,162.000000,14.000000,28.000000,0.000000,0.000000,0.281703,0.318897,0.156857,0.313715,0.000000,176.000000,162.000000,14.000000,28.000000,0.000000,0.000000:
// measure 0
0000
0000
0000
0000
,  // measure 1
0000
0000
0000
0000
,  // measure 2
0000
0000
0000
0000
,  // measure 3
0000
0000
0000
0000
,  // measure 4
0020
0030
0200
0300
,  // measure 5
1000
0001
0100
1000
,  // measure 6
0020
0030
0200
0300
,  // measure 7
1000
1000
0001
0010
,  // measure 8
1001
0000
1001
0000
,  // measure 9
1001
0000
0100
1001
,  // measure 10
2000
3000
0002
0003
,  // measure 11
0100
0010
1000
0001
,  // measure 12
0020
0030
0200
0300
,  // measure 13
1000
1000
0100
0010
,  // measure 14
0002
1003
2000
3001
,  // measure 15
0100
0100
0010
0100
,  // measure 16
0002
0013
0020
0130
,  // measure 17
1000
1000
0010
0100
,  // measure 18
1001
1000
1000
0001
,  // measure 19
0100
0100
0010
0100
,  // measure 20
0001
0010
0010
0100
,  // measure 21
1000
1000
0010
0100
,  // measure 22
1001
0001
0001
0100
,  // measure 23
0010
0100
0001
1000
,  // measure 24
0020
0030
0200
0300
,  // measure 25
0002
0000
2000
3003
,  // measure 26
2000
3000
0002
0003
,  // measure 27
0010
0010
0100
1000
,  // measure 28
0020
0030
0200
0300
,  // measure 29
0001
0001
0010
0100
,  // measure 30
1000
1000
0100
0100
,  // measure 31
0010
0100
1000
0100
,  // measure 32
0001
0001
0100
0100
,  // measure 33
1000
0010
0010
0100
,  // measure 34
0020
0030
0200
0300
,  // measure 35
0001
0001
0010
0100
,  // measure 36
2000
3000
0002
0003
,  // measure 37
0100
0100
0010
0100
,  // measure 38
0002
0003
0020
0030
,  // measure 39
0100
0100
1000
0001
,  // measure 40
2000
3000
0200
0300
,  // measure 41
1000
1000
0010
0100
,  // measure 42
0001
1001
0100
0100
,  // measure 43
1000
0010
0100
0100
,  // measure 44
0001
1001
0100
0100
,  // measure 45
0010
0001
0010
0100
,  // measure 46
1000
1001
0100
0100
,  // measure 47
0001
0001
0010
0100
,  // measure 48
1000
1001
0100
0100
,  // measure 49
0001
1000
0010
0100
,  // measure 50
1001
0000
1001
0000
,  // measure 51
1001
0000
0100
1001
;

//---------------dance-single - ----------------
#NOTES:
     dance-single:
     :
     Medium:
     5:
     0.448164,0.434859,0.448164,0.280103,0.033612,280.000000,240.000000,40.000000,25.000000,0.000000,0.000000,0.448164,0.434859,0.448164,0.280103,0.033612,280.000000,240.000000,40.000000,25.000000,0.000000,0.000000:
// measure 0
0000
0000
0000
0000
,  // measure 1
0000
0000
0000
0000
,  // measure 2
0000
0000
0000
0000
,  // measure 3
0000
0000
0000
0000
,  // measure 4
0010
1001
0100
1001
,  // measure 5
0010
0000
1001
0000
0010
0100
1000
0001
,  // measure 6
0010
1001
0100
1001
,  // measure 7
0010
0000
1001
0000
0010
0100
1000
0000
,  // measure 8
0001
0000
0000
1000
0000
0000
0100
0000
1000
0000
0000
0001
0000
0000
0100
0000
,  // measure 9
0001
0000
0000
1000
0000
0000
0010
0000
0100
0000
0000
0000
1001
0000
0000
0000
,  // measure 10
1000
0100
1000
0000
0010
0000
0010
0000
,  // measure 11
0100
0001
0100
0000
0010
0000
0010
0000
,  // measure 12
1000
0001
0100
0000
0010
1000
0001
0000
,  // measure 13
0100
1001
0200
2300
,  // measure 14
3001
0000
1001
0000
1000
0100
1000
0000
,  // measure 15
0001
0000
0101
0000
0001
0010
0100
0000
,  // measure 16
1000
0000
1010
0000
0010
0100
0001
0000
,  // measure 17
1000
0100
0010
0000
0001
1000
0100
0000
,  // measure 18
1001
0000
1000
1000
1000
0000
0100
0000
,  // measure 19
0001
0010
0100
0000
1000
0000
0100
0000
,  // measure 20
1001
0000
0001
0001
0001
0000
0100
0000
,  // measure 21
1000
0010
0100
0000
0001
0000
0100
0000
,  // measure 22
1001
0000
0001
1000
0001
0000
0110
0000
,  // measure 23
1000
1000
1000
0000
0001
0010
0100
0000
,  // measure 24
1002
0103
2010
3100
,  // measure 25
0012
0000
0103
0000
0010
1000
0001
0000
,  // measure 26
2001
3100
0012
0103
,  // measure 27
2010
0000
3100
0000
0010
0001
0001
0100
,  // measure 28
0010
2001
3010
0201
,  // measure 29
0301
0000
2001
0000
3001
0010
0100
0000
,  // measure 30
1000
0100
1000
0000
0001
0100
0001
0000
,  // measure 31
0010
0000
1001
0000
0010
0100
0100
0000
,  // measure 32
0001
0010
0001
0000
1000
0010
1000
0000
,  // measure 33
0100
0000
1001
0000
1000
0001
0100
0000
,  // measure 34
0010
1001
0100
1001
,  // measure 35
0010
0000
1001
0000
0010
0100
1000
0001
,  // measure 36
0010
1001
0100
1001
,  // measure 37
0010
0000
1001
0000
0010
0100
1000
0000
,  // measure 38
0001
0210
1300
0210
,  // measure 39
0301
0000
2010
0000
3100
0010
0001
0000
,  // measure 40
0100
2001
3100
1002
,  // measure 41
0013
0000
2001
0000
3100
0010
0001
0000
,  // measure 42
1000
0000
1000
0000
0001
0001
0200
0000
,  // measure 43
0310
1000
0010
0000
0200
0000
0302
0000
,  // measure 44
1003
0000
0100
0000
1000
0001
2000
0000
,  // measure 45
3010
0100
0001
0000
1000
0100
0010
0000
,  // measure 46
0001
0000
0001
0000
1000
0100
2000
0000
,  // measure 47
3001
0100
0001
0000
0200
0000
0320
0000
,  // measure 48
1030
0000
1000
0000
0100
0100
0200
0000
,  // measure 49
0310
0000
1001
0000
0000
0100
0000
0100
,  // measure 50
1000
0000
0000
0001
0000
0000
0100
0000
0001
0000
0000
1000
0000
0000
0100
0000
,  // measure 51
1000
0000
0000
0001
0000
0000
0010
0000
0100
0000
0000
0000
1001
0000
0000
0000
;

//---------------dance-single - ----------------
#NOTES:
     dance-single:
     :
     Hard:
     9:
     0.640235,0.695775,0.145653,0.112041,0.330521,400.000000,387.000000,13.000000,10.000000,0.000000,0.000000,0.640235,0.695775,0.145653,0.112041,0.330521,400.000000,387.000000,13.000000,10.000000,0.000000,0.000000:
// measure 0
0000
0000
0000
0000
,  // measure 1
0000
0000
0000
0000
,  // measure 2
0000
0000
0000
0000
,  // measure 3
0000
0000
0000
0000
,  // measure 4
0010
0000
0100
0000
0001
1000
0001
0000
0010
0000
0100
0000
1000
0001
1000
0000
,  // measure 5
0010
0000
0100
0000
0001
0010
0001
0010
0001
0000
1000
0000
0100
0000
0010
0000
,  // measure 6
0001
0000
1000
0000
0010
0100
0010
0000
1000
0000
0001
0000
0010
0100
0010
0000
,  // measure 7
0001
0000
1000
0000
0001
0100
0001
0100
0001
0000
0010
0000
0100
0000
1000
0000
,  // measure 8
0001
0000
1000
0010
0000
0000
0100
0000
0001
0000
0100
0010
0000
0000
0100
0000
,  // measure 9
0001
0000
1000
0010
0000
0000
0100
0000
0001
0000
0000
0000
1001
0000
0000
0000
,  // measure 10
1000
0010
0100
0001
0001
0000
0110
0000
,  // measure 11
1000
0100
1000
0010
0100
0001
1000
0000
,  // measure 12
0001
0010
0100
0010
0001
1000
1000
0000
,  // measure 13
0100
0100
0010
0001
2000
0000
3010
0100
,  // measure 14
0000
0010
1000
0001
0010
0000
1100
0000
,  // measure 15
0000
0100
0100
0010
0001
1000
0100
0000
,  // measure 16
1000
0010
0100
0001
0010
0100
0100
1000
,  // measure 17
0001
1000
0100
0010
0100
1000
0001
0000
,  // measure 18
1001
0100
1000
0100
2000
0000
3000
0100
,  // measure 19
0010
0100
1000
0001
0010
0000
1001
0000
,  // measure 20
1100
0100
0010
0100
2000
0000
3000
0001
,  // measure 21
0010
0100
0010
0001
1000
0100
0010
0000
,  // measure 22
0011
1000
0010
0100
0002
0000
0003
1000
,  // measure 23
0010
0100
0010
1000
0001
0010
0100
0000
,  // measure 24
2001
0000
3001
0100
0010
0100
0001
1000
,  // measure 25
0010
0100
0001
0100
0010
1000
0002
0000
,  // measure 26
1003
0010
0010
0000
0100
0001
0001
0000
,  // measure 27
0001
0000
1000
0000
0010
0100
0010
0000
1000
0000
0100
0000
0100
0000
0000
0000
,  // measure 28
1000
0001
0001
0000
0010
0100
0100
0000
,  // measure 29
1000
0000
0010
0000
0100
0001
0100
0000
0001
0000
0010
0000
0100
0000
0000
0000
,  // measure 30
1000
0010
1010
0000
0001
0100
0101
0000
,  // measure 31
0100
0000
0001
0000
0010
0100
0010
0001
1000
0000
0001
0000
1000
0000
0000
0000
,  // measure 32
0001
0010
0011
0000
1000
0100
1100
0000
,  // measure 33
0010
0000
0001
0000
0100
0010
0100
0001
1000
0000
0001
0000
0100
0000
0000
0000
,  // measure 34
0010
0000
0100
0000
0001
1000
0001
0000
0010
0000
0100
0000
1000
0001
1000
0000
,  // measure 35
0010
0000
0100
0000
0001
0010
0001
0010
0001
0000
1000
0000
0100
0000
0010
0000
,  // measure 36
0001
0000
1000
0000
0010
0100
0010
0000
1000
0000
0001
0000
0010
0100
0010
0000
,  // measure 37
0001
0000
1000
0000
0001
0100
0001
0100
0001
0000
0010
0000
0100
0000
1000
0000
,  // measure 38
0010
0000
1000
0000
0001
0100
0001
0100
0001
0000
0010
0000
0100
1000
0100
1000
,  // measure 39
0100
0000
0010
0000
0001
1000
0001
1000
0001
0000
0100
0000
0100
0000
0010
0000
,  // measure 40
1000
0000
0001
0000
1000
0100
1000
0100
1000
0000
0001
0000
0100
0001
0100
0001
,  // measure 41
0100
0000
0010
0000
1000
0100
1000
0100
1000
0000
0001
0000
0100
0000
0000
0000
,  // measure 42
0001
0100
0001
0100
0001
0000
1000
0000
0001
0100
0001
0000
0010
0000
0000
0000
,  // measure 43
0100
1000
0100
1000
0100
0000
0010
0000
0020
0000
0000
0000
0032
0000
0003
0000
,  // measure 44
0010
0001
0010
0001
0010
0000
0100
0000
0010
0001
0010
0000
0100
0000
0000
0000
,  // measure 45
1000
0010
0100
0001
0010
0100
0010
0000
,  // measure 46
0001
1000
0001
1000
0001
0000
0100
0000
0010
1000
0010
0000
0100
0000
0000
0000
,  // measure 47
0001
1000
0001
1000
0001
0000
0010
0000
0200
0000
0000
0000
2300
0000
3000
0000
,  // measure 48
0010
0100
0010
0100
0010
0000
1000
0000
0001
1000
0001
0000
0010
0000
0000
0000
,  // measure 49
0001
1000
0001
0100
0001
1000
0010
0000
,  // measure 50
1000
0000
0010
0100
0000
0100
0001
0000
1000
0000
0010
0100
0000
0100
0001
0000
,  // measure 51
1000
0000
0010
0100
0000
0100
0001
0000
1000
0000
0000
0000
1001
0000
0000
0000
;
