#VERSION:0.83;
#TITLE:Boom Boom Dollars;
#SUBTITLE:;
#ARTIST:King Kong 2000;
#TITLETRANSLIT:;
#SUBTITLETRANSLIT:;
#ARTISTTRANSLIT:;
#GENRE:;
#ORIGIN:;
#CREDIT:;
#BANNER:boomboomdollars bn.png;
#BACKGROUND:boomboomdollars bg.png;
#PREVIEWVID:;
#JACKET:;
#CDIMAGE:;
#DISCIMAGE:;
#LYRICSPATH:;
#CDTITLE:;
#MUSIC:King Kong 2000 - Boom Boom Dollars -short edit-.mp3;
#OFFSET:-0.938000;
#SAMPLESTART:43.119999;
#SAMPLELENGTH:12.000000;
#SELECTABLE:YES;
#BPMS:0.000=147.900;
#STOPS:;
#DELAYS:;
#WARPS:;
#TIMESIGNATURES:0.000=4=4;
#TICKCOUNTS:0.000=4;
#COMBOS:0.000=1;
#SPEEDS:0.000=1.000=0.000=0;
#SCROLLS:0.000=1.000;
#FAKES:;
#LABELS:0.000=Song Start;
#BGCHANGES:;
#KEYSOUNDS:;
#ATTACKS:
;

//---------------dance-single - ----------------
#NOTEDATA:;
#CHARTNAME:;
#STEPSTYPE:dance-single;
#DESCRIPTION:;
#CHARTSTYLE:;
#DIFFICULTY:Easy;
#METER:3;
#RADARVALUES:0.314356,0.353020,0.247114,0.211812,0.000000,187.000000,166.000000,21.000000,18.000000,0.000000,0.000000,0.000000,0.000000,0.000000,0.314356,0.353020,0.247114,0.211812,0.000000,187.000000,166.000000,21.000000,18.000000,0.000000,0.000000,0.000000,0.000000,0.000000;
#CREDIT:;
#NOTES:
// measure 0
0000
0000
0000
0000
,  // measure 1
0000
0000
0000
0000
,  // measure 2
1000
0000
1000
0000
,  // measure 3
0001
0001
1000
1000
,  // measure 4
0001
0000
1000
0000
,  // measure 5
0010
0010
0100
0100
,  // measure 6
0001
1000
0001
1000
,  // measure 7
0100
1000
0100
1000
,  // measure 8
0001
1000
0001
1000
,  // measure 9
0200
0000
0000
0300
,  // measure 10
1001
1000
0100
0001
,  // measure 11
0020
0030
0100
1000
,  // measure 12
0010
0100
0001
0110
,  // measure 13
1000
1000
0001
0001
,  // measure 14
1001
0001
0100
1000
,  // measure 15
0020
0030
0001
1000
,  // measure 16
0100
0010
0001
0110
,  // measure 17
1000
1000
0001
0001
,  // measure 18
1001
0100
1000
1000
,  // measure 19
0001
0010
2002
3003
,  // measure 20
1000
0010
0001
0010
,  // measure 21
2000
3020
0230
0302
,  // measure 22
1003
0001
0001
1000
,  // measure 23
0010
0100
2002
3003
,  // measure 24
1000
0010
0100
0001
,  // measure 25
1000
1001
0001
1001
,  // measure 26
1000
0001
1000
0001
,  // measure 27
1000
1000
0001
0001
,  // measure 28
1000
0001
1000
0001
,  // measure 29
1000
0100
0010
0001
,  // measure 30
1000
0001
1000
0001
,  // measure 31
1000
1000
0001
0001
,  // measure 32
0010
0000
0000
0000
,  // measure 33
0100
0000
0000
0000
,  // measure 34
1000
1001
0001
1001
,  // measure 35
1000
0001
1000
0001
,  // measure 36
1000
1001
0001
1001
,  // measure 37
1000
0010
0100
0001
,  // measure 38
1000
1001
0001
1001
,  // measure 39
1000
1000
0001
0001
,  // measure 40
0020
0000
0000
0030
,  // measure 41
2002
0000
0000
3003
,  // measure 42
0001
1000
0010
0100
,  // measure 43
0001
0001
1000
1000
,  // measure 44
0001
0010
0100
1000
,  // measure 45
0010
0010
0100
0100
,  // measure 46
0001
0001
1000
1000
,  // measure 47
0010
0010
0100
0010
,  // measure 48
2002
0000
0000
3003
,  // measure 49
0220
0330
1001
0110
,  // measure 50
1001
0000
0000
0000
;

//---------------dance-single - ----------------
#NOTEDATA:;
#CHARTNAME:;
#STEPSTYPE:dance-single;
#DESCRIPTION:;
#CHARTSTYLE:;
#DIFFICULTY:Medium;
#METER:6;
#RADARVALUES:0.475737,0.500112,0.411857,0.105906,0.011767,283.000000,248.000000,35.000000,9.000000,0.000000,0.000000,0.000000,0.000000,0.000000,0.475737,0.500112,0.411857,0.105906,0.011767,283.000000,248.000000,35.000000,9.000000,0.000000,0.000000,0.000000,0.000000,0.000000;
#CREDIT:;
#NOTES:
// measure 0
0000
0000
0000
0000
,  // measure 1
0000
0000
0000
0000
,  // measure 2
1000
0010
0100
0000
0001
0010
0100
0000
,  // measure 3
1000
0001
0100
0001
1000
0100
0010
0000
,  // measure 4
0001
0010
0100
0000
1000
0010
0100
0000
,  // measure 5
0001
0000
0000
0000
0001
0000
0000
0010
0000
0000
0010
0000
0100
0000
1000
0000
,  // measure 6
0001
0010
0100
0000
1000
0010
0100
0000
,  // measure 7
0001
0010
0100
0010
0001
1000
0010
0000
,  // measure 8
1000
0010
0100
0000
0001
0010
0100
0000
,  // measure 9
1000
0000
0000
0000
1000
0000
0000
0010
0000
0000
0010
0000
0100
0000
0001
0000
,  // measure 10
1000
0001
0000
0001
0000
0100
0000
0100
,  // measure 11
0000
0010
0000
1000
0000
0001
0000
1000
,  // measure 12
0000
0010
0000
1000
0000
1000
0000
0000
,  // measure 13
0010
1000
0100
0001
0100
1000
0010
0000
,  // measure 14
0010
0100
0000
0001
0000
0001
0000
1000
,  // measure 15
0000
0010
0000
0010
0000
0100
0000
0002
,  // measure 16
0000
0000
0000
0103
0000
1000
0000
0000
,  // measure 17
0010
1000
0100
0001
0100
1000
0010
0000
,  // measure 18
1001
0000
1000
0100
0001
0000
0100
0000
,  // measure 19
2000
0000
3200
0000
1300
0001
0000
0000
,  // measure 20
1001
0000
1000
0100
1000
0010
0100
0000
,  // measure 21
1001
0110
1100
0110
,  // measure 22
1001
0000
1000
0100
1000
0001
1000
0001
,  // measure 23
0020
0000
0230
0000
1300
0002
0000
0003
,  // measure 24
1000
0000
0100
0000
1000
0010
0100
0000
,  // measure 25
0001
1000
0001
1000
0001
1000
0001
1000
,  // measure 26
0001
1001
1000
1001
,  // measure 27
0001
0000
1000
0100
1000
0010
0000
0000
,  // measure 28
1000
1001
0001
1001
,  // measure 29
1000
0100
0001
0000
1000
0100
0001
0000
,  // measure 30
1000
1001
0001
1001
,  // measure 31
0010
0000
0001
0100
0001
0010
0000
0000
,  // measure 32
0100
1000
0100
0000
1000
0001
1000
0000
,  // measure 33
0001
0100
0001
0000
0100
0010
0100
0000
,  // measure 34
0010
1010
0100
0101
,  // measure 35
1001
0000
0001
1000
0001
0010
0000
0000
,  // measure 36
0010
0011
0100
1100
,  // measure 37
1000
0010
0001
0000
1000
0010
0001
0000
,  // measure 38
1000
1010
0001
0101
,  // measure 39
1001
0000
1000
0001
1000
0010
0000
0000
,  // measure 40
0100
0001
1000
0000
0100
1000
0001
0000
,  // measure 41
2002
3003
0100
0010
,  // measure 42
1001
0110
1001
0110
,  // measure 43
1000
0001
0010
0000
0001
0010
0000
0000
,  // measure 44
1001
0110
1001
0110
,  // measure 45
0010
1000
0100
0000
0010
0001
0100
0000
,  // measure 46
1001
0110
1001
0110
,  // measure 47
0001
1000
0100
1000
0001
0010
0000
0000
,  // measure 48
0001
1000
0100
0000
1000
0001
0100
0000
,  // measure 49
0002
0000
0000
0000
1003
0100
1000
0001
,  // measure 50
1001
0000
0000
0000
;

//---------------dance-single - ----------------
#NOTEDATA:;
#CHARTNAME:;
#STEPSTYPE:dance-single;
#DESCRIPTION:;
#CHARTSTYLE:;
#DIFFICULTY:Hard;
#METER:9;
#RADARVALUES:0.650566,0.735458,0.400089,0.188277,0.353020,387.000000,353.000000,34.000000,16.000000,0.000000,0.000000,0.000000,0.000000,0.000000,0.650566,0.735458,0.400089,0.188277,0.353020,387.000000,353.000000,34.000000,16.000000,0.000000,0.000000,0.000000,0.000000,0.000000;
#CREDIT:;
#NOTES:
// measure 0
0000
0000
0000
0000
,  // measure 1
0000
0000
0000
0000
,  // measure 2
0010
1000
0001
1000
0010
0000
0100
0001
0000
1000
0000
0001
0000
0100
0010
0000
,  // measure 3
1000
0001
0100
0001
1000
0000
0100
1000
0000
0001
0200
0000
0000
0000
0300
0000
,  // measure 4
0001
1000
0100
1000
0001
0000
0100
0001
0000
1000
0000
0001
0000
0100
0010
0000
,  // measure 5
1000
0001
0000
1000
0001
0000
1000
0001
0000
1000
0001
0000
0010
0000
0100
0000
,  // measure 6
0010
0001
1000
0001
0010
0000
0100
1000
0000
0001
0000
1000
0000
0100
0010
0000
,  // measure 7
0001
1000
0100
1000
0001
0000
1000
0010
0000
1000
0002
0000
0000
0000
0003
0000
,  // measure 8
1000
0001
0010
0001
1000
0000
0100
1000
0000
0001
0000
1000
0000
0100
0010
0000
,  // measure 9
0001
1000
0000
0001
1000
0000
0001
1000
0000
0001
1000
0000
0010
0000
0100
0000
,  // measure 10
0001
1000
0100
0010
0100
1000
0000
2000
,  // measure 11
0000
3010
0100
0001
1000
0001
0100
0010
,  // measure 12
0000
1001
0000
0110
0000
1001
0000
0000
,  // measure 13
0010
1000
0100
0001
0100
1000
0020
0000
,  // measure 14
0130
0001
1000
0100
1000
0010
0000
0020
,  // measure 15
0000
1030
0001
0100
0001
1000
0010
2000
,  // measure 16
0000
0000
0000
3001
0000
1001
0000
0000
,  // measure 17
0010
1000
0100
0001
0010
1000
0100
0000
,  // measure 18
1001
0001
0010
0001
0010
0100
1000
0001
,  // measure 19
1001
0000
1100
0000
1000
0001
0010
0000
,  // measure 20
1000
0001
0010
0001
0010
0001
1000
0020
,  // measure 21
0000
0030
1000
0001
1000
0100
1000
0010
,  // measure 22
1001
0001
1000
0100
1000
0001
1000
0100
,  // measure 23
1100
0000
0110
0000
1001
0011
0000
0100
,  // measure 24
1100
0000
1001
0000
1000
0001
0100
0001
,  // measure 25
0100
0001
0100
0001
0100
0010
0100
0010
0100
0001
0100
0001
1000
0001
1000
0001
,  // measure 26
1000
1001
0100
1001
,  // measure 27
1000
0001
0010
0001
1000
0020
0000
0030
,  // measure 28
0100
0001
0101
0000
0010
1000
1010
0000
,  // measure 29
0001
0010
1000
0100
0001
0010
0100
0000
,  // measure 30
0010
1001
0100
1001
,  // measure 31
0010
1000
0100
0001
0100
2000
0000
3000
,  // measure 32
0001
0010
1000
0100
0001
0100
0010
0001
,  // measure 33
0100
1000
0010
0100
0010
1000
0001
0010
,  // measure 34
0100
0000
0000
0100
1000
0000
0000
1000
0001
0000
0000
0001
0010
0000
0000
0010
,  // measure 35
0001
1000
0100
0010
0100
2000
0000
3000
,  // measure 36
0001
0010
0011
0000
0100
1000
1100
0000
,  // measure 37
1000
0010
0001
0100
1000
0010
0100
0000
,  // measure 38
0100
0000
0000
0100
0001
0000
0000
0001
0010
0000
0000
0010
1000
0000
0000
1000
,  // measure 39
0100
0001
0010
1000
0001
0020
0000
0030
,  // measure 40
0001
0100
1000
0100
0001
0010
0100
1000
,  // measure 41
0002
0000
0000
0000
0000
0000
0000
0000
1003
0100
1000
0100
1000
0000
0001
0000
,  // measure 42
1001
0100
1100
0000
1001
0100
0101
0000
,  // measure 43
0010
1000
0100
0001
0100
2000
0010
3010
,  // measure 44
0100
0001
0011
0000
0100
1000
1010
0000
,  // measure 45
0010
0100
0001
0010
1000
0010
0001
0000
,  // measure 46
1001
0010
0011
0000
1001
0010
1010
0000
,  // measure 47
0010
0100
0001
0010
0100
2000
0100
3100
,  // measure 48
0010
0001
0100
1000
0010
0100
0001
0010
,  // measure 49
2002
0000
0000
0000
3003
0000
0000
0000
1000
0001
1000
0001
1000
0000
0010
0000
,  // measure 50
1001
0000
0000
0000
;
