#TITLE:Boom Boom Dollar;
#SUBTITLE:(D.P. D21 Mix);
#ARTIST:King Kong and D.Jungle Girls;
#TITLETRANSLIT:;
#SUBTITLETRANSLIT:;
#ARTISTTRANSLIT:;
#GENRE:;
#CREDIT:;
#BANNER:Boomboomdpd21 bn2.png;
#BACKGROUND:Boomboomdpd21 bg.png;
#LYRICSPATH:;
#CDTITLE:;
#MUSIC:Boom Boom Dollar (D.P. D21 Mix).mp3;
#OFFSET:-3.080000;
#SAMPLESTART:39.090000;
#SAMPLELENGTH:12.000000;
#SELECTABLE:YES;
#BPMS:0.000000=160.000000
;
#STOPS:160.000000=0.375000,
161.000000=0.375000
;
#BGCHANGES:;
#KEYSOUNDS:;
#ATTACKS:;

//---------------dance-single - ----------------
#NOTES:
     dance-single:
     :
     Easy:
     4:
     0.377251,0.467887,0.423975,0.000000,0.000000,218.000000,183.000000,35.000000,0.000000,0.000000,0.000000,0.377251,0.467887,0.423975,0.000000,0.000000,218.000000,183.000000,35.000000,0.000000,0.000000,0.000000:
// measure 0
0000
0000
0000
0000
,  // measure 1
0000
0000
0000
0000
,  // measure 2
0000
0000
0000
0000
,  // measure 3
0000
0000
0000
0000
,  // measure 4
1000
0001
0010
0010
,  // measure 5
0100
0010
0001
0001
,  // measure 6
0100
0000
0010
0000
,  // measure 7
1001
1000
0100
0100
,  // measure 8
0010
0001
0010
0100
,  // measure 9
1000
0010
0001
0100
,  // measure 10
1001
0010
1001
0100
,  // measure 11
1001
1000
0001
1000
,  // measure 12
0010
0000
0100
0000
,  // measure 13
0001
0101
1000
1100
,  // measure 14
1001
0010
1001
0110
,  // measure 15
1001
0100
0000
0100
,  // measure 16
0010
0001
0100
1000
,  // measure 17
0100
1001
0000
0001
,  // measure 18
0010
0000
0001
0000
1000
0000
0010
0100
,  // measure 19
0001
1000
0001
0010
,  // measure 20
0011
1100
0010
0100
,  // measure 21
0010
1000
0100
1000
,  // measure 22
1001
0110
1001
0110
,  // measure 23
1001
0000
0010
0000
1000
0001
0000
0000
,  // measure 24
1000
0001
0010
1001
,  // measure 25
0100
0000
0100
0000
,  // measure 26
0010
0010
0100
1001
,  // measure 27
1000
0100
0010
0001
,  // measure 28
0001
0011
0100
1100
,  // measure 29
1000
0001
0010
0000
,  // measure 30
0100
1000
0001
0100
,  // measure 31
0001
1000
0100
1000
,  // measure 32
1001
0001
0010
0000
,  // measure 33
0100
1000
0010
0100
,  // measure 34
0001
0000
0100
0000
0010
0000
1000
0100
,  // measure 35
0000
0100
0000
0100
0000
0100
0010
0000
,  // measure 36
1001
0100
1001
0000
,  // measure 37
0001
0000
0010
0000
0100
1000
0010
0000
,  // measure 38
1001
0001
0010
0001
,  // measure 39
1001
1100
1001
0101
,  // measure 40
1000
0001
0010
0010
,  // measure 41
0100
0100
0000
0000
1000
0000
0001
0000
,  // measure 42
0001
1000
0100
1001
,  // measure 43
0100
1001
0001
1000
,  // measure 44
1000
0001
0100
1001
,  // measure 45
0010
1001
0010
0010
,  // measure 46
0100
0100
0001
1000
,  // measure 47
0100
0010
0000
0000
1000
0000
1000
0000
,  // measure 48
0001
1000
0001
0001
,  // measure 49
1000
0001
0100
0100
,  // measure 50
0100
0100
0010
0010
,  // measure 51
0010
0100
1001
0000
;

//---------------dance-single - ----------------
#NOTES:
     dance-single:
     :
     Medium:
     6:
     0.477621,0.530272,0.387634,0.000000,0.000000,276.000000,244.000000,32.000000,0.000000,0.000000,0.000000,0.477621,0.530272,0.387634,0.000000,0.000000,276.000000,244.000000,32.000000,0.000000,0.000000,0.000000:
// measure 0
0000
0000
0000
0000
,  // measure 1
0000
0000
0000
0000
,  // measure 2
0000
0000
0000
0000
,  // measure 3
0000
0000
0000
0000
,  // measure 4
1000
0001
0100
0010
,  // measure 5
1000
0001
1000
0000
0100
0010
0100
0000
,  // measure 6
1001
0000
0100
0000
0010
0001
1000
0000
,  // measure 7
0001
0010
0100
1000
,  // measure 8
0010
0001
0100
1000
,  // measure 9
0010
1001
0100
1001
,  // measure 10
0001
0010
0100
0010
0001
0100
0010
1000
,  // measure 11
0100
1001
0100
0010
,  // measure 12
0001
0100
1000
0010
,  // measure 13
0100
1001
0010
1001
,  // measure 14
1000
0010
0100
0010
1000
0100
0001
0100
,  // measure 15
1000
1100
0001
0101
,  // measure 16
0010
0100
1000
0000
0001
0010
0000
0000
,  // measure 17
0100
0011
1000
0110
,  // measure 18
0001
0010
0001
0000
1000
0100
0010
0100
,  // measure 19
1000
1010
0001
0011
,  // measure 20
0010
0000
0100
0000
1000
0001
0000
0000
,  // measure 21
1000
0010
0100
0000
0001
0010
0100
0000
,  // measure 22
1000
0001
1000
0001
1000
0001
1000
0001
,  // measure 23
1000
0000
0100
0000
0010
0100
0000
0000
,  // measure 24
1000
1000
0001
0001
,  // measure 25
1000
0100
0010
0100
1000
0001
0000
0000
,  // measure 26
1000
1000
0001
0001
,  // measure 27
1001
0101
0110
1001
,  // measure 28
0001
0001
1000
1000
,  // measure 29
0001
1000
0010
0100
0001
0010
0000
0000
,  // measure 30
0001
1000
0100
0000
1000
0001
0010
0000
,  // measure 31
0100
1000
0010
0000
0100
0001
0010
0000
,  // measure 32
1001
1000
0010
0100
,  // measure 33
0101
0010
0100
0001
,  // measure 34
1001
0100
0010
1000
,  // measure 35
0001
0010
0100
0000
0010
0100
1000
0000
,  // measure 36
1001
0000
0010
0000
0001
0010
0001
0000
,  // measure 37
1001
0000
0100
0000
1000
0100
1000
0000
,  // measure 38
1000
0001
0010
0000
0001
1000
0100
0000
,  // measure 39
0010
0100
1000
0010
0100
0001
0010
0100
,  // measure 40
1000
0001
0010
0100
,  // measure 41
0010
0100
0000
0000
1001
0000
0110
0000
,  // measure 42
1001
0000
0110
0000
0001
1000
0100
1000
,  // measure 43
0001
0010
0001
1000
0010
0000
1001
0000
,  // measure 44
0100
0000
1001
0000
0010
1000
0001
0000
,  // measure 45
0100
0010
1000
0000
1001
0000
0011
0000
,  // measure 46
1001
0000
1100
0000
0100
1000
0010
0100
,  // measure 47
0010
1000
0000
0000
0001
0010
0100
0000
,  // measure 48
1000
0010
0100
0000
0001
1000
0100
0000
,  // measure 49
0010
0001
1000
0000
0010
0000
0010
0000
,  // measure 50
0100
0000
0100
0000
0001
1000
0001
1000
,  // measure 51
0001
0100
1001
0000
;

//---------------dance-single - ----------------
#NOTES:
     dance-single:
     :
     Hard:
     8:
     0.577991,0.530272,0.411862,0.060568,0.042398,334.000000,300.000000,34.000000,5.000000,0.000000,0.000000,0.577991,0.530272,0.411862,0.060568,0.042398,334.000000,300.000000,34.000000,5.000000,0.000000,0.000000:
// measure 0
0000
0000
0000
0000
,  // measure 1
0000
0000
0000
0000
,  // measure 2
0000
0000
0000
0000
,  // measure 3
0000
0000
0000
0000
,  // measure 4
1001
0000
0110
0000
0001
0100
1000
0000
,  // measure 5
0100
0001
0100
0001
0100
0001
0100
0001
,  // measure 6
1000
0000
0000
0000
1000
0000
0000
0000
0010
0100
0010
0000
1000
0000
0000
0000
,  // measure 7
1001
0001
0010
0100
0010
0001
1000
0010
,  // measure 8
0000
0010
1000
0100
1000
0100
1000
0010
,  // measure 9
0000
0101
0000
0100
0000
1010
0000
0000
,  // measure 10
1000
0100
0001
0100
1000
0010
1000
0100
,  // measure 11
1100
0000
0100
0010
0001
0010
0100
0010
,  // measure 12
0000
0001
1000
0001
0010
0100
0010
0002
,  // measure 13
0000
0000
0003
1100
0000
0110
0000
0000
,  // measure 14
0100
0010
1000
0100
1000
0010
0100
0001
,  // measure 15
0000
1000
0010
1000
0010
0100
0010
0100
,  // measure 16
0010
1000
0001
0000
0100
0010
0000
0000
,  // measure 17
1000
0100
0010
0100
0010
0100
1000
0010
,  // measure 18
0000
1010
0000
0100
0010
0000
0100
0000
,  // measure 19
1001
0100
0010
0100
0010
0100
0000
1000
,  // measure 20
0020
0000
0130
0000
0001
1000
0000
0000
,  // measure 21
1001
0000
0010
0000
0100
0010
0001
0010
,  // measure 22
0100
1000
0100
0010
0001
0100
0001
1000
,  // measure 23
1001
0000
0001
0010
0100
1000
0001
0000
,  // measure 24
1001
0110
1001
0110
,  // measure 25
1000
0100
0010
0100
0010
0001
0100
0010
,  // measure 26
1000
1100
0001
0101
,  // measure 27
0001
0010
0100
0010
0001
0010
0100
0000
,  // measure 28
1100
0011
1100
0011
,  // measure 29
1000
0100
0010
0001
0010
0100
0000
0000
,  // measure 30
1000
0010
1000
0100
0001
0100
1000
0010
,  // measure 31
0100
0001
0010
0001
0100
1000
0100
0001
,  // measure 32
1000
0000
0010
0000
0100
0000
0001
0000
0020
0000
0000
0130
0000
0000
0001
0000
,  // measure 33
0100
0000
0010
0000
1000
0000
0100
0000
0010
0000
0001
1000
0000
0000
0000
0000
,  // measure 34
1000
0010
0100
0001
0020
0000
0130
1000
,  // measure 35
0000
1001
0000
0001
0000
1001
0000
1000
,  // measure 36
0100
0000
0000
0000
1001
0000
0000
0000
0020
0000
0000
0130
0000
0000
0001
0000
,  // measure 37
0100
0000
0010
0000
1000
0000
0100
0000
1000
0000
0010
0100
0000
0000
0000
0000
,  // measure 38
1000
0000
0010
0000
0100
0000
0001
0000
0010
0000
0000
0100
0010
0000
0000
0100
,  // measure 39
0001
0010
0100
0010
0100
1000
0100
0010
,  // measure 40
0001
0000
1000
0000
0001
0100
0010
0100
,  // measure 41
0001
1001
0000
0000
1001
1000
0100
0000
,  // measure 42
1001
0001
0100
0000
0001
0010
0001
0010
,  // measure 43
0100
1000
0100
1000
0010
1000
1010
0000
,  // measure 44
0001
0100
0101
0000
0100
0010
0100
0010
,  // measure 45
1000
0001
1000
0001
0010
0000
0010
0000
,  // measure 46
1001
1000
1100
0000
0001
0001
0010
0100
,  // measure 47
0010
1001
0000
0000
1000
0010
1000
0100
,  // measure 48
0001
0100
1000
0010
0100
0001
0010
0001
,  // measure 49
0100
1000
0100
0001
1000
0000
1000
0000
,  // measure 50
0001
0000
0001
0000
1000
0100
0001
0100
,  // measure 51
1000
0010
1001
0000
;
