#VERSION:0.83;
#TITLE:Bla Bla Bla;
#SUBTITLE:;
#ARTIST:Gigi D'Agostino;
#TITLETRANSLIT:;
#SUBTITLETRANSLIT:;
#ARTISTTRANSLIT:;
#GENRE:;
#ORIGIN:;
#CREDIT:;
#BANNER:Bla Bla Bla - bn.png;
#BACKGROUND:Bla Bla Bla - bg.png;
#PREVIEWVID:;
#JACKET:;
#CDIMAGE:;
#DISCIMAGE:;
#LYRICSPATH:;
#CDTITLE:;
#MUSIC:Gigi DŽAgostino - Bla Bla Bla (short edit).mp3;
#OFFSET:-0.280000;
#SAMPLESTART:68.879997;
#SAMPLELENGTH:12.000000;
#SELECTABLE:YES;
#BPMS:0.000=132.900;
#STOPS:;
#DELAYS:;
#WARPS:;
#TIMESIGNATURES:0.000=4=4;
#TICKCOUNTS:0.000=4;
#COMBOS:0.000=1;
#SPEEDS:0.000=1.000=0.000=0;
#SCROLLS:0.000=1.000;
#FAKES:;
#LABELS:0.000=Song Start;
#BGCHANGES:;
#KEYSOUNDS:;
#ATTACKS:
;

//---------------dance-single - ----------------
#NOTEDATA:;
#CHARTNAME:;
#STEPSTYPE:dance-single;
#DESCRIPTION:;
#CHARTSTYLE:;
#DIFFICULTY:Easy;
#METER:1;
#RADARVALUES:0.151302,0.212986,0.023277,0.046554,0.000000,91.000000,89.000000,2.000000,4.000000,0.000000,0.000000,0.000000,0.000000,0.000000,0.151302,0.212986,0.023277,0.046554,0.000000,91.000000,89.000000,2.000000,4.000000,0.000000,0.000000,0.000000,0.000000,0.000000;
#CREDIT:;
#NOTES:
// measure 0
0000
0000
0000
0000
,  // measure 1
0000
0000
0000
0000
,  // measure 2
1000
0000
0000
0000
,  // measure 3
1000
0000
0000
0000
,  // measure 4
0001
0000
0000
0000
,  // measure 5
0001
0000
0000
0000
,  // measure 6
0100
0000
0100
0000
,  // measure 7
0010
0000
0010
0000
,  // measure 8
0100
0000
0010
0000
,  // measure 9
1000
0000
1001
0000
,  // measure 10
0010
0000
0010
0000
,  // measure 11
0100
0000
0100
0000
,  // measure 12
0010
0000
0010
0000
,  // measure 13
0100
0000
0100
0000
,  // measure 14
1000
0000
0001
0000
,  // measure 15
0010
0000
0010
0000
,  // measure 16
0001
0000
1000
0000
,  // measure 17
0100
0000
0100
0100
,  // measure 18
1000
0000
0000
0000
,  // measure 19
0001
0000
0000
0000
,  // measure 20
1000
0000
0000
0000
,  // measure 21
0010
0000
0000
0000
,  // measure 22
0100
0000
0100
0000
,  // measure 23
0100
0000
0100
0000
,  // measure 24
0010
0000
0010
0000
,  // measure 25
0010
0000
0010
0000
,  // measure 26
0001
0000
0001
0000
,  // measure 27
1000
0000
1000
0000
,  // measure 28
0001
0000
0001
0000
,  // measure 29
0100
0100
0100
0100
,  // measure 30
2000
0000
0000
3000
,  // measure 31
0020
0000
0000
0030
,  // measure 32
0200
0000
0000
0300
,  // measure 33
0020
0030
1000
0000
,  // measure 34
0001
0000
0001
0000
,  // measure 35
1000
0000
1000
0000
,  // measure 36
0100
0000
0100
0000
,  // measure 37
0010
0000
1001
0000
,  // measure 38
0001
0001
0001
0000
,  // measure 39
1000
1000
1000
0000
,  // measure 40
0001
0001
0001
0000
,  // measure 41
1000
1000
1000
0000
,  // measure 42
0010
0010
0010
0000
,  // measure 43
0100
0100
0100
0000
,  // measure 44
0010
0010
1000
0000
,  // measure 45
0001
0001
1000
0001
;

//---------------dance-single - ----------------
#NOTEDATA:;
#CHARTNAME:;
#STEPSTYPE:dance-single;
#DESCRIPTION:;
#CHARTSTYLE:;
#DIFFICULTY:Medium;
#METER:3;
#RADARVALUES:0.277664,0.319480,0.186218,0.139663,0.000000,167.000000,151.000000,16.000000,12.000000,0.000000,0.000000,0.000000,0.000000,0.000000,0.277664,0.319480,0.186218,0.139663,0.000000,167.000000,151.000000,16.000000,12.000000,0.000000,0.000000,0.000000,0.000000,0.000000;
#CREDIT:;
#NOTES:
// measure 0
0000
0000
0000
0000
,  // measure 1
0000
0000
0000
0000
,  // measure 2
1000
1000
0100
1000
,  // measure 3
0001
0001
0100
0001
,  // measure 4
1000
1000
0100
1000
,  // measure 5
0010
1000
0100
0001
,  // measure 6
0010
0010
0100
0001
,  // measure 7
1000
1000
0010
0100
,  // measure 8
0001
0001
1000
0100
,  // measure 9
0010
1001
1001
0000
,  // measure 10
0020
0030
1000
0001
,  // measure 11
2000
3000
0001
0010
,  // measure 12
0020
0030
0100
0001
,  // measure 13
2000
3001
1001
0010
,  // measure 14
0020
0030
0100
0001
,  // measure 15
0002
0003
1000
0010
,  // measure 16
0020
0030
0100
0001
,  // measure 17
0002
2003
3100
0010
,  // measure 18
1000
1000
1000
1000
,  // measure 19
0010
0010
0010
0100
,  // measure 20
0001
0001
0001
0001
,  // measure 21
0010
0010
0010
0100
,  // measure 22
0000
1000
0000
0000
0000
0000
0001
0000
,  // measure 23
0000
0010
0000
0000
0000
0000
0100
0000
,  // measure 24
0000
0001
0000
0000
0000
0000
0001
0000
,  // measure 25
0000
0010
0000
0000
0000
0000
0010
0000
,  // measure 26
0000
0001
0000
0000
0000
0000
0001
0000
,  // measure 27
0000
1000
0000
0000
0000
0000
0100
0000
,  // measure 28
0000
0010
0000
0000
0000
0000
0010
0000
,  // measure 29
1001
0110
1001
0110
,  // measure 30
0002
0000
0000
0003
,  // measure 31
2000
3000
0200
0300
,  // measure 32
0010
0001
1000
1000
,  // measure 33
0100
0010
0010
0001
,  // measure 34
1000
0001
1001
0100
,  // measure 35
0010
0010
0100
0001
,  // measure 36
0010
0010
1001
0100
,  // measure 37
1000
0110
0001
0110
,  // measure 38
1000
1000
0100
1000
,  // measure 39
0010
0010
1001
0100
,  // measure 40
0001
0001
0100
0010
,  // measure 41
1000
0001
0110
0001
,  // measure 42
1000
1100
1001
0100
,  // measure 43
0010
0010
0001
1000
,  // measure 44
0100
0100
1001
0001
,  // measure 45
0010
0000
1000
0001
1000
0000
0010
0000
;

//---------------dance-single - ----------------
#NOTEDATA:;
#CHARTNAME:;
#STEPSTYPE:dance-single;
#DESCRIPTION:;
#CHARTSTYLE:;
#DIFFICULTY:Hard;
#METER:5;
#RADARVALUES:0.397375,0.425973,0.337519,0.046554,0.000000,239.000000,210.000000,29.000000,4.000000,0.000000,0.000000,0.000000,0.000000,0.000000,0.397375,0.425973,0.337519,0.046554,0.000000,239.000000,210.000000,29.000000,4.000000,0.000000,0.000000,0.000000,0.000000,0.000000;
#CREDIT:;
#NOTES:
// measure 0
0000
0000
0000
0000
,  // measure 1
0000
0000
0000
0000
,  // measure 2
0010
0000
0010
0000
0001
0000
0100
1000
,  // measure 3
0100
0000
0100
0000
0001
0000
1000
0010
,  // measure 4
0010
0000
0010
0000
1000
0000
0100
0010
,  // measure 5
0100
0000
0110
0000
1001
0000
0100
0010
,  // measure 6
0100
0000
0100
0000
1001
0000
0100
0010
,  // measure 7
1000
0000
1000
0000
0110
0000
0001
0010
,  // measure 8
0001
0000
0001
0000
1001
0000
0100
0010
,  // measure 9
1000
0000
1001
0001
0100
0000
0000
0000
,  // measure 10
1000
0000
0010
0000
1001
0000
0001
0001
,  // measure 11
1000
0000
0100
0000
1001
0000
1000
1000
,  // measure 12
0001
0000
0010
0000
1001
0000
0100
0100
,  // measure 13
0010
0011
1001
0100
,  // measure 14
1010
0101
1001
0100
,  // measure 15
0010
0000
0010
0000
1001
0000
0100
0010
,  // measure 16
0001
0000
0001
0000
0110
0000
1000
0010
,  // measure 17
0100
0001
1000
0001
0100
0000
0010
0000
,  // measure 18
0000
0100
0000
0100
0000
0100
0000
0100
,  // measure 19
0000
1000
0000
1000
0000
1000
0000
0001
,  // measure 20
0000
0010
0000
0010
0000
0010
0000
1000
,  // measure 21
0000
0001
0000
0001
0000
0001
0000
0100
,  // measure 22
0010
1000
0000
0001
0000
0001
0000
0001
,  // measure 23
0100
0010
0000
1000
0000
1000
0000
0001
,  // measure 24
1000
0010
0000
0100
0000
0100
0000
0001
,  // measure 25
1000
0001
0000
0010
0000
0010
0000
0100
,  // measure 26
1000
0001
0000
0000
0100
0000
0100
0000
,  // measure 27
0001
0010
0000
0000
0100
0000
0100
0000
,  // measure 28
1000
0001
0000
0000
0100
0000
0100
0000
,  // measure 29
0020
0100
0100
0130
,  // measure 30
2002
0000
3003
0000
1000
0000
0001
1000
,  // measure 31
0010
0010
0100
0001
,  // measure 32
0010
0010
0100
1000
,  // measure 33
0001
1000
0001
1000
0100
0000
0010
0000
,  // measure 34
1001
1001
0100
0010
,  // measure 35
0011
1001
0100
0010
,  // measure 36
1010
0000
1001
0000
0100
0000
0010
0001
,  // measure 37
1000
0001
0100
0010
2000
0000
3000
0000
,  // measure 38
0001
0000
1000
0000
0110
0000
0001
0010
,  // measure 39
0001
0000
1000
0000
0110
0000
0001
0010
,  // measure 40
0001
0000
0010
0000
1100
0000
0001
0100
,  // measure 41
0010
0000
1000
0001
0100
0000
0100
0010
,  // measure 42
1000
0001
1000
0001
0100
0000
0100
0010
,  // measure 43
1000
0000
0001
0000
1001
0000
0100
0100
,  // measure 44
0010
0000
1000
0000
1001
0000
0001
0010
,  // measure 45
1000
0001
0100
1000
0010
0000
1001
0000
;
