#VERSION:0.83;
#TITLE:B4U;
#SUBTITLE:(Orchestra Groov);
#ARTIST:NAOKI;
#TITLETRANSLIT:;
#SUBTITLETRANSLIT:;
#ARTISTTRANSLIT:;
#GENRE:;
#ORIGIN:;
#CREDIT:;
#BANNER:b4uobn.png;
#BACKGROUND:b4uobg.png;
#PREVIEWVID:;
#JACKET:;
#CDIMAGE:;
#DISCIMAGE:;
#LYRICSPATH:;
#CDTITLE:;
#MUSIC:B4U (Orchestra Groov).mp3;
#OFFSET:-0.100000;
#SAMPLESTART:51.142998;
#SAMPLELENGTH:12.000000;
#SELECTABLE:YES;
#BPMS:0.000=155.000;
#STOPS:;
#DELAYS:;
#WARPS:;
#TIMESIGNATURES:0.000=4=4;
#TICKCOUNTS:0.000=4;
#COMBOS:0.000=1;
#SPEEDS:0.000=1.000=0.000=0;
#SCROLLS:0.000=1.000;
#FAKES:;
#LABELS:0.000=Song Start;
#BGCHANGES:;
#KEYSOUNDS:;
#ATTACKS:
;

//---------------dance-single - ----------------
#NOTEDATA:;
#CHARTNAME:;
#STEPSTYPE:dance-single;
#DESCRIPTION:;
#CHARTSTYLE:;
#DIFFICULTY:Easy;
#METER:5;
#RADARVALUES:0.370793,0.443819,0.376454,0.019813,0.000000,262.000000,224.000000,38.000000,2.000000,0.000000,0.000000,0.000000,0.000000,0.000000,0.370793,0.443819,0.376454,0.019813,0.000000,262.000000,224.000000,38.000000,2.000000,0.000000,0.000000,0.000000,0.000000,0.000000;
#CREDIT:;
#NOTES:
0000
0000
0000
0000
,
0000
0000
0000
0000
,
0000
0000
0000
0000
,
0000
0000
0000
0000
,
0010
0000
0000
0000
0000
0000
0000
0010
,
1000
0000
0000
0000
0000
0000
0000
0001
,
0100
0000
0000
0000
0000
0000
0000
0010
,
1000
0000
0000
0000
,
0010
1001
0010
1001
,
0100
0101
0100
1100
,
0001
1001
1000
1001
,
0100
0101
0100
1100
,
0001
0101
1000
1100
,
0001
0011
1000
1010
,
0010
0110
0100
0110
,
2002
0000
0000
3003
,
0010
0100
0000
0001
,
1000
0100
0010
0110
,
1001
1000
0010
0001
,
1000
0010
0100
0100
,
0010
1000
0000
0100
,
1000
0100
1000
0110
,
1001
0001
1000
1000
,
0010
0010
0100
0001
,
0010
0010
0000
0010
0010
0010
0010
0000
,
0100
0100
0010
0010
,
0001
0000
1000
0000
0001
1000
0100
0000
,
0010
0000
0100
0000
,
0010
0000
0000
0010
0000
0010
1000
0001
,
0100
0100
0010
0000
,
0001
0010
0010
1001
,
1000
1000
0001
0001
,
0100
0100
0101
1100
,
0010
1000
0001
1000
,
0010
0000
0010
0000
0010
0000
1000
0001
,
0100
0010
1000
0100
,
0010
0000
0100
0000
,
0100
1000
1000
0001
,
1001
0000
0100
0000
1000
0000
1000
0010
,
0100
0000
0010
0000
,
0010
0000
1000
0000
0010
1000
0100
0000
,
1001
0100
0001
0100
,
0010
0010
0100
0100
,
0001
1000
0001
1000
,
0010
1000
0010
0001
,
0010
0010
0001
0100
,
0010
0000
0100
0000
,
0001
0001
1000
1000
,
0101
0101
1100
0011
,
1001
0000
0110
0000
,
1100
0000
0011
0000
,
0010
0010
0100
0100
,
0001
0000
1000
0000
0001
1000
0001
0000
,
1001
0000
0000
0000
,
0010
0010
0100
0100
,
0001
0000
1000
0000
0010
0000
0100
0001
,
0010
0100
0100
1001
,
0010
0000
0100
0001
,
0010
1000
0001
1000
,
0100
0000
0100
0000
0001
0000
1000
0001
,
1000
0010
0100
1001
,
0010
1001
0110
1001
,
0100
0100
0000
0100
0100
0100
0000
0100
,
0100
0100
0000
0100
0100
0100
0100
0000
,
0100
0000
0000
0000
;

//---------------dance-single - ----------------
#NOTEDATA:;
#CHARTNAME:;
#STEPSTYPE:dance-single;
#DESCRIPTION:;
#CHARTSTYLE:;
#DIFFICULTY:Medium;
#METER:8;
#RADARVALUES:0.482597,0.507222,0.158507,0.019813,0.118880,341.000000,325.000000,16.000000,2.000000,0.000000,0.000000,0.000000,0.000000,0.000000,0.482597,0.507222,0.158507,0.019813,0.118880,341.000000,325.000000,16.000000,2.000000,0.000000,0.000000,0.000000,0.000000,0.000000;
#CREDIT:;
#NOTES:
0000
0000
0000
0000
,
0000
0000
0000
0000
,
0000
0000
0000
0000
,
0000
0000
0000
0000
,
0010
0000
0000
0000
0000
0000
0001
0010
,
0100
0000
0000
0000
0000
0000
1000
0010
,
0100
0000
0000
0000
0000
0000
1000
0010
,
0100
0000
0000
0000
,
1001
0000
1000
0000
1000
0000
0001
0010
,
0100
0000
0100
0000
0100
0000
0010
1000
,
0001
0000
0001
0000
0001
0000
1000
0100
,
0010
0010
0010
0010
,
1001
0000
1000
0100
0001
0100
1000
0000
,
0110
0000
0010
1000
0100
1000
0010
0000
,
1001
0000
0001
0100
1000
0100
0001
0000
,
0220
0000
0000
0330
,
0010
1000
0100
0000
0010
0001
0100
0000
,
0010
1000
0100
0010
0001
0100
0010
0000
,
0010
1000
0100
0000
0010
0001
0100
0000
,
0010
0001
0100
0001
0100
1000
0100
0000
,
0010
1000
0100
0000
0010
0001
0100
0000
,
0010
1000
0010
0001
0010
1000
0100
0000
,
0010
0001
0100
0000
0010
1000
0100
0000
,
0010
0010
1000
0100
0100
1000
0010
0000
,
1000
0010
0000
1000
0010
1000
0010
0000
,
1001
0000
0010
1000
0100
0100
0010
0000
,
0001
0100
0010
0000
1000
0100
0010
0000
,
0001
1000
0100
0000
1000
0010
0100
0000
,
0001
0000
0001
0010
0000
1000
0010
0010
,
0100
0001
1000
0000
0010
1000
0001
0000
,
0010
0001
0100
0000
0001
0010
0100
0000
,
0010
0010
1000
0000
0001
0001
0100
0000
,
0010
0000
0010
0000
0100
0100
0010
0010
,
0000
0100
0000
0100
0000
0001
0000
0000
0000
0000
0000
0000
1000
0000
1000
0000
,
0001
0000
0101
0000
1100
0000
1000
0001
,
0000
0010
0000
0100
0000
0100
0000
0000
0000
0000
0000
0000
0001
0000
0001
0000
,
0010
0100
0010
0100
0010
0001
0001
0010
,
0000
1000
0000
1000
0000
0001
0000
0000
0000
0000
0000
0000
0001
0000
0001
0000
,
1000
0000
0011
0000
1010
0000
0010
1000
,
0000
0001
0000
1000
0000
0100
0000
0000
0000
0000
0000
0000
0010
0000
0010
0000
,
0001
1000
0001
1000
0001
1000
0100
0100
,
0010
1000
0100
0000
0001
0000
0100
0000
,
1000
0100
0001
0000
0100
0000
0001
0000
,
0100
1000
0001
0000
0100
0000
0010
0000
,
0001
0001
1000
0000
0010
0100
0001
0100
,
0100
0010
0000
1000
0000
0010
0000
0001
,
0001
0000
0010
0000
0100
0000
0001
1000
,
0001
0000
0010
0000
0010
0000
0100
0100
,
0001
0001
1000
0000
0010
0000
0100
0000
,
0001
0100
1000
0000
0001
0100
1000
0000
,
0100
0001
0010
0000
0100
0001
0010
0000
,
1000
1000
0010
0000
0001
0001
0010
0000
,
1000
0001
1000
1000
0010
0100
0100
0000
,
1001
0000
0000
0000
,
0000
1000
0000
1000
0000
1000
0000
0000
0000
0000
0000
0000
0001
0000
0001
0000
,
0010
1001
0100
1001
,
0000
0001
0000
0001
0000
0001
0000
0000
0000
0000
0000
0000
1000
0000
1000
0000
,
0010
0100
0010
0100
0010
0100
0001
0001
,
0000
0100
0000
0100
0000
0100
0000
0000
0000
0000
0000
0000
0010
0000
0010
0000
,
0001
0110
1000
0110
,
0000
0010
0000
0010
0000
0010
0000
0000
0000
0000
0100
0000
0100
0000
0001
0000
,
1000
0001
1000
0010
1000
0001
0100
0000
,
0001
0010
0000
0001
0001
0010
0000
0001
,
0001
0010
0000
0001
0010
0001
0010
0000
,
1001
0000
0000
0000
;

//---------------dance-single - ----------------
#NOTEDATA:;
#CHARTNAME:;
#STEPSTYPE:dance-single;
#DESCRIPTION:;
#CHARTSTYLE:;
#DIFFICULTY:Hard;
#METER:9;
#RADARVALUES:0.646765,0.697430,0.356640,0.000000,0.445801,457.000000,421.000000,36.000000,0.000000,0.000000,0.000000,0.000000,0.000000,0.000000,0.646765,0.697430,0.356640,0.000000,0.445801,457.000000,421.000000,36.000000,0.000000,0.000000,0.000000,0.000000,0.000000,0.000000;
#CREDIT:;
#NOTES:
// measure 0
0000
0000
0000
0000
,  // measure 1
0000
0000
0000
0000
,  // measure 2
0000
0000
0000
0000
,  // measure 3
0000
0000
0000
0000
,  // measure 4
1000
0000
0010
0000
0000
0100
0000
0000
0001
0000
0000
0010
0000
0000
0100
0000
,  // measure 5
1000
0000
0100
0000
0000
0010
0000
0000
0001
0000
0000
0010
0000
0000
0100
0000
,  // measure 6
1000
0000
0100
0000
0000
0010
0000
0000
0001
0000
0000
0100
0000
0000
0010
0000
,  // measure 7
1000
0100
1000
0001
1000
0010
1000
0001
,  // measure 8
1001
0000
0000
1000
0000
0000
0001
0000
0000
0100
0000
0000
0010
0000
1000
0000
,  // measure 9
0001
0000
0000
1000
0000
0000
0001
0000
0000
0100
0000
0000
0001
0000
0010
0000
,  // measure 10
0100
0000
0000
0010
0000
0000
0100
0000
0000
1000
0000
0000
0010
0000
0100
0000
,  // measure 11
1100
0000
0000
0100
0000
0000
1000
0000
0000
0010
0000
0000
0100
0000
0001
0000
,  // measure 12
0010
0000
0000
0100
0000
0000
0001
0000
0000
0100
0000
0000
1000
0000
0010
0000
,  // measure 13
1001
0000
0000
1000
0000
0000
1001
0000
0000
0010
0000
0000
0100
0000
0010
0000
,  // measure 14
0110
0000
0000
0100
0000
0000
0110
0000
0000
0001
0000
0000
0001
0000
1000
0000
,  // measure 15
1001
0100
0001
1000
0001
0100
0001
0010
,  // measure 16
1001
0000
0010
1000
0001
0100
0100
0010
,  // measure 17
0011
0000
0100
1000
0010
0100
0001
0010
,  // measure 18
1001
0000
0100
1000
0001
0010
0010
0100
,  // measure 19
1100
0000
0010
0001
1000
0100
0100
0001
,  // measure 20
1001
0000
1000
0010
0010
0100
0001
0010
,  // measure 21
0110
0000
1000
0001
0010
0100
0100
0010
,  // measure 22
1001
0000
0001
1000
0100
0100
0001
1000
,  // measure 23
0110
0000
1000
0001
0010
0010
0100
0000
,  // measure 24
0010
1001
0000
0100
1100
0100
0101
0000
,  // measure 25
1001
1000
0100
0000
0001
0100
0010
0000
,  // measure 26
1000
0010
0100
0001
0100
0010
1000
0000
,  // measure 27
0100
0001
0100
0001
0010
0010
0100
0000
,  // measure 28
0010
0100
0001
1000
0010
0100
0001
0000
,  // measure 29
1000
0100
0001
1000
0100
0001
0100
0000
,  // measure 30
0001
0100
1000
0001
0100
1000
0100
0000
,  // measure 31
1000
0010
0100
0001
0100
0001
0010
0100
,  // measure 32
1001
0000
1100
0000
1000
1000
0001
0001
,  // measure 33
0010
1000
0000
0100
0000
0010
0000
0001
0000
0100
0000
0010
1000
0000
0001
0000
,  // measure 34
0101
0000
1100
0000
0010
0010
0100
0000
,  // measure 35
0100
1000
0000
0001
0000
0100
0000
0010
0000
1000
0000
0001
1000
0000
1000
0000
,  // measure 36
0010
0100
0010
0100
0001
0001
1000
1000
,  // measure 37
0010
0001
0000
0100
0000
0001
0000
1000
0000
0010
0000
0001
0010
0000
0010
0000
,  // measure 38
1010
0000
0011
0000
0100
0100
0010
0000
,  // measure 39
0001
1000
0000
0100
0000
0010
0000
0001
0000
0100
0000
0010
1000
0000
0001
0000
,  // measure 40
0010
0000
0001
0100
0001
0000
0010
0000
0100
1000
0100
0000
1000
0001
1000
0001
,  // measure 41
1000
0000
0010
0000
0000
0100
0000
0000
0001
0000
0000
0010
0000
0000
0100
0000
,  // measure 42
1000
0000
0001
0000
0000
0001
0000
0000
1000
0000
0000
1000
0000
0000
0001
0000
,  // measure 43
0010
0000
0100
0000
0000
1000
0000
0000
0001
0000
0000
0100
0000
0000
0100
0000
,  // measure 44
0100
0000
0010
0000
0000
0010
0000
0000
0001
0000
0000
0100
0000
0000
1000
0000
,  // measure 45
0010
0010
0100
0001
1000
0100
0010
0010
,  // measure 46
0100
1000
0001
1000
0100
1000
0001
0001
,  // measure 47
0010
1001
0000
0100
1100
0010
0011
0000
,  // measure 48
1001
0000
0110
0000
0010
0010
0010
0000
,  // measure 49
1000
1100
0000
0000
0001
0101
0100
0000
,  // measure 50
0010
1000
0100
0000
0010
0001
0100
0000
,  // measure 51
0010
1000
0001
0100
0010
0010
1000
0000
,  // measure 52
0010
1000
0001
0010
0100
0100
1000
0010
,  // measure 53
1001
0000
0000
0000
,  // measure 54
0010
0100
0000
0001
0000
1000
0000
0100
0000
1000
0000
0010
0100
0000
0010
0000
,  // measure 55
1001
0000
0000
0001
0100
0000
0000
0100
0010
0000
0000
0010
1000
0000
1000
0000
,  // measure 56
0001
0010
0000
0010
0000
0100
0000
1000
0000
1000
0000
0010
0100
0000
0100
0000
,  // measure 57
0001
1000
0001
1000
0100
0010
0001
0100
,  // measure 58
0010
1000
0000
0001
0000
0001
0000
1000
0000
1000
0000
0100
0010
0000
0001
0000
,  // measure 59
0110
0000
0000
0100
1000
0000
0000
1000
0001
0000
0000
0001
0010
0000
0010
0000
,  // measure 60
0100
1000
0000
0001
0000
0100
0000
0010
0000
0010
0000
1000
0001
0000
1000
0000
,  // measure 61
0010
0000
0100
0001
0100
0000
0010
0000
1000
0100
1000
0000
0001
1000
0001
1000
,  // measure 62
0001
0010
0000
0100
0100
0001
0000
1000
,  // measure 63
1000
0100
0000
0010
1000
0010
1000
0000
,  // measure 64
1001
0000
0000
0000
;
