#TITLE:Angels Crying;
#SUBTITLE:;
#ARTIST:E-Type;
#TITLETRANSLIT:;
#SUBTITLETRANSLIT:;
#ARTISTTRANSLIT:;
#GENRE:;
#CREDIT:;
#BANNER:Angelscrying bn2.png;
#BACKGROUND:Angelscrying bg.png;
#LYRICSPATH:;
#CDTITLE:;
#MUSIC:Angels Crying.mp3;
#OFFSET:-0.580000;
#SAMPLESTART:55.689999;
#SAMPLELENGTH:12.000000;
#SELECTABLE:YES;
#BPMS:0.000000=138.250000
;
#STOPS:
;
#BGCHANGES:;
#KEYSOUNDS:;
#ATTACKS:;

//---------------dance-single - ----------------
#NOTES:
     dance-single:
     :
     Easy:
     3:
     0.301506,0.387216,0.374451,0.260981,0.000000,186.000000,153.000000,33.000000,23.000000,0.000000,0.000000,0.301506,0.387216,0.374451,0.260981,0.000000,186.000000,153.000000,33.000000,23.000000,0.000000,0.000000:
// measure 0
0000
0000
0000
0000
,  // measure 1
0000
0000
0000
0000
,  // measure 2
0000
0000
0000
0000
,  // measure 3
0000
0000
0000
0000
,  // measure 4
2000
3000
0020
0030
,  // measure 5
0200
0300
0002
0003
,  // measure 6
0200
0000
0000
0300
,  // measure 7
2002
3003
0100
0100
,  // measure 8
1001
0001
0010
0100
,  // measure 9
1000
1000
0100
0001
,  // measure 10
0100
0100
1000
0001
,  // measure 11
0100
0100
0010
1000
,  // measure 12
0001
0001
1000
0010
,  // measure 13
0100
0100
0001
0010
,  // measure 14
0001
0001
0010
1000
,  // measure 15
0100
0100
0001
0010
,  // measure 16
1001
1000
0000
1000
,  // measure 17
0000
0100
0000
0001
,  // measure 18
0000
0100
0000
1000
,  // measure 19
0001
0100
0100
0010
,  // measure 20
1001
0010
1000
0001
,  // measure 21
0002
1003
0100
1000
,  // measure 22
0020
1030
1000
0001
,  // measure 23
1001
0010
0010
0100
,  // measure 24
1001
0000
1000
0100
,  // measure 25
1001
0000
0001
0100
,  // measure 26
1001
0010
1000
0100
,  // measure 27
1001
0001
1000
0100
,  // measure 28
1001
0010
1000
0001
,  // measure 29
1001
0010
0001
1000
,  // measure 30
1001
0010
0001
0100
,  // measure 31
1001
0100
0100
0100
,  // measure 32
1001
0000
0001
0010
,  // measure 33
0200
1300
2000
3001
,  // measure 34
1001
0000
0010
0100
,  // measure 35
1001
1100
1001
0101
,  // measure 36
1001
0000
1000
0010
,  // measure 37
0200
0301
0002
1003
,  // measure 38
0010
1001
0010
1001
,  // measure 39
0220
0330
0010
0100
,  // measure 40
1001
0000
1000
0001
,  // measure 41
0020
0130
0200
0310
,  // measure 42
1001
0000
0010
0100
,  // measure 43
1001
0011
1001
1010
,  // measure 44
1001
0000
0001
1000
,  // measure 45
0020
0130
0200
0310
,  // measure 46
0100
1001
0100
1001
,  // measure 47
0200
0300
0020
0030
,  // measure 48
2002
0000
0000
3003
;

//---------------dance-single - ----------------
#NOTES:
     dance-single:
     :
     Medium:
     5:
     0.379314,0.442533,0.408492,0.238287,0.000000,234.000000,198.000000,36.000000,21.000000,0.000000,0.000000,0.379314,0.442533,0.408492,0.238287,0.000000,234.000000,198.000000,36.000000,21.000000,0.000000,0.000000:
// measure 0
0000
0000
0000
0000
,  // measure 1
0000
0000
0000
0000
,  // measure 2
0000
0000
0000
0000
,  // measure 3
0000
0000
0000
0000
,  // measure 4
2000
3000
0200
0300
,  // measure 5
2000
3000
0002
0003
,  // measure 6
0020
0000
0000
0030
,  // measure 7
1001
0100
0100
0100
,  // measure 8
1001
0000
1000
0000
0100
0000
0001
0100
,  // measure 9
1000
0000
0001
0000
0100
0000
1000
0100
,  // measure 10
0001
0000
1000
0000
0010
0000
0001
0010
,  // measure 11
1000
0000
0001
0000
0010
0000
1000
0010
,  // measure 12
0001
0000
0001
0001
0001
0000
0001
0010
,  // measure 13
1000
0000
1000
1000
1000
0000
1000
0100
,  // measure 14
0001
0000
0001
0001
0001
0000
0001
1000
,  // measure 15
0010
0000
0010
0010
0010
0000
1001
0000
,  // measure 16
1000
0100
0000
0100
0000
0100
0000
0100
,  // measure 17
0000
0010
0000
0010
0000
0010
0000
0010
,  // measure 18
0000
0001
0000
0001
0000
0001
0000
0001
,  // measure 19
0000
0100
0000
0100
0000
0100
0000
0100
,  // measure 20
0000
0010
0000
1000
0000
0100
0000
0010
,  // measure 21
0000
0001
0000
0100
0000
0010
0000
1000
,  // measure 22
0000
0100
0000
0010
0000
0001
0000
1000
,  // measure 23
0000
0001
0000
0100
0000
0010
0000
1000
,  // measure 24
0001
0000
1001
0000
1000
0100
0001
0000
,  // measure 25
0100
0000
1001
0000
0001
0100
1000
0000
,  // measure 26
0100
0000
1001
0000
0001
0100
1000
0100
,  // measure 27
0002
1003
0002
0103
,  // measure 28
1010
0000
1001
0000
0001
0010
0100
0000
,  // measure 29
0110
0000
1001
0000
1000
0100
0010
0000
,  // measure 30
0011
0000
1001
0000
0001
1000
0100
1000
,  // measure 31
0001
0000
0100
0000
0100
0000
0001
1000
,  // measure 32
1001
0001
0000
0100
0010
0000
1000
0000
,  // measure 33
1002
0103
2010
3001
,  // measure 34
0100
0100
0010
1000
,  // measure 35
0001
0100
1000
0000
0001
0100
1000
0000
,  // measure 36
1001
1000
0010
0100
,  // measure 37
2001
3100
0012
1003
,  // measure 38
0110
1001
0110
1001
,  // measure 39
0220
0000
0330
0000
0001
0000
1000
0001
,  // measure 40
1001
1000
0000
0100
0010
0000
0001
0000
,  // measure 41
2001
3100
0012
1003
,  // measure 42
0010
0000
0010
0000
0100
0001
0010
0000
,  // measure 43
0001
0010
1000
0000
0001
0010
1000
0000
,  // measure 44
1001
0001
0010
0100
,  // measure 45
1002
0103
2010
3001
,  // measure 46
0110
1001
0110
1001
,  // measure 47
2100
3001
0012
0103
,  // measure 48
2002
0000
0000
3003
;

//---------------dance-single - ----------------
#NOTES:
     dance-single:
     :
     Hard:
     7:
     0.513857,0.553166,0.510615,0.170205,0.034041,317.000000,272.000000,45.000000,15.000000,0.000000,0.000000,0.513857,0.553166,0.510615,0.170205,0.034041,317.000000,272.000000,45.000000,15.000000,0.000000,0.000000:
// measure 0
0000
0000
0000
0000
,  // measure 1
0000
0000
0000
0000
,  // measure 2
0000
0000
0000
0000
,  // measure 3
0000
0000
0000
0000
,  // measure 4
2000
3000
0200
0300
,  // measure 5
0002
0003
2000
3000
,  // measure 6
0001
0000
1000
0000
,  // measure 7
1001
0000
0100
0000
0100
1000
1000
1000
,  // measure 8
0001
0010
0001
0010
0100
1000
0010
0100
,  // measure 9
0010
1000
0010
1000
0001
0100
0010
0100
,  // measure 10
0001
1000
0001
1000
0001
0010
0100
0010
,  // measure 11
0100
1000
0100
1000
0100
0010
0001
1000
,  // measure 12
0010
0100
0010
1000
0100
0010
0001
1000
,  // measure 13
0100
1000
0001
0100
0001
1000
0100
0010
,  // measure 14
0001
1000
0100
1000
0001
0100
0010
1000
,  // measure 15
0001
0010
0001
0001
0001
1000
0100
0010
,  // measure 16
0002
0000
1003
0100
1100
0000
0001
0100
,  // measure 17
0010
1000
0001
1000
1100
0010
0001
0100
,  // measure 18
0020
0000
1030
0100
0010
0100
0100
0010
,  // measure 19
0011
0000
1000
1000
1000
0001
0001
0010
,  // measure 20
0200
0000
0310
0001
1000
0100
0100
0020
,  // measure 21
1000
0000
0031
0001
0100
0010
1000
0001
,  // measure 22
0101
0000
1010
1000
0001
0100
0001
0000
,  // measure 23
0110
1000
0110
0001
,  // measure 24
1001
0000
0001
0100
1000
0100
0001
0000
,  // measure 25
1001
0000
1000
0100
0001
0100
1000
0000
,  // measure 26
0110
0000
0001
0100
1000
0000
0010
0001
,  // measure 27
0100
0000
0000
0100
0010
0000
0000
0010
0100
0000
0000
0000
0100
0000
0000
0000
,  // measure 28
1001
1000
0001
0100
1000
0100
0001
0000
,  // measure 29
1001
0001
1000
0100
0001
0100
1000
0000
,  // measure 30
0110
0001
0100
1000
0100
0001
0010
1000
,  // measure 31
0001
0000
0000
0000
0100
0000
0000
0000
0100
0000
0000
0000
1000
0001
1000
0001
,  // measure 32
1000
0010
0000
0010
1000
0001
0010
0100
,  // measure 33
2100
0000
3001
0000
0110
0000
1100
1000
,  // measure 34
1001
0000
0100
0000
0010
0100
0001
1000
,  // measure 35
0010
1000
0100
1000
0010
0100
0101
0000
,  // measure 36
1001
0000
1100
0000
0001
0010
0001
0100
,  // measure 37
0210
0000
0301
0000
1000
0010
0001
0000
,  // measure 38
1100
0110
0011
0110
,  // measure 39
1001
0000
0000
0000
1000
0000
0000
0000
0001
0000
0000
0000
1000
0001
1000
0001
,  // measure 40
1000
0100
0000
0010
0011
0000
1100
0000
,  // measure 41
0101
0001
1000
0100
0110
0000
1001
0000
,  // measure 42
0001
0100
1001
0110
,  // measure 43
0001
0100
0010
0100
0001
0100
0010
1000
,  // measure 44
1001
0001
0100
0010
0110
0000
1010
0000
,  // measure 45
1002
0000
0103
1000
0010
0001
0100
0000
,  // measure 46
1001
1010
1001
0011
,  // measure 47
1002
0013
0210
0301
,  // measure 48
2002
0000
0000
3003
;
