#TITLE:Alloy Warrior;
#SUBTITLE:;
#ARTIST:Hirokazu Ando;
#TITLETRANSLIT:;
#SUBTITLETRANSLIT:;
#ARTISTTRANSLIT:;
#GENRE:;
#CREDIT:;
#BANNER:alloy bn.png;
#BACKGROUND:alloy bg.png;
#LYRICSPATH:;
#CDTITLE:;
#MUSIC:alloy.mp3;
#OFFSET:0.250000;
#SAMPLESTART:29.320000;
#SAMPLELENGTH:12.000000;
#SELECTABLE:YES;
#BPMS:0.000000=300.350006
;
#STOPS:
;
#BGCHANGES:;
#KEYSOUNDS:;
#ATTACKS:;

//---------------dance-single - ----------------
#NOTES:
     dance-single:
     :
     Easy:
     4:
     0.326417,0.503168,0.016205,0.000000,0.000000,141.000000,140.000000,1.000000,0.000000,0.000000,0.000000,0.326417,0.503168,0.016205,0.000000,0.000000,141.000000,140.000000,1.000000,0.000000,0.000000,0.000000:
// measure 0
0000
0000
0000
0000
,  // measure 1
0000
0000
0000
0000
,  // measure 2
0000
0000
0000
0000
,  // measure 3
0000
0000
0000
0000
,  // measure 4
0000
0000
0000
0000
,  // measure 5
1000
0000
1000
0000
,  // measure 6
0001
0000
0001
0000
,  // measure 7
0010
0000
0010
0000
,  // measure 8
0100
0000
0100
0000
,  // measure 9
1000
0000
0100
0000
,  // measure 10
0001
0000
0100
0000
,  // measure 11
1000
0000
0010
0000
,  // measure 12
0001
0000
0010
0000
,  // measure 13
1000
0000
0001
0000
,  // measure 14
1000
0000
0001
0000
,  // measure 15
0100
0000
0010
0000
,  // measure 16
0100
0000
0010
0000
,  // measure 17
1000
0000
0010
0000
,  // measure 18
0100
0000
0001
0000
,  // measure 19
1000
0000
0010
0000
,  // measure 20
0001
0001
1000
1000
,  // measure 21
0001
0000
0000
0000
,  // measure 22
1000
0001
0000
0000
,  // measure 23
0010
0000
0000
0000
,  // measure 24
0100
0010
0000
0000
,  // measure 25
1000
0000
0000
0000
,  // measure 26
0100
1000
0000
0000
,  // measure 27
0001
0000
0000
0000
,  // measure 28
0010
0001
0000
0000
,  // measure 29
1000
0000
0000
0000
,  // measure 30
0010
0100
0000
0000
,  // measure 31
0001
0000
0000
0000
,  // measure 32
0010
0100
0000
0000
,  // measure 33
1000
0000
0000
0000
,  // measure 34
0010
0100
0000
0000
,  // measure 35
1000
0000
0001
0000
,  // measure 36
0001
0100
1000
0100
,  // measure 37
0001
0000
1000
0000
,  // measure 38
0000
0100
0000
0010
,  // measure 39
0001
0000
1000
0000
,  // measure 40
0000
0100
0000
0010
,  // measure 41
1000
0000
0001
0000
,  // measure 42
0000
1000
0000
0001
,  // measure 43
0100
0000
0010
0000
,  // measure 44
0000
0100
0000
0010
,  // measure 45
1000
0000
0100
0000
,  // measure 46
0000
0001
0000
0100
,  // measure 47
1000
0000
0010
0000
,  // measure 48
0000
0001
0000
0010
,  // measure 49
1000
0000
0001
0000
,  // measure 50
1000
0000
0001
0000
,  // measure 51
0100
0000
0010
0000
,  // measure 52
0100
0000
0010
0000
,  // measure 53
1001
0000
0100
0000
,  // measure 54
0010
0001
0000
1000
,  // measure 55
0010
0000
1000
0000
,  // measure 56
0100
0001
0000
1000
,  // measure 57
0001
0000
0100
0000
,  // measure 58
0010
0001
0000
1000
,  // measure 59
0010
0000
1000
0000
,  // measure 60
0100
0001
0000
1000
,  // measure 61
0100
0001
0100
0000
,  // measure 62
1000
0100
1000
0000
,  // measure 63
0100
0001
0100
0000
,  // measure 64
1000
0100
1000
0000
,  // measure 65
0001
1000
0001
0000
,  // measure 66
0010
0100
0010
0000
,  // measure 67
0001
0010
0100
1000
,  // measure 68
0001
0010
0100
1000
,  // measure 69
0010
0000
0000
0000
;

//---------------dance-single - ----------------
#NOTES:
     dance-single:
     :
     Medium:
     7:
     0.534768,0.782706,0.340307,0.000000,0.000000,231.000000,210.000000,21.000000,0.000000,0.000000,0.000000,0.534768,0.782706,0.340307,0.000000,0.000000,231.000000,210.000000,21.000000,0.000000,0.000000,0.000000:
// measure 0
0000
0000
0000
0000
,  // measure 1
0000
0000
0000
0000
,  // measure 2
0000
0000
0000
0000
,  // measure 3
0000
0000
0000
0000
,  // measure 4
0000
0000
0000
0000
,  // measure 5
1000
0100
0001
0100
,  // measure 6
1000
0100
0001
0100
,  // measure 7
1000
0010
0100
0001
,  // measure 8
1000
0010
0100
0001
,  // measure 9
1000
0001
1000
0001
,  // measure 10
0010
0100
0010
0100
,  // measure 11
0001
1000
0001
1000
,  // measure 12
0100
0010
0100
0010
,  // measure 13
1000
0000
0001
0000
,  // measure 14
1000
0000
0001
0100
,  // measure 15
1000
0000
0001
0000
,  // measure 16
1000
0000
0001
0100
,  // measure 17
1000
0000
0001
0000
,  // measure 18
1000
0000
0001
0000
,  // measure 19
0010
0010
0001
0001
,  // measure 20
0100
0100
1000
1000
,  // measure 21
1001
0000
0110
0000
,  // measure 22
1000
0001
0000
0000
,  // measure 23
0110
0000
1001
0000
,  // measure 24
0100
0010
0000
0000
,  // measure 25
1001
0000
0110
0000
,  // measure 26
0001
1000
0000
0000
,  // measure 27
0110
0000
1001
0000
,  // measure 28
0010
0100
0000
0000
,  // measure 29
1000
0010
0001
0010
,  // measure 30
1000
0100
0000
0000
,  // measure 31
0001
0100
1000
0010
,  // measure 32
1000
0100
0000
0000
,  // measure 33
0001
0010
1000
0100
,  // measure 34
0001
0100
0000
0000
,  // measure 35
1000
0010
0001
0100
,  // measure 36
1000
0100
0000
0000
,  // measure 37
0010
1000
0100
0001
,  // measure 38
0100
1000
0010
0000
,  // measure 39
1000
0100
0001
0010
,  // measure 40
0001
0100
1000
0000
,  // measure 41
0100
0001
0010
1000
,  // measure 42
0010
0001
0100
0000
,  // measure 43
0001
0010
1000
0100
,  // measure 44
1000
0010
0001
0000
,  // measure 45
1000
0001
1000
0001
,  // measure 46
0010
0100
0010
0100
,  // measure 47
1000
0010
0001
0100
,  // measure 48
0001
0010
1000
0100
,  // measure 49
1000
1000
0001
0001
,  // measure 50
0010
0010
0100
0100
,  // measure 51
0001
0001
0010
1000
,  // measure 52
0100
0100
0001
0000
,  // measure 53
0010
1000
0100
1000
,  // measure 54
0110
1001
0000
0000
,  // measure 55
0010
0001
0100
0001
,  // measure 56
0110
1001
0000
0000
,  // measure 57
0010
1000
0100
1000
,  // measure 58
0110
1001
0000
0000
,  // measure 59
0010
0001
0100
0001
,  // measure 60
0110
1001
0000
0000
,  // measure 61
1000
0001
1000
0001
,  // measure 62
0010
1001
0000
0110
,  // measure 63
0000
0000
1000
0001
,  // measure 64
0010
1001
0000
0110
,  // measure 65
0001
0010
0100
1000
,  // measure 66
0001
0010
0100
1000
,  // measure 67
0100
1000
0100
0000
0001
0100
0001
0000
,  // measure 68
0010
0001
0010
0000
1000
0010
1000
0000
,  // measure 69
1001
0000
0000
0000
;

//---------------dance-single - ----------------
#NOTES:
     dance-single:
     :
     Hard:
     9:
     0.710709,0.950429,0.000000,0.000000,0.000000,307.000000,307.000000,0.000000,0.000000,0.000000,0.000000,0.710709,0.950429,0.000000,0.000000,0.000000,307.000000,307.000000,0.000000,0.000000,0.000000,0.000000:
// measure 0
0000
0000
0000
0000
,  // measure 1
0000
0000
0000
0000
,  // measure 2
0000
0000
0000
0000
,  // measure 3
0000
0000
0000
0000
,  // measure 4
0000
0000
0000
0000
,  // measure 5
1000
0100
0001
1000
,  // measure 6
0001
1000
0010
0001
,  // measure 7
1000
0010
1000
0100
,  // measure 8
0001
1000
0010
0100
,  // measure 9
1000
0001
0010
1000
,  // measure 10
0001
0010
0100
1000
,  // measure 11
1000
0100
1000
0000
0001
1000
0001
0000
,  // measure 12
0001
0010
0100
1000
0010
0100
0001
0010
,  // measure 13
1000
0001
0100
1000
,  // measure 14
0100
0001
0010
1000
,  // measure 15
0010
0100
0001
1000
,  // measure 16
0010
0100
1000
0001
,  // measure 17
1000
0100
1000
0000
0001
1000
0001
0000
,  // measure 18
0010
1000
0010
0000
0001
1000
0001
0000
,  // measure 19
0001
1000
0010
1000
0001
0100
0010
1000
,  // measure 20
0001
0010
0100
1000
0010
1000
0001
0100
,  // measure 21
0010
0000
0100
0000
,  // measure 22
1000
0001
1000
0000
0000
0000
0000
0000
,  // measure 23
1000
0000
0001
0000
,  // measure 24
0010
0100
0010
0000
0000
0000
0000
0000
,  // measure 25
0100
0000
0010
0000
,  // measure 26
0001
1000
0001
0000
0000
0000
0000
0000
,  // measure 27
0001
0000
1000
0000
,  // measure 28
0100
0010
0100
0000
0000
0000
0000
0000
,  // measure 29
0010
0001
0010
0000
0100
0000
0010
0000
,  // measure 30
0001
1000
0000
0000
,  // measure 31
1000
0100
1000
0000
0001
0000
1000
0000
,  // measure 32
0100
0010
0000
0000
,  // measure 33
0001
0100
0001
0000
1000
0000
0001
0000
,  // measure 34
0010
0100
0000
0000
,  // measure 35
0010
1000
0010
0000
0100
0000
0010
0000
,  // measure 36
1000
0001
0000
0000
,  // measure 37
1000
0100
0001
0010
,  // measure 38
0001
0100
1000
0010
,  // measure 39
1000
0100
0001
0010
,  // measure 40
0100
1000
0001
1000
,  // measure 41
0100
0010
0001
1000
,  // measure 42
0010
1000
0100
0001
,  // measure 43
1000
0010
0001
1000
,  // measure 44
0010
0100
0001
1000
,  // measure 45
1000
0100
1000
0000
0001
1000
0001
0000
,  // measure 46
0010
1000
0010
0000
0001
1000
0001
0000
,  // measure 47
0100
0001
0100
0000
0010
0100
0010
0000
,  // measure 48
1000
0100
1000
0000
0010
0100
0010
0000
,  // measure 49
1000
0001
1000
0000
0010
0100
0010
0000
,  // measure 50
0001
1000
0001
0000
0100
0010
0100
0000
,  // measure 51
0001
1000
0010
0100
0001
1000
0100
0010
,  // measure 52
0001
1000
0010
0100
0001
1000
0010
0100
,  // measure 53
0010
0100
0001
1000
,  // measure 54
0010
0100
0001
1000
,  // measure 55
0001
0001
0010
0010
,  // measure 56
0100
0100
1000
1000
,  // measure 57
0010
1000
0010
0000
0100
0001
0100
0000
,  // measure 58
0010
0100
0001
1000
,  // measure 59
0010
0100
0010
0100
,  // measure 60
0001
1000
0010
0100
0001
0000
1000
0000
,  // measure 61
0010
0100
0010
0100
0010
0100
0010
0100
,  // measure 62
0010
0001
1000
0100
,  // measure 63
0001
1000
0001
1000
0001
1000
0001
1000
,  // measure 64
0001
0010
0100
1000
,  // measure 65
0100
1000
0001
1000
0010
0100
0001
1000
,  // measure 66
0010
1000
0100
0010
0001
1000
0010
0100
,  // measure 67
0001
1000
0100
0010
0001
1000
0010
0100
,  // measure 68
0001
1000
0010
0100
0001
1000
0100
1000
,  // measure 69
0010
0000
0000
0000
;
