#TITLE:After Burner;
#SUBTITLE:;
#ARTIST:Hiroshi Miyauchi (After Burner - 1987);
#TITLETRANSLIT:;
#SUBTITLETRANSLIT:;
#ARTISTTRANSLIT:;
#GENRE:;
#CREDIT:;
#BANNER:aftb bn.png;
#BACKGROUND:aftb bg.png;
#LYRICSPATH:;
#CDTITLE:;
#MUSIC:aburn.mp3;
#OFFSET:0.505000;
#SAMPLESTART:38.919998;
#SAMPLELENGTH:12.000000;
#SELECTABLE:YES;
#BPMS:0.000000=174.899994
;
#STOPS:279.000000=1.080000
;
#BGCHANGES:;
#KEYSOUNDS:;
#ATTACKS:;

//---------------dance-single - ----------------
#NOTES:
     dance-single:
     :
     Easy:
     4:
     0.406050,0.486976,0.248457,0.000000,0.074537,286.000000,261.000000,25.000000,0.000000,0.000000,0.000000,0.406050,0.486976,0.248457,0.000000,0.074537,286.000000,261.000000,25.000000,0.000000,0.000000,0.000000:
// measure 0
0000
0000
0000
0000
,  // measure 1
0000
0000
0000
0000
,  // measure 2
0000
0000
0000
0000
,  // measure 3
0000
0000
0000
0000
,  // measure 4
0000
0000
0000
1000
,  // measure 5
0001
0001
0001
1000
,  // measure 6
0100
0100
1000
0010
,  // measure 7
0100
0100
0100
0010
,  // measure 8
0100
0001
0001
0010
,  // measure 9
1001
0100
0001
1000
,  // measure 10
0100
0000
0000
0001
0000
0001
0000
0001
0000
0000
0000
0000
,  // measure 11
1001
0010
1000
0001
,  // measure 12
0010
0000
0000
1000
0000
1000
0000
1000
0000
0000
0000
0000
,  // measure 13
1001
0100
0001
1000
,  // measure 14
0100
0000
0000
0001
0000
0001
0000
0001
0000
0000
0000
0000
,  // measure 15
1001
0010
1000
0001
,  // measure 16
0010
0000
0000
1000
0000
1000
0000
1000
0000
0000
0000
0000
,  // measure 17
1001
0100
0001
1000
,  // measure 18
0110
0000
0000
1000
0000
0001
0000
1000
0000
0000
0000
0000
,  // measure 19
1001
0010
1000
0001
,  // measure 20
0110
0000
0000
0001
0000
1000
0000
0001
0000
0000
0000
0000
,  // measure 21
1001
0100
0001
1000
,  // measure 22
0110
0000
0000
1000
0000
0001
0000
1000
0000
0000
0000
0000
,  // measure 23
1001
0010
1000
0001
,  // measure 24
0110
0000
0000
1000
0000
1000
0000
0000
0000
0010
0000
0000
,  // measure 25
0000
0000
0000
0000
0100
0100
0000
0000
,  // measure 26
0000
0000
0000
0000
0000
0000
0000
0010
,  // measure 27
0000
0000
1000
1000
0000
0000
0000
0000
,  // measure 28
0001
0001
0000
0000
0000
0000
1001
0000
,  // measure 29
1000
0100
0001
0010
,  // measure 30
1000
0000
0100
0000
0001
0001
1000
0000
,  // measure 31
0010
0100
0010
0100
,  // measure 32
1000
0001
0010
1000
,  // measure 33
0001
0010
0100
1000
,  // measure 34
0010
0000
0000
0100
1000
0100
0000
0000
,  // measure 35
0100
1000
0010
1000
,  // measure 36
0010
0100
1000
0010
,  // measure 37
0010
0001
0001
0100
,  // measure 38
0100
1000
1001
0001
,  // measure 39
0100
1000
0010
1000
,  // measure 40
0001
0110
0010
1000
,  // measure 41
0100
1000
0010
0001
,  // measure 42
0100
0001
1000
0001
,  // measure 43
0100
0001
1000
0100
,  // measure 44
0001
0000
1000
0000
0100
0100
0000
0000
,  // measure 45
0010
0100
0001
1000
,  // measure 46
0010
0100
0001
0010
,  // measure 47
1000
0100
0001
0100
,  // measure 48
1000
0010
0001
1100
,  // measure 49
1000
0100
0001
1010
,  // measure 50
0010
0100
1000
0011
,  // measure 51
0001
0100
0010
0101
,  // measure 52
0010
0000
0000
0100
0100
0100
0000
0000
,  // measure 53
0010
0010
0010
1000
,  // measure 54
0100
0000
0001
1000
0100
0010
0000
0000
,  // measure 55
0010
0001
0100
0001
,  // measure 56
0010
0000
1000
0100
0000
0001
1000
0000
,  // measure 57
0010
0000
0000
0100
0001
1000
0000
0000
,  // measure 58
0010
0000
0100
0000
0001
1000
0000
0000
,  // measure 59
0010
0010
0001
0001
,  // measure 60
0100
0000
0100
0000
1000
0001
0000
0000
,  // measure 61
0010
0000
0001
0010
0100
1000
0000
0000
,  // measure 62
0010
1001
0100
1000
,  // measure 63
0100
0010
0001
0100
,  // measure 64
1000
0100
0001
0100
,  // measure 65
0001
0010
1000
0100
,  // measure 66
0001
0110
1000
0010
,  // measure 67
1001
0110
1000
0001
,  // measure 68
0100
0000
1001
0000
1000
0100
0001
0000
,  // measure 69
0100
1000
0010
0000
1000
0001
0100
0000
,  // measure 70
1001
0000
0000
0000
;

//---------------dance-single - ----------------
#NOTES:
     dance-single:
     :
     Medium:
     5:
     0.442963,0.591328,0.457161,0.000000,0.074537,312.000000,266.000000,46.000000,0.000000,0.000000,0.000000,0.442963,0.591328,0.457161,0.000000,0.074537,312.000000,266.000000,46.000000,0.000000,0.000000,0.000000:
// measure 0
0000
0000
0000
0000
,  // measure 1
0000
0000
0000
0000
,  // measure 2
0000
0000
0000
0000
,  // measure 3
0000
0000
0000
0000
,  // measure 4
0000
0000
0000
1001
,  // measure 5
0100
0010
0100
1000
,  // measure 6
0100
1000
0100
1001
,  // measure 7
0010
0100
0010
0001
,  // measure 8
0010
0001
0010
1001
,  // measure 9
1001
0010
0100
0001
,  // measure 10
0110
0000
0000
1000
0000
0001
0000
1000
0000
0000
0000
0000
,  // measure 11
1001
0100
0010
1000
,  // measure 12
0110
0000
0000
0001
0000
1000
0000
0001
0000
0000
0000
0000
,  // measure 13
0110
1000
0001
0010
,  // measure 14
1001
0000
0000
0100
0000
0010
0000
0100
0000
0000
0000
0000
,  // measure 15
0110
0001
1000
0100
,  // measure 16
1001
0000
0000
0010
0000
0100
0000
0010
0000
0000
0000
0000
,  // measure 17
1001
0110
0001
1000
,  // measure 18
0110
0000
0000
1000
0000
0010
0000
0001
0000
0000
0000
0000
,  // measure 19
1001
0110
1000
0001
,  // measure 20
0110
0000
0000
0001
0000
0100
0000
1000
0000
0000
0000
0000
,  // measure 21
1001
0110
1100
0011
,  // measure 22
0110
0000
0000
1000
0000
0100
0000
0010
0000
0000
0000
0000
,  // measure 23
1000
0100
0001
0010
,  // measure 24
1000
0000
0000
0100
0000
0010
0000
0000
0000
0010
0000
0000
,  // measure 25
0000
0000
0000
0000
0100
0010
0000
0000
,  // measure 26
0000
0000
0000
0000
0000
0000
0000
0010
,  // measure 27
0000
0000
0100
0001
0000
0000
0000
0000
,  // measure 28
1000
0010
0000
0000
0000
0000
1001
0000
,  // measure 29
1000
0100
0010
1001
,  // measure 30
0100
0000
0010
0000
1000
0100
0001
0000
,  // measure 31
0000
1000
0000
0000
0010
0000
1001
0000
,  // measure 32
0100
0010
1000
0110
,  // measure 33
0000
1001
0000
0000
0110
0000
0010
0000
,  // measure 34
0001
0100
1000
0100
,  // measure 35
0001
0000
0010
0000
1000
0000
0010
1000
,  // measure 36
0100
0001
0100
1000
0010
0000
1001
0000
,  // measure 37
0100
0010
1000
0001
,  // measure 38
1000
0010
1000
0100
,  // measure 39
0001
0010
1000
0100
,  // measure 40
0010
0001
1000
0110
,  // measure 41
0000
1001
0000
0000
0110
0000
0010
0000
,  // measure 42
0001
0100
1000
0100
,  // measure 43
0001
0010
1000
0010
,  // measure 44
0100
0001
0010
0001
0100
0010
0000
0000
,  // measure 45
0010
0001
1000
0100
,  // measure 46
1000
0100
0001
0100
,  // measure 47
1000
0100
0001
0100
,  // measure 48
1000
0010
0001
1001
,  // measure 49
0010
0010
0010
1001
,  // measure 50
0100
0100
0100
1000
,  // measure 51
0100
0000
0001
0000
0010
0000
0001
0100
,  // measure 52
1000
0100
0001
0010
1000
0100
0000
0000
,  // measure 53
0010
1000
0100
0001
,  // measure 54
0100
0000
1000
0001
0010
0001
1000
0000
,  // measure 55
0100
0001
0010
1000
,  // measure 56
0010
0000
0100
0100
0000
0001
0001
0000
,  // measure 57
0010
0000
0000
0010
0010
0010
0000
0000
,  // measure 58
1000
0000
0010
0000
0100
0001
0000
0000
,  // measure 59
0010
0001
0100
0010
,  // measure 60
0001
0000
0100
0000
0010
0001
0000
0000
,  // measure 61
1000
0000
0000
0010
0010
1001
0000
0000
,  // measure 62
0010
1001
1000
0100
,  // measure 63
0001
0100
1000
0100
,  // measure 64
0001
0010
1000
0001
,  // measure 65
1000
0010
1000
0001
,  // measure 66
1000
1001
0110
1100
,  // measure 67
0101
0000
0011
0000
1010
0000
0001
1000
,  // measure 68
0100
0010
0100
0000
1001
0000
0110
0000
,  // measure 69
1000
0100
0001
0000
1000
0000
1001
0000
,  // measure 70
1001
0000
0000
0000
;

//---------------dance-single - ----------------
#NOTES:
     dance-single:
     :
     Hard:
     9:
     0.704198,0.730464,0.377655,0.000000,0.124229,496.000000,458.000000,38.000000,0.000000,0.000000,0.000000,0.704198,0.730464,0.377655,0.000000,0.124229,496.000000,458.000000,38.000000,0.000000,0.000000,0.000000:
// measure 0
0000
0000
0000
0000
,  // measure 1
0000
0000
0000
0000
,  // measure 2
0000
0000
0000
0000
,  // measure 3
0000
0000
0000
0000
,  // measure 4
0000
0000
0000
1001
,  // measure 5
0110
1100
0011
1010
,  // measure 6
0101
0110
1001
0010
,  // measure 7
0001
0000
0100
0000
1000
0000
0100
0010
,  // measure 8
1000
0010
1000
0010
0001
0010
0100
0000
,  // measure 9
0001
1000
0010
1000
0100
1000
0010
1000
,  // measure 10
0001
0000
0000
0010
0000
0000
1001
0000
0000
0000
1001
0000
0000
0000
0110
0000
0000
0000
0000
0000
0000
0100
0000
0000
,  // measure 11
1000
0001
1000
0010
0100
0001
1000
0010
,  // measure 12
0100
0000
0000
0001
0000
0000
0110
0000
0000
0000
0110
0000
0000
0000
1001
0000
0000
0000
0000
0000
0000
0100
0000
0000
,  // measure 13
1000
0010
1000
0001
0100
0010
1000
0100
,  // measure 14
0010
0000
0000
0100
0000
0000
1001
0000
0000
0000
1001
0000
0000
0000
0110
0000
0000
0000
0000
0000
0000
1000
0000
0000
,  // measure 15
0001
1000
0010
1000
0100
0010
0001
1000
,  // measure 16
0010
0000
0000
1000
0000
0000
0110
0000
0000
0000
0110
0000
0000
0000
1001
0000
0000
0000
0000
0000
0000
0010
0000
0000
,  // measure 17
1000
0001
0010
0100
1000
0001
0100
0010
,  // measure 18
1000
0000
0000
0001
0000
0000
0010
0100
0000
0000
0010
0100
0000
0000
1001
0000
0000
0000
0000
0000
0000
0100
0000
0000
,  // measure 19
1000
0010
1000
0100
0010
0001
1000
0010
,  // measure 20
0100
0000
0000
0010
0000
0000
1000
0001
0000
0000
1000
0001
0000
0000
0110
0000
0000
0000
0000
0000
0000
0001
0000
0000
,  // measure 21
1000
0001
1000
0010
0100
0001
1000
0010
,  // measure 22
0100
0000
0000
0001
0000
0000
0010
1000
0000
0000
0001
0100
0000
0000
1001
0000
0000
0000
0000
0000
0000
0100
0000
0000
,  // measure 23
0010
1000
0010
1000
0001
0100
0001
0100
,  // measure 24
1000
0000
0000
0100
0000
0000
1001
0000
0000
0000
0110
0000
0000
0000
0000
0000
0000
0000
0001
0000
0000
0010
0000
0000
,  // measure 25
0100
1000
0010
0000
1000
0100
0000
0010
,  // measure 26
0100
1000
0010
0001
0010
0000
0000
0010
,  // measure 27
0000
0000
0100
1000
0100
0000
1000
1000
,  // measure 28
0001
0001
0000
0010
0010
0000
0010
1000
,  // measure 29
0100
1000
0010
1000
0100
1000
0010
1000
,  // measure 30
0001
1000
0010
1000
0001
1000
0001
0100
,  // measure 31
0001
1000
0001
0100
0001
1000
0001
0100
,  // measure 32
0010
1000
0001
1000
0010
0100
0001
0010
,  // measure 33
0001
0100
0001
1000
0001
0010
0001
1000
,  // measure 34
0010
1000
0100
0010
0001
1000
0010
0100
,  // measure 35
0010
1000
0001
0010
0100
1000
0000
1000
,  // measure 36
0100
1000
0010
0100
0001
1000
0010
0100
,  // measure 37
0010
0100
0010
1000
0010
1000
0001
1000
,  // measure 38
0001
1000
0001
0010
0001
0010
0001
1000
,  // measure 39
0100
1000
0100
1000
0100
1000
0010
1000
,  // measure 40
0010
1000
0001
0010
0001
1000
0010
0100
,  // measure 41
0001
1000
0010
1000
0100
0010
0001
1000
,  // measure 42
0010
0100
0001
1000
0010
0100
0001
0100
,  // measure 43
1000
0100
0010
0010
0001
1000
0000
0010
,  // measure 44
0100
1000
0010
1000
0001
0100
0000
0010
,  // measure 45
0001
0100
0010
1000
0001
1000
0000
0010
,  // measure 46
0010
0010
1000
0100
0001
0100
0000
0001
,  // measure 47
0010
0100
1000
0010
0100
0001
1000
0100
,  // measure 48
0010
0001
1000
0010
0100
0010
0000
1000
,  // measure 49
1000
1000
1000
0100
0001
0100
0000
0010
,  // measure 50
0010
0010
0010
0001
0100
0001
0000
0000
,  // measure 51
0010
0010
0010
0100
,  // measure 52
0100
0000
0100
0001
1000
0100
0000
0100
,  // measure 53
0010
1000
0100
0001
0100
1000
0010
1000
,  // measure 54
0100
0000
0100
1000
0010
1000
0000
1000
,  // measure 55
0001
1000
0100
1000
0001
1000
0100
1000
,  // measure 56
0001
1000
0010
1000
0001
0010
0010
0000
,  // measure 57
0001
0100
1000
0100
,  // measure 58
0001
0000
0001
0100
1000
0010
0000
0001
,  // measure 59
1000
0010
0100
0001
1000
0100
0010
0001
,  // measure 60
1000
0010
0100
0010
0100
0010
0100
0100
,  // measure 61
0100
0100
0100
1000
0001
0010
0010
0010
,  // measure 62
0010
0010
0010
1000
0100
0001
1001
0000
,  // measure 63
0110
0000
0100
0001
1000
0010
1001
0000
,  // measure 64
0110
0000
0010
1000
0100
0010
1001
0000
,  // measure 65
0110
0000
0100
0001
0010
1000
0110
0000
,  // measure 66
1001
0000
0100
1000
0001
0010
1001
0000
,  // measure 67
0110
0000
1000
0100
0010
0100
1001
0000
,  // measure 68
0110
0000
0010
1000
0100
0001
0010
1000
,  // measure 69
0001
0000
0100
0000
0100
1000
0010
1000
0001
0100
0010
1000
0001
0000
0000
0000
,  // measure 70
1001
0000
0000
0000
;
