#TITLE:Abyss;
#SUBTITLE:(The Heavens Mix);
#ARTIST:Dj TAKA (Mixed by Ryu);
#TITLETRANSLIT:;
#SUBTITLETRANSLIT:;
#ARTISTTRANSLIT:;
#GENRE:;
#CREDIT:;
#BANNER:AbyssHeavens - bn.png;
#BACKGROUND:AbyssHeavens - bg.png;
#LYRICSPATH:;
#CDTITLE:;
#MUSIC:Abyss (The Heavens Mix) ~short edit~.mp3;
#OFFSET:-0.030000;
#SAMPLESTART:64.619995;
#SAMPLELENGTH:12.000000;
#SELECTABLE:YES;
#BPMS:0.000000=171.000000
;
#STOPS:
;
#BGCHANGES:;
#KEYSOUNDS:;
#ATTACKS:;

//---------------dance-single - ----------------
#NOTES:
     dance-single:
     :
     Easy:
     4:
     0.340043,0.411094,0.283889,0.262052,0.010919,218.000000,192.000000,26.000000,24.000000,0.000000,0.000000,0.340043,0.411094,0.283889,0.262052,0.010919,218.000000,192.000000,26.000000,24.000000,0.000000,0.000000:
// measure 0
0000
0000
0000
0000
,  // measure 1
0000
0000
0000
0000
,  // measure 2
1001
0010
0000
0010
,  // measure 3
1001
0100
0000
0100
,  // measure 4
1001
0100
0000
1000
,  // measure 5
0110
0001
0000
0010
,  // measure 6
1100
0001
0000
0001
,  // measure 7
1010
0100
0000
0100
,  // measure 8
0011
1000
0000
1000
,  // measure 9
0101
0000
0010
0000
0001
1000
0001
1000
,  // measure 10
0001
0001
0100
0100
,  // measure 11
0010
0010
1000
1000
,  // measure 12
0001
0001
0010
0010
,  // measure 13
0100
0100
1000
1000
,  // measure 14
1001
0100
0010
0010
,  // measure 15
0001
0100
0001
0001
,  // measure 16
1000
0100
0001
0010
,  // measure 17
1000
0000
0100
0000
1000
0001
0100
0000
,  // measure 18
1001
0100
1000
1000
,  // measure 19
0001
0100
0001
0001
,  // measure 20
1000
0010
0001
0100
,  // measure 21
1000
0000
0001
0000
1000
0001
0100
0000
,  // measure 22
0110
1000
0000
1000
,  // measure 23
0000
0100
0000
0100
,  // measure 24
0010
0001
0100
1000
,  // measure 25
0100
0001
0010
1000
,  // measure 26
1001
0010
0000
0010
,  // measure 27
0000
0100
0000
0100
,  // measure 28
1001
1000
0000
0001
,  // measure 29
0000
0010
0000
0010
,  // measure 30
2002
0000
0000
3003
,  // measure 31
0020
0000
0000
0030
,  // measure 32
0200
0000
0000
0300
,  // measure 33
0002
0000
0000
0003
,  // measure 34
0220
0000
0000
0330
,  // measure 35
2000
0000
0000
3000
,  // measure 36
0002
0000
0000
0003
,  // measure 37
0020
0000
0000
0030
,  // measure 38
2000
3000
2000
3000
,  // measure 39
0020
0030
0020
0030
,  // measure 40
0002
0003
0002
0003
,  // measure 41
0200
0300
0200
0300
,  // measure 42
1000
1000
1000
1000
,  // measure 43
0001
0001
0001
0001
,  // measure 44
0110
0000
0110
0000
,  // measure 45
0010
0000
0000
0010
0000
0000
0010
0000
0000
0010
0000
0000
0010
0000
0100
0000
,  // measure 46
0010
1001
1000
0001
,  // measure 47
1000
0010
0100
0001
,  // measure 48
0010
1001
0001
1000
,  // measure 49
0001
0010
0100
1000
,  // measure 50
0010
0000
1001
0000
0001
0000
0001
0100
,  // measure 51
1000
1000
0100
0001
,  // measure 52
0010
0000
1001
0000
1000
0000
1000
0100
,  // measure 53
0001
0001
0100
1000
,  // measure 54
0020
0030
0200
0300
,  // measure 55
0001
0010
1000
0100
,  // measure 56
0002
0003
2000
3000
,  // measure 57
0010
1000
0100
0001
,  // measure 58
1001
0100
0000
0100
,  // measure 59
1001
0000
1001
0000
,  // measure 60
0110
0000
0110
0000
,  // measure 61
1000
1000
2000
0000
3000
0001
0001
0001
,  // measure 62
0200
0000
0000
0300
;

//---------------dance-single - ----------------
#NOTES:
     dance-single:
     :
     Medium:
     6:
     0.433633,0.513867,0.436753,0.687886,0.032756,278.000000,238.000000,40.000000,63.000000,0.000000,0.000000,0.433633,0.513867,0.436753,0.687886,0.032756,278.000000,238.000000,40.000000,63.000000,0.000000,0.000000:
// measure 0
0000
0000
0000
0000
,  // measure 1
0000
0000
0000
0000
,  // measure 2
1000
1000
0010
0100
,  // measure 3
0010
1001
0010
1001
,  // measure 4
0001
0001
0010
0100
,  // measure 5
0010
1001
0010
1001
,  // measure 6
1000
0010
0001
0100
,  // measure 7
0010
1001
0100
1001
,  // measure 8
0001
0010
1000
0100
,  // measure 9
0010
0000
1001
0000
1000
0100
0010
0001
,  // measure 10
1000
0000
1100
0000
0001
0100
1000
0000
,  // measure 11
0001
0000
0101
0000
1000
0100
0001
0000
,  // measure 12
1000
0000
1010
0000
0001
0010
1000
0000
,  // measure 13
0001
0000
0011
0000
1000
0010
0001
0000
,  // measure 14
0010
0000
1001
0000
1000
0100
0001
0000
,  // measure 15
0001
0100
1000
0000
1000
0100
0001
0000
,  // measure 16
0010
0000
1001
0000
1000
0010
0001
0000
,  // measure 17
0001
0010
1000
0000
1000
0010
0001
0000
,  // measure 18
1001
0000
0000
0000
0100
0000
0000
0000
1000
0000
0000
1000
0000
0000
1000
0000
,  // measure 19
0010
0000
0000
0000
0100
0000
0000
0000
0001
0000
0000
0001
0000
0000
0001
0000
,  // measure 20
0010
0000
0000
0000
1001
0000
0000
0000
0100
0000
0000
0100
0000
0000
0100
0000
,  // measure 21
0010
0000
0000
0000
1001
0000
0000
0000
0010
0000
0000
0010
0000
0000
0010
0000
,  // measure 22
2000
0100
0000
3100
,  // measure 23
0002
0010
0000
0013
,  // measure 24
2000
3002
0203
0320
,  // measure 25
0230
0302
0023
0130
,  // measure 26
1001
0100
0000
0100
,  // measure 27
0000
0010
0000
0010
,  // measure 28
1001
0100
0000
0100
,  // measure 29
0000
0000
0010
0000
0000
0000
0010
1000
,  // measure 30
2002
0000
0000
3003
,  // measure 31
0200
0000
0000
0300
,  // measure 32
2000
0000
0000
3000
,  // measure 33
0002
0000
0000
0003
,  // measure 34
0220
0000
0000
0330
,  // measure 35
0020
0000
0000
0030
,  // measure 36
2002
0000
0000
3003
,  // measure 37
2002
3003
0220
0330
,  // measure 38
1002
2003
3020
0230
,  // measure 39
0320
2030
3200
0320
,  // measure 40
0032
2003
3002
0023
,  // measure 41
0230
2300
3002
0103
,  // measure 42
2001
0100
0100
3100
,  // measure 43
1002
0100
0100
0103
,  // measure 44
2002
3003
0220
0330
,  // measure 45
1000
0000
0000
0001
0000
0000
1000
0000
0000
0001
0000
0000
1000
0000
0001
0000
,  // measure 46
1001
0000
0110
0000
0010
1000
0100
0000
,  // measure 47
0010
0000
0110
0000
0010
0001
0100
0000
,  // measure 48
0010
0000
1001
0000
1000
0100
0001
0000
,  // measure 49
0001
0010
1000
0000
1000
0100
0001
0000
,  // measure 50
0010
0000
1001
0000
0010
1000
0100
0000
,  // measure 51
0010
0001
0100
0000
0010
1000
0100
0000
,  // measure 52
0010
0000
1001
0000
0001
0010
0100
0000
,  // measure 53
1000
0001
0100
0010
0100
0001
1000
0000
,  // measure 54
0002
0010
0100
1003
,  // measure 55
0020
0130
2000
3001
,  // measure 56
0200
0320
2030
3001
,  // measure 57
2000
3200
0320
0031
,  // measure 58
1001
0200
0300
0100
,  // measure 59
2002
3003
0220
0330
,  // measure 60
2001
3100
1002
0103
,  // measure 61
0001
1000
0200
0000
0300
0010
0001
1000
,  // measure 62
2002
0000
0000
3003
;

//---------------dance-single - ----------------
#NOTES:
     dance-single:
     :
     Hard:
     8:
     0.541261,0.616640,0.327565,0.436753,0.218376,347.000000,317.000000,30.000000,40.000000,0.000000,0.000000,0.541261,0.616640,0.327565,0.436753,0.218376,347.000000,317.000000,30.000000,40.000000,0.000000,0.000000:
// measure 0
0000
0000
0000
0000
,  // measure 1
0000
0000
0000
0000
,  // measure 2
0010
0000
1001
0000
0001
0010
1000
0000
,  // measure 3
0010
0000
1001
0000
0001
0100
1000
0000
,  // measure 4
0100
0000
0000
0100
0000
0000
0100
0000
0010
0000
0000
0010
0000
0000
0010
0000
,  // measure 5
1000
0000
0000
1000
0000
0000
1000
0000
0001
0000
0000
0001
0000
0000
0001
0000
,  // measure 6
1000
0000
0110
0000
0010
1000
0100
0000
,  // measure 7
0001
0000
0110
0000
0010
0001
0100
0000
,  // measure 8
0001
0000
0000
0001
0000
0000
0001
0000
1000
0000
0000
1000
0000
0000
1000
0000
,  // measure 9
0010
0000
0000
0010
0000
0000
0010
0000
1000
0000
0100
0000
0010
0000
0001
0000
,  // measure 10
1000
0000
1010
0000
0001
0100
0010
0100
,  // measure 11
0001
0010
0100
1000
0010
0100
0010
1000
,  // measure 12
0001
0000
0101
0000
1000
0100
0010
0100
,  // measure 13
1000
0010
0100
0001
0010
0100
0010
0001
,  // measure 14
1000
0000
1001
0000
0001
0010
0100
1000
,  // measure 15
0001
1000
0010
1000
0001
1000
0010
0100
,  // measure 16
0001
1000
0100
0010
0001
1000
0001
0100
,  // measure 17
0010
0100
0001
1000
0010
1000
0001
0100
,  // measure 18
1001
0000
0000
0000
0001
0000
0100
0000
1000
0000
0000
1000
0000
0000
1000
0000
,  // measure 19
0001
0000
0000
0000
0001
0000
0010
0000
1000
0000
0000
1000
0000
0000
1000
0000
,  // measure 20
0001
0000
0000
0000
1000
0000
0100
0000
0001
0000
0000
0001
0000
0000
0001
0000
,  // measure 21
1000
0000
0000
0000
1000
0000
0010
0000
0001
0000
0000
0001
0000
0000
0001
0000
,  // measure 22
2001
0000
0000
0000
0100
0000
0000
0000
3010
0000
0000
1000
0000
0000
1000
0000
,  // measure 23
0002
0000
0000
0000
0100
0000
0000
0000
0013
0000
0000
1000
0000
0000
0001
0000
,  // measure 24
0100
0000
0000
0100
0000
0000
0100
0000
0010
0000
0000
0010
0000
0000
0010
0000
,  // measure 25
2000
0000
3200
0000
0320
0000
0031
1000
,  // measure 26
2001
0200
0300
0200
,  // measure 27
0300
0020
0030
3010
,  // measure 28
1002
0020
0030
0020
,  // measure 29
0030
0200
0300
0103
,  // measure 30
2002
0000
0000
3003
,  // measure 31
0200
0000
0000
0300
,  // measure 32
2002
0000
0000
3003
,  // measure 33
0220
0000
0000
0330
,  // measure 34
2002
0003
0200
3000
,  // measure 35
0020
0000
0000
0330
,  // measure 36
2002
0000
0000
3003
,  // measure 37
2002
3003
0220
0330
,  // measure 38
1000
0000
0010
0000
0100
0001
0000
0010
0000
0000
0001
0000
0100
0000
0010
0000
,  // measure 39
1000
0000
0000
0100
0000
0000
0010
0000
0000
0010
0000
0000
0100
0000
1000
0000
,  // measure 40
0001
0000
0010
0000
0100
1000
0000
0010
0000
0000
1000
0000
0100
0000
0010
0000
,  // measure 41
0001
0000
0000
0010
0000
0000
0100
0000
0000
0100
0000
0000
0010
0000
0001
0000
,  // measure 42
1000
0000
0001
0000
0010
0100
0000
0010
0000
0000
0001
0000
1000
0000
0100
0000
,  // measure 43
0010
0000
0000
0001
0000
0000
0100
0000
0000
0010
0000
0000
1000
0000
0100
0000
,  // measure 44
0010
0000
0100
0000
1000
0001
0000
1000
0000
0000
0100
0000
0010
0000
0001
0000
,  // measure 45
1000
0000
0000
1010
0000
0000
0010
0000
0000
0110
0000
0000
0001
0000
1000
0000
,  // measure 46
1001
0000
0000
0000
0100
0010
0100
0000
1000
0000
0000
0000
0001
0000
0000
0000
,  // measure 47
1000
0100
1000
0000
0001
0100
0001
0000
,  // measure 48
1001
0000
0000
0000
0010
0100
0010
0000
0001
0000
0000
0000
1000
0000
0000
0000
,  // measure 49
0001
0010
0001
0000
1000
0010
1000
0000
,  // measure 50
0001
0000
1000
0000
0001
0010
0001
0000
0100
0000
0010
0000
1000
0000
0000
0000
,  // measure 51
0010
0000
0000
0010
0000
0000
0100
0000
0000
0100
0000
0000
0001
0000
0001
0000
,  // measure 52
1000
0000
0001
0000
1000
0100
1000
0000
0010
0000
0100
0000
0001
0000
0000
0000
,  // measure 53
0100
0000
0000
0100
0000
0000
0010
0000
0000
0010
0000
0000
1000
0000
0001
0000
,  // measure 54
1002
0000
0100
0000
1003
0100
0000
0010
,  // measure 55
0000
0000
0001
0000
0000
0000
0100
0000
0000
0000
0010
0000
0000
0000
1000
0001
,  // measure 56
1000
0100
0010
0000
0001
1000
0000
0100
,  // measure 57
0010
0001
0100
1000
0100
0001
1000
0000
,  // measure 58
2001
0100
0000
3100
,  // measure 59
1002
0103
2001
3100
,  // measure 60
1002
0013
2001
3010
,  // measure 61
1000
0001
0220
0000
0330
1000
0001
0010
,  // measure 62
2002
0000
0000
3003
;
