#TITLE:2002;
#SUBTITLE:;
#ARTIST:tiger YAMATO;
#TITLETRANSLIT:;
#SUBTITLETRANSLIT:;
#ARTISTTRANSLIT:;
#GENRE:;
#CREDIT:;
#BANNER:2002 bn2.png;
#BACKGROUND:2002 bg.png;
#LYRICSPATH:;
#CDTITLE:;
#MUSIC:2002.mp3;
#OFFSET:0.370000;
#SAMPLESTART:58.090000;
#SAMPLELENGTH:12.000000;
#SELECTABLE:YES;
#BPMS:0.000000=132.455002
;
#STOPS:
;
#BGCHANGES:0.750=2002.avi=1.000=1=0=0=StretchNoLoop==CrossFade==,
99999=-nosongbg-=1.000=0=0=0 // don't automatically add -songbackground-
;
#KEYSOUNDS:;
#ATTACKS:;

//---------------dance-single - ----------------
#NOTES:
     dance-single:
     :
     Easy:
     6:
     0.332409,0.427008,0.150120,0.241860,0.029190,279.000000,261.000000,18.000000,29.000000,0.000000,0.000000,0.332409,0.427008,0.150120,0.241860,0.029190,279.000000,261.000000,18.000000,29.000000,0.000000,0.000000:
0000
0000
0000
0000
,
0000
0000
0000
0000
,
0000
0000
0000
0000
,
0000
0000
0000
0000
,
0000
0002
0000
0023
,
0000
0230
0000
2300
,
0000
3001
0010
0100
,
1000
0000
0001
0000
0010
0000
0100
0100
,
0100
1001
1000
0100
,
0001
0010
1001
0010
,
0001
0001
0010
0000
1000
0000
0100
0000
,
0001
0010
1001
0100
,
1000
1000
0100
0000
0001
0000
0010
0000
,
1000
0100
1001
0010
,
0001
0001
0100
0000
1001
0000
0010
0000
,
0001
0000
1000
0000
0000
0100
0100
0000
,
0010
0100
0001
0000
1000
0000
0001
0010
,
0010
0000
0100
1000
0000
0010
0000
0100
,
0000
0001
0010
0000
1001
0000
0100
0010
,
0100
0000
0000
0000
0000
0000
1000
0000
0010
0000
0000
0000
0100
0000
0000
0100
,
0000
0100
0100
0000
1000
0000
0010
0100
,
0100
0000
0001
0010
0000
0100
0000
0010
,
0000
0001
1000
0000
0001
0000
0101
0000
,
1100
0000
0000
0000
0000
0000
0001
0000
0100
0000
0000
0000
0010
0000
0000
0010
,
0000
0010
1000
0000
0001
0000
1000
0010
,
0100
0000
0001
0000
1000
0000
0001
0010
,
0100
0000
1000
0000
0001
0000
1000
0100
,
0010
0000
0001
0000
1000
0000
0001
0100
,
0010
0000
1001
0000
0010
0000
1000
0100
,
0001
0000
0000
0000
0000
0000
0100
0000
0000
0000
0000
0000
1000
0000
0000
0001
,
0000
0000
1000
0000
0010
0000
0100
0001
,
0010
0000
0100
0100
1000
0000
0001
0010
,
0010
1001
0100
0001
,
0001
0000
0010
0000
0000
0000
0100
0000
0000
0000
0000
0000
0010
0000
0000
0010
,
0000
0010
0001
0000
1000
0000
0010
0000
,
1000
0100
0000
0000
0000
1001
0000
0100
,
0000
0100
0000
0000
0010
0000
0000
0000
0001
0000
0100
0000
1000
0000
0000
0000
,
0100
0000
0001
0000
0000
0000
0010
0000
0000
0000
0000
0000
0100
0000
0000
0010
,
0000
0000
0100
0000
1000
0000
0000
0000
0000
0000
0001
1000
0002
0000
0000
0000
,
0000
0003
0000
1000
1000
1000
0000
0001
,
0001
0001
0010
0000
0100
0000
0010
0000
,
0001
0100
0001
0000
0010
0000
0100
0000
,
1000
0100
1000
0000
0100
0000
0010
0000
,
0100
1000
0010
0000
0100
0000
0001
0000
,
0100
0001
0010
0000
0100
0000
0010
0000
,
0001
1000
0010
0000
1000
0000
0100
0000
,
0010
0001
0100
0000
1001
0000
0100
0000
,
1100
0010
0011
0100
,
0110
2001
0010
3020
,
0100
0230
0001
0302
,
1000
2003
0100
3200
,
0010
0320
0100
0230
,
0310
0000
1001
0000
0100
0010
0001
0000
,
1000
0010
0010
0000
0100
0001
0100
0000
,
0010
1000
0100
0000
0010
0001
0001
0000
,
1000
0100
0010
0001
0010
0100
1000
0010
,
0100
0010
1002
0000
0000
0000
0023
0000
,
0000
0230
0000
2300
,
0000
3020
0000
0230
,
0000
2300
0000
3200
,
0000
0302
0000
0023
,
0000
0230
0000
2300
,
0000
3200
0000
0320
,
0000
0032
0000
0023
,
0130
0000
0000
0000
;

//---------------dance-single - ----------------
#NOTES:
     dance-single:
     :
     Medium:
     7:
     0.399129,0.480384,0.325260,0.191820,0.033360,335.000000,296.000000,39.000000,23.000000,0.000000,0.000000,0.399129,0.480384,0.325260,0.191820,0.033360,335.000000,296.000000,39.000000,23.000000,0.000000,0.000000:
0000
0000
0000
0000
,
0000
0000
0000
0000
,
0000
0000
0000
0000
,
0000
0000
0000
0000
,
0000
0002
0103
0020
,
0130
0002
0013
0200
,
1300
0002
0013
0200
,
0300
0000
0100
1000
0100
0000
0010
0001
,
0010
1001
0100
0010
,
0001
0010
0001
0000
1000
0000
0100
0000
,
1000
0010
0100
0000
0010
0000
1000
0000
,
0001
0010
0100
0000
0000
1000
0001
0000
,
0000
0010
1001
0000
0100
0000
0001
0000
,
0010
0100
1000
0000
0000
0001
1000
0000
,
0000
0010
0100
0000
0001
0000
0010
0000
,
0100
0010
0001
0000
0000
1000
0010
0000
,
0000
0100
1001
0000
1000
0100
0010
0100
,
1000
0010
0000
1000
0001
0010
0000
0001
,
1000
0100
0001
0000
0100
1000
0010
0100
,
0001
0000
0010
0000
0000
0000
0100
0000
1000
0000
0000
0000
1001
0000
0000
0101
,
0000
1100
1001
0000
0001
0010
0100
0010
,
0001
0100
0000
0001
1000
0100
0000
1000
,
0001
0010
0001
0000
1001
0000
0100
0010
,
0100
0000
0010
0000
0000
0000
0001
0000
0010
0000
0000
0000
0110
0000
0000
0011
,
0000
1100
1001
0000
0110
0000
0001
0010
,
0100
0000
1001
0000
0110
0000
1000
0100
,
0010
0000
0001
1000
0100
0000
1000
0001
,
0100
0000
0010
1000
0001
0100
0010
1000
,
0001
0000
1000
0010
0100
0000
0001
0010
,
0100
0000
0000
0000
0000
0000
1001
0000
0000
0000
0000
0000
1100
0000
0000
0011
,
0000
0000
1000
0001
0010
0100
0010
0001
,
1000
0000
0000
0000
0010
0000
0000
0000
0100
0000
0000
0000
0001
1000
0001
0000
,
0010
1001
0001
0010
,
0001
0000
0010
0000
0000
0000
0100
0000
0000
0000
0000
0000
1000
0000
0000
1000
,
0000
1000
0100
0000
0010
0000
1001
0000
,
0001
1000
0000
0010
0000
0010
0000
1000
,
0000
0100
0000
0000
1001
0000
0000
0000
0001
0000
0010
0000
0100
0000
0010
0000
,
0001
0000
1000
0000
0000
0000
0100
0000
0000
0000
0000
0000
0001
0000
0000
0001
,
0000
0000
0001
0000
0110
0000
0000
0000
0000
0000
1000
0010
0200
0000
0000
0000
,
0000
0300
0001
0010
0100
0010
0000
0010
,
0001
0100
1001
0000
0100
0000
0010
0000
,
0001
1000
0100
0000
0000
0100
0010
0000
,
0000
0010
0001
0000
1000
0000
0010
0000
,
0100
0001
1000
0000
0000
0100
1000
0000
,
0000
0010
1001
0000
0001
0000
1000
0000
,
0001
0010
0001
0000
0000
1000
0100
0000
,
0000
0010
1001
0000
0100
0000
0101
0000
,
0100
1100
0010
0011
,
0110
0000
1001
0000
0000
0001
0011
0000
,
0000
1000
1010
0000
0000
0100
1100
0000
,
0000
0001
1001
0000
0000
1000
1010
0000
,
0000
0100
0110
0000
0000
0100
0101
0000
,
0000
0010
1001
0100
0010
0000
0001
0010
,
0100
1000
0001
0100
0010
0000
1000
0100
,
0010
0000
0001
1000
0100
1000
0001
0010
,
0001
1000
0100
1000
0001
0010
0100
1000
,
0010
1000
1002
0000
0010
0000
0023
0000
,
0100
0030
0200
0000
1000
0000
2300
0000
,
0010
3000
0020
0000
0100
0000
0230
0000
,
0001
0300
0002
0000
0010
0000
0023
0000
,
0031
2000
0000
3020
,
0000
0230
0000
0302
,
0000
0023
0001
0032
,
0100
0203
1000
2300
,
3001
0000
0000
0000
;

//---------------dance-single - ----------------
#NOTES:
     dance-single:
     :
     Hard:
     9:
     0.509932,0.589430,0.391980,0.250200,0.291900,428.000000,381.000000,47.000000,30.000000,0.000000,0.000000,0.509932,0.589430,0.391980,0.250200,0.291900,428.000000,381.000000,47.000000,30.000000,0.000000,0.000000:
// measure 0
0000
0000
0000
0000
,  // measure 1
0000
0000
0000
0000
,  // measure 2
0000
0000
0000
0000
,  // measure 3
0000
0000
0000
0000
,  // measure 4
0000
0000
2000
0100
0100
3100
0020
0100
,  // measure 5
0100
0130
2000
0001
0001
3001
0200
0010
,  // measure 6
0010
0310
1000
1000
0100
0100
0010
0010
,  // measure 7
0001
0001
1000
0100
0010
0001
1000
0100
,  // measure 8
0010
0000
0001
0000
1001
0000
0000
1000
0000
0000
0100
0000
0000
1000
0000
0000
,  // measure 9
0100
0000
0010
0000
0001
0000
0000
0010
0000
0000
0100
0000
0000
1000
0000
0000
,  // measure 10
0010
0000
0100
0000
0001
0000
0000
0010
0000
0000
0100
0000
0000
0010
0000
0000
,  // measure 11
0100
0000
1000
0000
0010
0000
0000
1000
0000
0000
0001
0000
0100
0000
0000
0010
,  // measure 12
0000
0000
1000
0000
0001
0000
0000
1000
0000
0000
0010
0000
0000
1010
0000
0000
,  // measure 13
0100
0000
0001
0000
0100
0000
0000
0001
0000
0000
1000
0000
0100
0000
0000
1001
,  // measure 14
0000
0000
0100
0000
1000
0000
0000
0100
0000
0000
0010
0000
0000
0011
0000
0000
,  // measure 15
0100
0000
0010
0000
0001
0000
0000
1000
0000
0000
0010
0000
1010
0000
0000
0100
,  // measure 16
0000
0000
0001
0000
1000
0000
0010
0000
0100
0000
0001
0000
0010
0000
0100
0010
,  // measure 17
0000
0100
0010
0001
0000
0000
0100
0000
0010
0000
1000
0000
0000
0000
0100
0000
,  // measure 18
0010
0000
0001
0000
0100
0000
0010
0000
1000
0000
0100
0000
0010
0000
0001
1000
,  // measure 19
0000
0001
0010
0100
0000
0000
1000
0000
0101
0000
0000
0000
1000
0000
0000
0110
,  // measure 20
0000
0000
1001
0000
1000
0000
0001
0000
0010
0000
0100
0000
1000
0000
0001
0010
,  // measure 21
0000
0100
0010
0001
0000
0000
1000
0000
0100
0000
0010
0000
0000
0000
0100
0000
,  // measure 22
0010
0000
0001
0000
1000
0000
0001
0000
0010
0000
0100
0000
1000
0000
0001
1000
,  // measure 23
0000
0001
1000
0100
0000
0000
0010
0000
1100
0000
0000
0000
0010
0000
0000
0101
,  // measure 24
0000
0000
1100
0000
1000
0100
1000
0000
0100
0000
0000
0000
1000
0100
1000
0000
,  // measure 25
0100
0000
0000
0000
0010
0001
0010
0000
0001
0000
0000
0000
0010
0001
0010
0000
,  // measure 26
0001
0000
0000
0000
1000
0010
1000
0000
0010
0000
0000
0000
0100
0001
0100
0000
,  // measure 27
0001
0000
0000
0000
1000
0100
1000
0000
0001
0000
0000
0000
0001
0100
0001
0000
,  // measure 28
1000
0000
0000
0000
0001
0010
0001
0000
1000
0000
0000
0000
0010
1000
0010
0000
,  // measure 29
0100
0000
0000
0000
0000
0000
0110
0000
0000
0000
0000
0000
1100
0000
0000
0101
,  // measure 30
0000
0000
0000
0000
1000
0100
1000
0000
1001
0000
0000
0000
0001
0010
0001
0000
,  // measure 31
1001
0000
0000
0000
1000
0100
0010
0000
0011
0000
0000
0000
0010
0001
0100
0000
,  // measure 32
0110
0000
0000
0000
1001
0000
0000
0100
1000
0000
0001
0000
0010
0000
0100
0000
,  // measure 33
1000
0000
1100
0000
0000
0000
0011
0000
0000
0000
1000
0000
0010
0000
0000
1000
,  // measure 34
0000
0000
1100
0000
1001
0000
0000
0001
0010
0000
0100
0000
0010
0000
0000
0000
,  // measure 35
1100
1001
0000
0011
0000
1000
0000
0100
,  // measure 36
0000
0010
0000
0000
1001
0000
0000
1000
0001
0000
0010
0000
0100
0000
0000
0000
,  // measure 37
0010
0000
0001
0000
0000
0000
1000
0000
0000
0000
0001
0000
0010
0000
0000
0100
,  // measure 38
0000
0000
1000
0000
1001
0000
0000
0000
0000
0000
1000
0010
0200
0000
0000
0000
,  // measure 39
0000
0000
0300
0000
0001
0000
1000
0000
0010
0000
0100
0001
0000
0000
0010
0000
,  // measure 40
0100
0000
1000
0001
0100
0000
0000
0010
0000
0000
0100
0000
0000
0001
0000
0000
,  // measure 41
1000
0000
0100
0000
0010
0000
0000
0100
0000
0000
0010
0000
1000
0000
0000
0010
,  // measure 42
0000
0000
0100
0000
0010
0000
0000
1000
0000
0000
0001
0000
0000
0010
0000
0000
,  // measure 43
0100
0000
0010
0000
0001
0000
0000
1000
0000
0000
0100
0000
1000
0000
0000
0010
,  // measure 44
0000
0000
0100
0000
1001
0000
0000
0001
0000
0000
1000
0000
0000
0101
0000
0000
,  // measure 45
0010
0000
1000
0000
0001
0000
0000
0010
0000
0000
0100
0000
1100
0000
0000
0010
,  // measure 46
0000
0000
0100
0000
0101
0000
0000
1000
0000
0000
0100
0000
0000
0110
0000
0000
,  // measure 47
1000
0000
0010
0000
1000
0000
0000
0001
0000
0000
0010
0000
0001
0000
0000
1000
,  // measure 48
0000
0010
2001
0000
3001
0100
0201
0000
,  // measure 49
0310
1000
2010
0000
3100
0010
0120
0000
,  // measure 50
0031
1000
2100
0000
3010
0100
0102
0000
,  // measure 51
0103
0010
2010
0000
3100
0010
0012
0000
,  // measure 52
0003
0000
1001
0000
0001
0010
0100
1000
,  // measure 53
0010
0001
0010
1000
0100
1000
0010
0100
,  // measure 54
0001
0010
1100
0100
1000
0010
0110
0100
,  // measure 55
0001
0010
0011
0001
0010
0100
0110
0010
,  // measure 56
0001
1000
0002
0000
0100
0000
0023
0000
,  // measure 57
0130
2000
0100
3020
,  // measure 58
0130
0002
0103
0020
,  // measure 59
0130
0002
0013
0200
,  // measure 60
0310
0002
0000
0013
,  // measure 61
0010
0200
0000
1300
,  // measure 62
1000
0002
0203
0320
,  // measure 63
0130
0002
2003
3100
,  // measure 64
2002
3003
0000
0000
;
