#TITLE:sister's noise;
#SUBTITLE:;
#ARTIST:fripSide;
#TITLETRANSLIT:;
#SUBTITLETRANSLIT:;
#ARTISTTRANSLIT:;
#GENRE:Anime/Game;
#CREDIT:;
#BANNER:sister's noise.png;
#BACKGROUND:sister's noise-bg.png;
#LYRICSPATH:;
#CDTITLE:../cdtitle.png;
#MUSIC:sister's noise.ogg;
#OFFSET:1.544000;
#SAMPLESTART:58.455002;
#SAMPLELENGTH:15.000000;
#LASTBEATHINT:1.305600;
#SELECTABLE:YES;
#BPMS:0.000000=144.000000
;
#STOPS:
;
#BGCHANGES:3.500=sister's noise.avi=1.000=0=0=0=StretchNoLoop==CrossFade_Fastest==,
99999=-nosongbg-=1.000=0=0=0 // don't automatically add -songbackground-
;
#KEYSOUNDS:;
#ATTACKS:;

//---------------dance-single - ----------------
#NOTES:
     dance-single:
     :
     Beginner:
     2:
     0.103618,0.169242,0.030222,0.040296,0.000000,72.000000,69.000000,3.000000,4.000000,0.000000,0.000000,0.103618,0.169242,0.030222,0.040296,0.000000,72.000000,69.000000,3.000000,4.000000,0.000000,0.000000:
0000
0000
0000
0000
,
0000
0000
0000
0000
,
0000
0000
0000
0000
,
0000
0000
0000
0000
,
0000
0000
0000
0000
,
0100
0000
0100
0000
,
0010
0000
0010
0000
,
0100
0000
0100
0000
,
1001
0000
0000
0000
,
1000
0000
1000
0000
,
0001
0000
0000
0000
,
0001
0000
0001
0000
,
1000
0000
0000
0000
,
0001
0000
0000
0000
,
0010
0000
0000
0000
,
0100
0000
0100
0000
,
0010
0000
0000
0000
,
0100
0000
0000
0000
,
0100
0000
0000
0000
,
1000
0000
1000
0000
,
1000
0000
0000
0000
,
0001
0000
0001
0000
,
0001
0000
0000
0000
,
1000
0000
0000
0000
,
0010
0000
0000
0000
,
0200
0000
0000
0000
,
0300
0000
0000
0000
,
0001
0000
0001
0000
,
0001
0000
0000
0000
,
0010
0000
0010
0000
,
0010
0000
0000
0000
,
1000
0000
1000
0000
,
1000
0000
0000
0000
,
0100
0000
0100
0000
,
0100
0000
0000
0000
,
1001
0000
0000
0000
,
0001
0000
0001
0000
,
1000
0000
0000
0000
,
1000
0000
1000
0000
,
0001
0000
0000
0000
,
0010
0000
0010
0000
,
0100
0000
0100
0000
,
1000
0000
0000
0000
,
0001
0000
0000
0000
,
0010
0000
0010
0000
,
0010
0000
0000
0000
,
0100
0000
0100
0000
,
0100
0000
0000
0000
,
1000
0000
0000
0000
,
0001
0000
0000
0000
,
0010
0000
0010
0000
,
0010
0000
0000
0000
,
0100
0000
0100
0000
,
0020
0000
0030
0000
,
2002
0000
0000
0000
,
0000
0000
0000
0000
,
3003
0000
0000
0000
;

//---------------dance-single - ----------------
#NOTES:
     dance-single:
     :
     Hard:
     9:
     0.379932,0.423106,0.181331,0.302218,0.055407,264.000000,246.000000,18.000000,30.000000,0.000000,0.000000,0.379932,0.423106,0.181331,0.302218,0.055407,264.000000,246.000000,18.000000,30.000000,0.000000,0.000000:
0000
0000
0000
0000
,
0000
0000
0000
0000
,
0000
0000
0000
0000
,
0000
0000
0000
0000
,
0000
0000
0000
0000
,
0020
0000
0100
0000
0001
0000
0130
1000
,
0020
0000
0100
0000
1000
0000
0130
0001
,
0020
0000
0100
0000
0031
1000
0001
1000
,
0010
0000
0000
0100
0000
0000
1001
0000
0000
0000
0000
0000
0000
0000
0000
0000
,
2100
0000
3010
0000
0100
0001
1000
0000
,
0100
0000
0010
0001
1000
0000
1001
0000
,
0102
0000
0013
0000
0100
1000
0001
0000
,
0100
0000
0010
0000
0110
0000
0001
1000
,
0002
0010
2003
0100
,
3002
0000
0103
0010
1000
0100
0010
0000
,
0100
1000
0010
0000
0100
0001
0010
0000
,
0220
0000
0000
0330
,
1000
1000
0001
0001
,
1000
0010
1000
0010
0100
0001
0100
0001
,
1000
0100
0001
0100
,
1000
0000
0010
0100
0002
0000
1003
0000
,
0001
0010
1000
0010
,
0001
0000
0100
0010
2000
0000
3001
0000
,
1000
0100
0001
0100
,
1000
0000
1100
0000
0001
0100
0010
0000
,
1000
0001
2000
0000
,
0001
0000
0100
0000
3001
0000
0010
0001
,
1000
0000
0000
0100
1000
0000
0000
0000
0001
0000
0000
0010
0001
0000
0000
0000
,
1000
0000
0000
0010
0100
0000
0000
0000
0002
0000
0000
0000
1003
0000
0000
0000
,
0001
0000
0000
0010
0001
0000
0000
0000
1000
0000
0000
0100
1000
0000
0000
0000
,
0001
0000
0000
0100
0010
0000
0000
0000
2000
0000
0000
0000
3001
0000
0000
0000
,
0010
0000
0000
0001
0100
0000
0000
0000
0010
0000
0000
1000
0100
0000
0000
0000
,
0010
0000
0000
0001
0100
0000
0000
0000
0020
0000
0000
0000
0130
0000
0000
0000
,
0001
1000
0100
0000
1000
0001
0100
0000
,
0010
0000
1000
0000
0001
1000
0001
1000
,
0100
0000
0000
0010
0000
0000
1001
0000
0000
0000
0000
0000
0000
0000
0000
0000
,
2010
0000
3100
0000
0010
0001
1000
0000
,
0010
0000
0100
0001
1000
0000
1001
0000
,
0012
0000
0103
0000
0010
1000
0001
0000
,
0010
0000
0100
0000
0110
0000
0001
1000
,
0002
0000
0103
0000
0010
1000
0010
1000
,
0002
0000
0013
0000
0100
1000
0100
1000
,
0002
0000
0103
0000
0010
1000
0001
0000
,
0010
0100
1000
0010
0100
0001
1000
0000
,
2100
0000
3010
0000
0100
0001
1000
0000
,
0100
0000
0010
0001
1000
0000
1001
0000
,
0102
0000
0013
0000
0100
1000
0001
0000
,
0100
0000
0010
0000
0110
0000
0001
1000
,
0002
0010
2003
0100
,
3002
0000
0103
0010
1000
0100
0010
0000
,
0100
1000
0010
0000
0100
0001
0010
0000
,
0220
0000
0000
0330
,
0010
0001
0100
0000
0010
1000
0100
0000
,
0010
0001
1000
0010
0100
0001
1000
0000
,
0220
0000
0000
0000
,
0000
0000
0000
0000
,
0330
0000
0000
0000
;

//---------------dance-double - ----------------
#NOTES:
     dance-double:
     :
     Hard:
     14:
     0.584289,0.733383,0.221627,0.221627,0.478512,406.000000,384.000000,22.000000,22.000000,0.000000,0.000000,0.584289,0.733383,0.221627,0.221627,0.478512,406.000000,384.000000,22.000000,22.000000,0.000000,0.000000:
// measure 0
00000000
00000000
00000000
00000000
,  // measure 1
00000000
00000000
00000000
00000000
,  // measure 2
00000000
00000000
00000000
00000000
,  // measure 3
00000000
00000000
00000000
00000000
,  // measure 4
00000000
00000000
00000000
00000000
,  // measure 5
00010000
00000000
00000000
01000000
00000000
00000000
10000000
00000000
00000000
01000000
00000000
00010000
00001000
00000000
00000100
00000000
,  // measure 6
00000001
00000000
00000000
00000010
00000000
00000000
00001000
00000000
00000000
00010000
00000000
00001000
00000010
00000000
00000001
00000000
,  // measure 7
00001000
00000000
00000000
00001000
00000000
00000000
00000001
00000000
00001000
00000010
00001000
00000010
00000100
00000001
00001000
00000100
,  // measure 8
00010000
00000000
00000000
00001000
00000000
00000000
00011000
00000000
00000000
00000000
00000000
00000000
00000000
00000000
00000000
00000000
,  // measure 9
00120000
00000000
00000000
00000000
01030000
00000000
00100000
10000000
00000000
10000000
00010000
00000000
00100000
00000000
01000000
00000000
,  // measure 10
10000000
00000000
01000000
00010000
00000000
00010000
00001000
00000000
00020000
00000000
00000000
00000000
00031000
00000000
00000000
00000000
,  // measure 11
00002100
00000000
00000000
00000000
00003001
00000000
00001000
00000001
00000000
00000001
00000100
00000000
00000010
00000000
00001000
00000000
,  // measure 12
00000001
00000000
00000010
00001000
00000000
00001000
00010000
00000000
00001000
00000000
00000000
00000000
00011000
00000000
00001000
01000000
,  // measure 13
00200000
10300000
12000000
03010000
,  // measure 14
01100000
00000000
00010000
10000000
00100000
01000000
00001000
00010000
,  // measure 15
00000100
00000010
00000001
00000010
00001000
00010000
01000000
10000000
,  // measure 16
00100000
00000000
00020000
00002000
00000000
00000000
00000000
00000000
00000000
00000000
00000000
00000000
00033000
00000000
00000000
00000000
,  // measure 17
00011000
00000000
00000100
00000000
00000010
00000001
00000000
00000001
00000000
00000001
00000000
00000100
00000010
00000000
00001000
00000000
,  // measure 18
00010000
00000000
00100000
00000000
01000000
10000000
00000000
10000000
00000000
10000000
00000000
01000000
00100000
00000000
00010000
00000000
,  // measure 19
10000000
00000000
01000000
10000000
01000000
00000000
10000000
00000000
00010000
00000000
01000000
00000000
00100000
00000000
01000000
00000000
,  // measure 20
00001000
00000000
00010000
00001000
00010000
00000000
01000000
00000000
10000000
00000000
00000000
00000000
10010000
00000000
00000000
00000000
,  // measure 21
00010000
00000000
00100000
01000000
00100000
00000000
00001000
00000000
00010000
00000000
00000010
00000000
00001000
00000000
00000001
00000000
,  // measure 22
00000010
00000000
00000100
00001000
00000100
00000000
00001000
00000000
00000001
00000000
00000000
00000000
00000101
00000000
00000000
00000000
,  // measure 23
00000010
00000000
00001000
00000010
00000100
00000000
00000001
00000000
00001000
00000000
00000100
00000000
00000010
00000000
00000100
00000000
,  // measure 24
00001000
00000000
00000100
00000000
00000001
00000000
00000100
00001000
00000000
00001000
00000001
00000000
00000100
00000000
00001000
00000000
,  // measure 25
00010000
00000000
01000000
10000000
00000000
10000000
00010000
00000000
20000000
00000000
00000000
00000000
01000000
00000000
00000000
00000000
,  // measure 26
30010000
01000000
00100000
10000000
01000000
00010000
00001000
00000100
,  // measure 27
00000001
00000000
00000000
00000001
00000100
00000000
00000010
00000000
00001000
00000000
00000000
00000010
00000100
00000000
00000001
00000000
,  // measure 28
00000010
00000000
00000000
00000001
00000010
00000000
00001000
00000000
00020000
00000000
00000000
00000000
00130000
00000000
00000000
00000000
,  // measure 29
10000000
00000000
00000000
10000000
01000000
00000000
00100000
00000000
00010000
00000000
00000000
00100000
01000000
00000000
10000000
00000000
,  // measure 30
00100000
00000000
00000000
10000000
00100000
00000000
00010000
00000000
00002000
00000000
00000000
00000000
00003010
00000000
00000000
00000000
,  // measure 31
00000001
00000000
00000000
00000001
00000010
00000000
00000100
00000000
00001000
00000000
00000000
00000100
00000010
00000000
00000001
00000000
,  // measure 32
00000100
00000000
00000000
00000001
00000100
00000000
00001000
00000000
00020000
00000000
00000000
00000000
01030000
00000000
00100000
00000000
,  // measure 33
01000000
00000000
10000000
00000000
00010000
00000000
10000000
01000000
00000000
01000000
10000000
00000000
00100000
00000000
01000000
00000000
,  // measure 34
00001000
00000000
00000000
00010000
00000000
00000000
00001000
00000000
00100000
00010000
00100000
00010000
01000000
00001000
00010000
00000100
,  // measure 35
00001000
00000000
00000000
00000010
00000000
00000000
00000110
00000000
00000000
00000000
00000000
00000000
00000000
00000000
00000000
00000000
,  // measure 36
00002010
00000000
00000000
00000000
00003001
00000000
00000010
00000100
00000000
00000100
00000010
00000000
00000100
00000000
00010000
00000000
,  // measure 37
00001000
00000000
00100000
00010000
00000000
00010000
01000000
00000000
00200000
00000000
00000000
00000000
10300000
00000000
00000000
00000000
,  // measure 38
21000000
00000000
00000000
00000000
30010000
00000000
10000000
00100000
00000000
00100000
10000000
00000000
01000000
00000000
00010000
00000000
,  // measure 39
10000000
00000000
00100000
00010000
00000000
00010000
00100000
00000000
00001000
00000000
00000000
00000000
00011000
00000000
00010000
00000010
,  // measure 40
00001000
00000000
00000000
00000000
00001001
00000000
00000001
00000010
00000000
00000010
00000100
00000000
00010000
00000000
00001000
00000000
,  // measure 41
00011000
00000000
00000000
00000000
01000000
00000000
00001000
00100000
00000000
00100000
00001000
00000000
00010000
00000000
00001000
00000000
,  // measure 42
02000000
00000000
00000000
00000000
03100000
00000000
10000000
00100000
10000000
00000000
01000000
00000000
00010000
00000000
00001000
00000000
,  // measure 43
00010000
00000000
01000000
00100000
00000000
00010000
00100000
01000000
10000000
00010000
10000000
01000000
00010000
00001000
00000100
00000010
,  // measure 44
00002000
00000000
00000000
00000000
00003010
00000000
00000100
00000001
00000000
00000001
00001000
00000000
00000100
00000000
00000010
00000000
,  // measure 45
00000001
00000000
00000010
00001000
00000000
00001000
00010000
00000000
00002000
00000000
00000000
00000000
00013000
00000000
00000000
00000000
,  // measure 46
00120000
00000000
00000000
00000000
10030000
00000000
00010000
10000000
00000000
10000000
00100000
00000000
01000000
00000000
00010000
00000000
,  // measure 47
10000000
00000000
01000000
00010000
00000000
00010000
00001000
00000000
00010000
00000000
00000000
00000000
00011000
00000000
00010000
00000100
,  // measure 48
00000020
00000031
00000201
00001300
,  // measure 49
00000110
00000000
00001000
00000001
00000010
00000100
00010000
00001000
,  // measure 50
01000000
00100000
10000000
00100000
00010000
00001000
00000100
00000001
,  // measure 51
00000010
00000000
00001000
00020000
00000000
00000000
00031000
00010000
00001000
00000000
00010000
00000000
01000000
00000000
10000000
00000000
,  // measure 52
11000000
01000000
00010000
00001000
00011000
00010000
00100000
10000000
,  // measure 53
11000000
00000000
01000000
00010000
00000000
00010000
00001000
00010000
00000100
00001000
00000010
00000100
00000001
00000010
00001000
00010000
,  // measure 54
00002000
00000000
00000000
00000000
,  // measure 55
00000000
00000000
00000000
00000000
,  // measure 56
00003000
00000000
00000000
00000000
;

//---------------dance-single - ----------------
#NOTES:
     dance-single:
     :
     Challenge:
     8:
     0.282070,0.310277,0.171257,0.201479,0.000000,196.000000,179.000000,17.000000,20.000000,104.000000,0.000000,0.282070,0.310277,0.171257,0.201479,0.000000,196.000000,179.000000,17.000000,20.000000,104.000000,0.000000:
0000
0000
0000
0000
,
0000
0000
0000
0000
,
0000
0000
0000
0000
,
0000
0000
0000
0000
,
0000
0000
0000
0000
,
1000
0100
0010
0001
,
0001
0010
0100
1000
,
0001
0100
0010
1000
,
2002
0000
3003
MMMM
,
0110
0001
0010
0100
,
1000
0000
0010
0100
0010
0000
MMMM
0000
,
1001
0100
0010
0100
,
1000
0000
0001
1000
0001
0000
MMMM
0100
,
0020
0130
2000
3001
,
0100
0000
0010
0000
1000
0001
1000
0000
,
1100
MMMM
1001
MMMM
,
0220
0000
0330
MMMM
,
0001
0100
0010
1000
,
0001
0010
0100
1000
,
0001
0100
1000
0100
,
0001
0000
0100
0010
1000
0000
MMMM
0000
,
1000
0100
0001
0100
,
1000
0000
0100
0010
0001
0000
MMMM
0000
,
0001
0100
1000
0100
,
0001
0000
0010
0000
0100
1000
0001
0000
,
0010
0100
0020
0030
,
MMMM
MMMM
MMMM
MMMM
,
1000
1000
0001
0001
,
0100
0100
0010
MMMM
,
0001
0001
1000
1000
,
0100
0100
0010
MMMM
,
1000
1000
0010
0010
,
0100
0100
0001
MMMM
,
0001
0010
0100
1000
,
0001
1000
0020
0130
,
2002
0000
3003
MMMM
,
0110
0001
0010
0100
,
1000
0000
0010
0100
0010
0000
MMMM
0000
,
1001
0100
0010
0100
,
1000
0000
0001
1000
0001
0000
MMMM
0100
,
0020
0000
0130
0000
1000
0001
1000
0000
,
0200
0000
0310
0000
0001
1000
0001
0000
,
2000
3000
0002
0003
,
0100
0010
1000
0001
0100
0000
MMMM
0000
,
0110
1000
0010
0100
,
0001
0000
0010
0100
0010
0000
MMMM
0000
,
1001
0100
0010
0100
,
0001
0000
1000
0001
1000
0000
MMMM
0100
,
0020
0130
0002
1003
,
0100
0000
0010
0000
0001
1000
0001
0000
,
0101
MMMM
0110
MMMM
,
2002
0000
3003
MMMM
,
0011
MMMM
0110
MMMM
,
0001
0000
0100
0000
0010
1000
0001
0000
,
2002
0000
0000
0000
,
0000
0000
0000
0000
,
3003
0000
0000
0000
;

//---------------dance-single - ----------------
#NOTES:
     dance-single:
     :
     Medium:
     7:
     0.267679,0.338484,0.100739,0.302218,0.000000,186.000000,176.000000,10.000000,30.000000,0.000000,0.000000,0.267679,0.338484,0.100739,0.302218,0.000000,186.000000,176.000000,10.000000,30.000000,0.000000,0.000000:
0000
0000
0000
0000
,
0000
0000
0000
0000
,
0000
0000
0000
0000
,
0000
0000
0000
0000
,
0000
0000
0000
0000
,
1000
0000
0100
0000
1000
0000
0001
0100
,
0001
0000
0100
0000
0001
0000
1000
0100
,
0010
0000
0001
0000
0100
0010
1000
0000
,
2002
0000
3003
0000
,
0100
0010
0100
0010
,
0001
0000
0100
0010
2000
0000
3000
0000
,
0010
0100
0010
0100
,
0001
0000
0010
0100
2000
0000
3000
0000
,
0002
0003
2000
3000
,
0010
0000
0100
0100
,
0001
0010
0001
0000
1000
0100
1000
0000
,
0220
0000
0000
0330
,
0001
0100
1000
0100
,
0001
0010
1000
0010
,
0001
0001
0010
0001
,
0100
0000
0010
1000
0002
0000
0003
0000
,
1000
1000
0100
1000
,
0010
0000
0100
0001
2000
0000
3000
0000
,
0001
0001
0010
0010
,
1000
0010
0001
1000
,
0001
0001
0220
0000
,
0330
0000
0000
0000
,
0001
0100
0001
0100
,
0010
0000
1000
0100
0020
0000
0030
0000
,
0100
1000
0100
1000
,
0001
0000
0100
0010
2000
0000
3000
0000
,
0001
0010
0001
0010
,
1000
0000
0010
0001
0200
0000
0300
0000
,
0010
1000
0100
1000
,
0010
0010
0020
0030
,
0110
0000
0000
0000
,
0100
0010
0100
0010
,
1000
0000
0100
0010
0002
0000
0003
0000
,
0010
0100
0010
0100
,
1000
0000
0010
0100
0002
0000
0003
0000
,
2000
3000
0001
0010
,
0110
0000
1000
0010
,
0220
0330
0001
0001
,
0100
0010
1000
0000
0002
0000
0003
0000
,
0010
0100
0010
0100
,
1000
0000
0010
0100
0002
0000
0003
0000
,
0100
0010
0100
0010
,
1000
0000
0100
0010
0002
0000
0003
0000
,
2000
3000
0002
0003
,
0100
0000
0010
0010
,
1000
0100
1000
0000
0001
0010
0001
0000
,
0220
0000
0000
0330
,
1001
0000
0110
0000
,
1000
0100
0001
0000
0010
0000
1000
0000
,
2002
0000
0000
0000
,
0000
0000
0000
0000
,
3003
0000
0000
0000
;

//---------------dance-single - ----------------
#NOTES:
     dance-single:
     :
     Easy:
     5:
     0.224505,0.282070,0.100739,0.191405,0.000000,156.000000,146.000000,10.000000,19.000000,0.000000,0.000000,0.224505,0.282070,0.100739,0.191405,0.000000,156.000000,146.000000,10.000000,19.000000,0.000000,0.000000:
0000
0000
0000
0000
,
0000
0000
0000
0000
,
0000
0000
0000
0000
,
0000
0000
0000
0000
,
0000
0000
0000
0000
,
1000
0100
1000
0100
,
0001
0100
0001
0100
,
1000
1000
0010
0001
,
0110
0000
0000
0000
,
0100
0001
0100
0001
,
0010
0010
0020
0030
,
0100
1000
0100
1000
,
0010
0010
0020
0030
,
2000
3000
0200
0300
,
0001
0000
0100
0100
,
1000
1000
0001
0001
,
0220
0000
0000
0330
,
1000
0000
1000
0000
,
1000
0010
1000
0100
,
1000
0000
1000
0000
,
0001
0010
0001
0000
,
0100
0000
0100
0000
,
0010
1000
0010
0000
,
0001
0000
0001
0000
,
1000
0000
1000
0000
,
0200
0000
0000
0000
,
0310
0100
0010
0000
,
1000
0100
0001
0100
,
1000
0100
0001
0000
,
1000
0010
0001
0010
,
1000
0010
0001
0000
,
1000
1000
0100
0100
,
0001
0001
0010
0000
,
0001
0001
0100
0100
,
1000
0010
0200
0000
,
0300
0000
0000
0000
,
0010
1000
0010
1000
,
0100
0010
0200
0300
,
0010
0001
0010
0001
,
0100
0010
0200
0300
,
0010
0000
1000
1000
,
1001
0000
0010
0010
,
0110
0000
0001
0001
,
0010
0100
2000
3000
,
1001
0100
0001
0100
,
0010
0010
0020
0030
,
1001
0010
1000
0010
,
0100
0100
0200
0300
,
2000
3000
0020
0030
,
0001
0000
0010
0010
,
1000
1000
0001
0001
,
0220
0000
0330
0000
,
1100
0000
0101
0000
,
0010
0100
0010
0100
,
2002
0000
0000
0000
,
0000
0000
0000
0000
,
3003
0000
0000
0000
;

//---------------dance-double - ----------------
#NOTES:
     dance-double:
     :
     Challenge:
     9:
     0.322366,0.423106,0.211553,0.161183,0.000000,224.000000,203.000000,21.000000,16.000000,208.000000,0.000000,0.322366,0.423106,0.211553,0.161183,0.000000,224.000000,203.000000,21.000000,16.000000,208.000000,0.000000:
// measure 0
00000000
00000000
00000000
00000000
,  // measure 1
00000000
00000000
00000000
00000000
,  // measure 2
00000000
00000000
00000000
00000000
,  // measure 3
00000000
00000000
00000000
00000000
,  // measure 4
00000000
00000000
00000000
00000000
,  // measure 5
10000000
00000000
01000000
00000000
00010000
00000000
00001000
00010000
,  // measure 6
00001000
00000000
00000100
00000000
00000001
00000000
00000010
00000100
,  // measure 7
00000010
00000000
00001000
00000000
00010000
00100000
10000000
00000000
,  // measure 8
20020000
00000000
30030000
MMMMMMMM
,  // measure 9
01100000
00010000
00100000
10000000
,  // measure 10
00100000
00000000
00010000
01000000
00001000
00000000
MMMMMMMM
00000000
,  // measure 11
00011000
00000010
00001000
00000100
,  // measure 12
00000001
00000000
00000100
00000010
00000100
00000000
MMMMMMMM
00000001
,  // measure 13
00002000
00003100
00020000
00031000
,  // measure 14
00011000
00000000
00001000
00000000
01000000
00100000
10000000
00000000
,  // measure 15
00110000
MMMMMMMM
00011000
MMMMMMMM
,  // measure 16
00002020
00000000
00003030
MMMMMMMM
,  // measure 17
00000001
00000001
00000010
00000010
,  // measure 18
00000100
00010000
00000100
00000000
00010000
00001000
00010000
00000000
,  // measure 19
00001000
01000000
10000000
01000000
,  // measure 20
00010000
00000000
00100000
01000000
00100000
00000000
MMMMMMMM
00000000
,  // measure 21
00010000
00000100
00000001
00000100
,  // measure 22
00001000
00000000
00000010
00000100
00000010
00000000
MMMMMMMM
00000000
,  // measure 23
00000001
00000000
00000010
00000000
00001000
00000000
00001000
00010000
,  // measure 24
00100000
00000000
00100000
00000000
10000000
00010000
00100000
00000000
,  // measure 25
01000000
00000000
10000000
00010000
20000000
00000000
30000000
00000000
,  // measure 26
MMMMMMMM
MMMMMMMM
MMMMMMMM
MMMMMMMM
,  // measure 27
01000000
10000000
01000000
10000000
,  // measure 28
00100000
00000000
00010000
00001000
00000010
00000000
MMMMMMMM
00000000
,  // measure 29
00000100
00000001
00000100
00000001
,  // measure 30
00000010
00000000
00001000
00010000
00100000
00000000
MMMMMMMM
00000000
,  // measure 31
00010000
00100000
01000000
00100000
,  // measure 32
00001000
00000000
00010000
00001000
00010000
00000000
MMMMMMMM
00000000
,  // measure 33
00001000
00000010
00000100
00000000
00000001
00000100
00000010
00000000
,  // measure 34
00001000
00000100
00000001
00000100
00001000
00000010
00000100
00000000
,  // measure 35
00002002
00000000
00003003
MMMMMMMM
,  // measure 36
00000110
00000000
00001000
00000000
00000010
00000001
00000010
00000000
,  // measure 37
00001000
00000100
00010000
MMMMMMMM
,  // measure 38
00011000
00000000
00100000
00000000
00010000
01000000
10000000
00000000
,  // measure 39
01000000
00000000
00100000
00000000
01000000
00000000
MMMMMMMM
01000000
,  // measure 40
00010000
00000000
00110000
00000000
00001000
00010000
00001000
00010000
,  // measure 41
00000100
00000000
00001010
00000000
00000100
00000001
00000010
00000001
,  // measure 42
00000200
00000000
00000310
00000000
00001000
00000100
00000010
00000000
,  // measure 43
00001000
00010000
00001000
00010000
00100000
00000000
MMMMMMMM
00000000
,  // measure 44
01100000
00000000
00010000
00000000
00100000
10000000
00100000
00000000
,  // measure 45
00010000
00000000
01000000
00001000
00010000
00000000
MMMMMMMM
00000000
,  // measure 46
00011000
00000000
00000010
00000000
00001000
00000100
00000001
00000000
,  // measure 47
00000100
00000000
00000010
00000100
00000010
00000000
MMMMMMMM
00001000
,  // measure 48
00000002
00000103
00000020
00001030
,  // measure 49
00011000
00000000
00010000
00000000
01000000
10000000
01000000
00000000
,  // measure 50
00110000
MMMMMMMM
00011000
MMMMMMMM
,  // measure 51
00002020
00000000
00003030
MMMMMMMM
,  // measure 52
00001100
MMMMMMMM
00011000
MMMMMMMM
,  // measure 53
01000000
00010000
00001000
00010000
00001000
00000100
00000001
00000000
,  // measure 54
00000022
00000000
00000000
00000000
,  // measure 55
00000000
00000000
00000000
00000000
,  // measure 56
00000033
00000000
00000000
00000000
;

//---------------dance-double - ----------------
#NOTES:
     dance-double:
     :
     Medium:
     8:
     0.336758,0.394899,0.261923,0.332440,0.000000,234.000000,208.000000,26.000000,33.000000,0.000000,0.000000,0.336758,0.394899,0.261923,0.332440,0.000000,234.000000,208.000000,26.000000,33.000000,0.000000,0.000000:
// measure 0
00000000
00000000
00000000
00000000
,  // measure 1
00000000
00000000
00000000
00000000
,  // measure 2
00000000
00000000
00000000
00000000
,  // measure 3
00000000
00000000
00000000
00000000
,  // measure 4
00000000
00000000
00000000
00000000
,  // measure 5
00100000
00000000
00010000
00000000
00100000
00000000
00001000
00010000
,  // measure 6
00001000
00000000
00010000
00000000
00001000
00000000
00000100
00000001
,  // measure 7
00000100
00000000
00000010
00000000
00001000
00000100
00010000
00000000
,  // measure 8
00022000
00000000
00033000
00000000
,  // measure 9
00110000
00000000
00001000
00000000
00010000
00001000
01000000
00000000
,  // measure 10
00100000
10000000
20020000
30030000
,  // measure 11
11000000
00000000
00010000
00000000
00100000
00001000
00010000
00000000
,  // measure 12
00001000
00000000
00000100
00000000
00000220
00000000
00000330
00001000
,  // measure 13
00000002
00001003
00002000
00013000
,  // measure 14
00011000
00000000
00010000
00000000
10000000
01000000
10000000
00000000
,  // measure 15
01000000
00100000
00010000
00000000
01000000
00001000
00010000
00000000
,  // measure 16
00022000
00000000
00000000
00033000
,  // measure 17
00001000
00010000
00000100
00010000
,  // measure 18
00001000
00000100
00000001
00000000
00000100
00000001
00000010
00000000
,  // measure 19
00000001
00000100
00000010
00001000
,  // measure 20
00000100
00000000
00010000
00001000
00020000
00000000
00031000
00000000
,  // measure 21
01000000
00100000
10000000
01000000
,  // measure 22
00010000
00000000
00001000
00010000
00002000
00000000
00013000
00000000
,  // measure 23
00001000
00001000
00100000
00100000
,  // measure 24
00010000
00000000
01000000
00000000
00100000
10000000
00010000
00000000
,  // measure 25
00100000
01000000
21000000
00000000
,  // measure 26
30010000
00000000
10000000
00000000
01000000
00100000
01000000
00100000
,  // measure 27
00010000
01010000
00100000
10100000
,  // measure 28
00010000
00000000
00100000
00001000
00200000
00000000
00301000
00000000
,  // measure 29
00010000
00011000
00000010
00001010
,  // measure 30
00000100
00000000
00000001
00001000
00000002
00000000
00001003
00000000
,  // measure 31
00000100
00001100
00010000
00011000
,  // measure 32
00000010
00000000
00010000
00001000
00020000
00000000
00031000
00000000
,  // measure 33
00100000
00010000
00100000
00000000
01000000
10000000
01000000
00000000
,  // measure 34
10000000
00010000
02200000
03300000
,  // measure 35
10010000
00000000
00000000
00000000
,  // measure 36
10000000
01000000
00010000
01000000
,  // measure 37
10000000
00000000
01000000
00100000
00020000
00000000
00030000
00000000
,  // measure 38
00100000
00100000
00001000
00001000
,  // measure 39
00010000
00000000
00000010
00001000
00000002
00000000
00000003
00000000
,  // measure 40
00000020
00000000
00000130
00000000
00000100
00000010
00000100
00000000
,  // measure 41
00001001
00000000
00000001
00000000
00000100
00001000
00000100
00000000
,  // measure 42
00002000
00003000
00010000
00010000
,  // measure 43
01000000
00100000
01000000
00000000
20000000
00000000
30010000
00000000
,  // measure 44
00110000
00000000
00001000
00000000
00010000
00001000
01000000
00000000
,  // measure 45
00100000
10000000
20020000
30030000
,  // measure 46
11000000
00000000
00010000
00000000
00100000
00001000
00010000
00000000
,  // measure 47
00001000
00000000
00000100
00000000
00000220
00000000
00000330
00001000
,  // measure 48
00000002
00001003
00002000
00013000
,  // measure 49
00011000
00000000
00010000
00000000
10000000
01000000
10000000
00000000
,  // measure 50
01000000
00100000
00010000
00000000
01000000
00001000
00010000
00000000
,  // measure 51
00022000
00000000
00000000
00033000
,  // measure 52
00001100
00000000
00000011
00000000
,  // measure 53
00000001
00000010
00001000
00000000
00010000
00100000
10000000
00000000
,  // measure 54
20020000
00000000
00000000
00000000
,  // measure 55
00000000
00000000
00000000
00000000
,  // measure 56
30030000
00000000
00000000
00000000
;

//---------------dance-double - ----------------
#NOTES:
     dance-double:
     :
     Easy:
     6:
     0.243214,0.282070,0.100739,0.251849,0.000000,169.000000,159.000000,10.000000,25.000000,0.000000,0.000000,0.243214,0.282070,0.100739,0.251849,0.000000,169.000000,159.000000,10.000000,25.000000,0.000000,0.000000:
// measure 0
00000000
00000000
00000000
00000000
,  // measure 1
00000000
00000000
00000000
00000000
,  // measure 2
00000000
00000000
00000000
00000000
,  // measure 3
00000000
00000000
00000000
00000000
,  // measure 4
00000000
00000000
00000000
00000000
,  // measure 5
10000000
01000000
10000000
01000000
,  // measure 6
00010000
00001000
00010000
00001000
,  // measure 7
00000100
00000001
00000010
00000100
,  // measure 8
00011000
00000000
00000000
00000000
,  // measure 9
00100000
00010000
00100000
00010000
,  // measure 10
01000000
00001000
00020000
00030000
,  // measure 11
00000100
00001000
00000100
00001000
,  // measure 12
00000010
00010000
00002000
00003000
,  // measure 13
00200000
00300000
02000000
03000000
,  // measure 14
10000000
00000000
00010000
00010000
,  // measure 15
00100000
00001000
00010000
00000010
,  // measure 16
00000220
00000000
00000000
00000330
,  // measure 17
00000001
00000001
00001000
00001000
,  // measure 18
00000001
00000100
00000010
00001000
,  // measure 19
00000001
00000010
00001000
00000010
,  // measure 20
00000001
00000010
00002000
00003000
,  // measure 21
00010000
00100000
10000000
00100000
,  // measure 22
00010000
00100000
20000000
30000000
,  // measure 23
10000000
01000000
00010000
01000000
,  // measure 24
10000000
00000000
00010000
00010000
,  // measure 25
10000000
00100000
00020000
00000000
,  // measure 26
00031000
00010000
00001000
00010000
,  // measure 27
00001000
00001000
00010000
00010000
,  // measure 28
00000010
00001000
00000020
00000030
,  // measure 29
00000100
00000100
00000001
00000001
,  // measure 30
00000010
00001000
00000020
00000030
,  // measure 31
00001000
00010000
00001000
00100000
,  // measure 32
00001000
00010000
00002000
00003000
,  // measure 33
01000000
00001000
00010000
00001000
,  // measure 34
00010000
01000000
20000000
30000000
,  // measure 35
10010000
00000000
00000000
00000000
,  // measure 36
00010000
01000000
00100000
01000000
,  // measure 37
00001000
00010000
00002000
00003000
,  // measure 38
00010000
00000100
00000010
00000100
,  // measure 39
00001000
00000001
00002000
00003000
,  // measure 40
00000001
00000000
00000100
00000100
,  // measure 41
00001001
00000000
00000010
00000010
,  // measure 42
00011000
00000000
00001000
00001000
,  // measure 43
00010000
01000000
22000000
33000000
,  // measure 44
00100000
00010000
00100000
00010000
,  // measure 45
01000000
00001000
00020000
00030000
,  // measure 46
00000100
00001000
00000100
00001000
,  // measure 47
00000010
00010000
00002000
00003000
,  // measure 48
00200000
00300000
02000000
03000000
,  // measure 49
10000000
00000000
00010000
00010000
,  // measure 50
00100000
00001000
00010000
00000010
,  // measure 51
00000220
00000000
00000000
00000330
,  // measure 52
00001001
00000000
00011000
00000000
,  // measure 53
00100000
01000000
00100000
01000000
,  // measure 54
20020000
00000000
00000000
00000000
,  // measure 55
00000000
00000000
00000000
00000000
,  // measure 56
30030000
00000000
00000000
00000000
;
