#TITLE:kors k's How to make OTOGE CORE;
#SUBTITLE:;
#ARTIST:kors k;
#TITLETRANSLIT:;
#SUBTITLETRANSLIT:;
#ARTISTTRANSLIT:;
#GENRE:BEMANI;
#CREDIT:;
#BANNER:kors k's How to make OTOGE CORE.png;
#BACKGROUND:kors k's How to make OTOGE CORE-bg.png;
#LYRICSPATH:;
#CDTITLE:../cdtitle.png;
#MUSIC:kors k's How to make OTOGE CORE.ogg;
#OFFSET:-0.943000;
#SAMPLESTART:93.757996;
#SAMPLELENGTH:15.000000;
#SELECTABLE:YES;
#BPMS:0.000000=124.000000
,48.000000=190.000000
,100.000000=124.000000
,132.000000=190.000000
,204.000000=124.000000
,236.000000=190.000000
;
#STOPS:
;
#BGCHANGES:-0.250=kors k's How to make OTOGE CORE.avi=1.000=0=0=0=StretchNoLoop====,
339.000=kors k's How to make OTOGE CORE.avi=1.000=0=0=1===CrossFade_Fastest=#000000=,
99999=-nosongbg-=1.000=0=0=0 // don't automatically add -songbackground-
;
#KEYSOUNDS:;
#ATTACKS:;

//---------------dance-single - Practice\: Shock Arrows----------------
#NOTES:
     dance-single:
     :
     Challenge:
     12:
     0.286269,0.546097,0.099429,0.015297,0.003824,262.000000,249.000000,13.000000,2.000000,228.000000,0.000000,0.286269,0.546097,0.099429,0.015297,0.003824,262.000000,249.000000,13.000000,2.000000,228.000000,0.000000:
// measure 0
0000
0000
0000
0000
,  // measure 1
MMMM
0000
0000
0000
,  // measure 2
MMMM
0000
0000
0000
,  // measure 3
MMMM
0000
0000
0000
,  // measure 4
MMMM
0000
0000
0000
,  // measure 5
MMMM
0000
0000
0000
,  // measure 6
MMMM
0000
0000
0000
,  // measure 7
MMMM
0000
0000
0000
,  // measure 8
MMMM
0000
0000
0000
,  // measure 9
MMMM
0000
0000
0000
,  // measure 10
MMMM
0000
0000
0000
,  // measure 11
MMMM
0000
0000
0000
,  // measure 12
1000
1000
1000
1000
,  // measure 13
MMMM
0001
MMMM
0001
,  // measure 14
MMMM
0000
1000
0100
1000
0100
1000
0000
,  // measure 15
MMMM
0010
0000
0010
0000
0010
0000
0001
,  // measure 16
0100
0010
0100
0010
,  // measure 17
MMMM
0001
0000
0001
0000
0010
0000
0100
,  // measure 18
1000
0000
0000
0000
,  // measure 19
MMMM
0000
0000
0000
,  // measure 20
1000
1100
0100
0101
,  // measure 21
0001
0011
0010
1010
,  // measure 22
MMMM
1001
MMMM
0110
,  // measure 23
MMMM
1001
MMMM
0110
,  // measure 24
1001
0000
0000
0000
,  // measure 25
MMMM
0000
0000
0000
,  // measure 26
MMMM
0000
0000
0000
,  // measure 27
MMMM
0000
0000
0000
,  // measure 28
MMMM
0000
0000
0000
,  // measure 29
MMMM
MMMM
0000
0000
,  // measure 30
MMMM
0000
0000
0000
,  // measure 31
MMMM
0000
0000
0000
,  // measure 32
MMMM
0000
0000
0000
,  // measure 33
MMMM
0000
0000
0000
,  // measure 34
0000
0000
1000
0001
0000
0001
0000
0100
,  // measure 35
0010
0000
1000
0001
0000
0100
0010
0100
,  // measure 36
MMMM
0000
1000
0100
0000
0100
0000
1000
,  // measure 37
0001
0100
0000
0010
0000
1000
0000
0001
,  // measure 38
MMMM
0000
0001
0010
0100
1000
0001
0000
,  // measure 39
0001
0010
0100
1000
0001
0000
1000
0100
,  // measure 40
MMMM
0000
0001
0100
0010
1000
0001
0000
,  // measure 41
1000
0010
0100
0001
1000
0100
0010
0000
,  // measure 42
MMMM
0000
1000
0001
0000
0001
0000
0100
,  // measure 43
0010
0000
1000
0001
0000
0100
0010
0100
,  // measure 44
MMMM
0000
1000
0100
0000
0100
0000
1000
,  // measure 45
0001
0100
0000
0010
0000
1000
0000
0001
,  // measure 46
MMMM
0000
0001
0010
0100
1000
0010
1000
,  // measure 47
0001
0010
0100
1000
0010
0100
0001
1000
,  // measure 48
MMMM
0000
1000
0100
0010
0001
0100
0001
,  // measure 49
1000
0010
0100
0001
1000
0100
0010
0000
,  // measure 50
1001
0000
0000
0000
,  // measure 51
MMMM
0000
0000
0000
,  // measure 52
MMMM
0000
0000
0000
,  // measure 53
MMMM
0000
0000
0000
,  // measure 54
MMMM
0000
0000
0000
,  // measure 55
MMMM
0000
0000
0000
,  // measure 56
MMMM
0000
0000
0000
,  // measure 57
0000
0000
0000
0000
,  // measure 58
MMMM
0000
0000
0000
,  // measure 59
1000
0000
0000
1000
0001
0000
0100
0000
0010
0000
1000
0000
0010
0000
0010
0000
,  // measure 60
MMMM
0000
1001
0001
0010
0100
1000
0100
,  // measure 61
0010
0100
0010
0100
0001
0100
1000
0001
,  // measure 62
MMMM
0000
0001
0100
0010
1000
0010
0100
,  // measure 63
0010
1000
0010
1000
0001
0010
0100
1000
,  // measure 64
MMMM
0000
1000
0010
0001
0010
1000
0001
,  // measure 65
1000
0010
0001
0010
1000
0001
1000
0100
,  // measure 66
MMMM
0000
0001
0010
1000
0010
0001
MMMM
,  // measure 67
0100
1000
0001
1000
0010
0100
0010
0010
,  // measure 68
MMMM
0000
1001
1000
0010
0100
0001
0100
,  // measure 69
0010
0100
0010
0100
1000
0100
0001
1000
,  // measure 70
MMMM
0000
1000
0100
0010
0001
0010
0100
,  // measure 71
0010
0001
0010
0001
1000
0010
0100
0001
,  // measure 72
1000
1000
0100
1000
0001
0100
0001
0001
,  // measure 73
1000
0010
1000
0010
0100
0010
1000
0001
,  // measure 74
0010
0100
0010
1000
0010
0001
1000
MMMM
,  // measure 75
0010
1000
0001
1000
0010
0001
1000
0000
,  // measure 76
MMMM
0220
0000
0330
,  // measure 77
0000
0000
0000
0000
,  // measure 78
0000
0000
0000
0000
,  // measure 79
0000
0000
0000
MMMM
,  // measure 80
0000
0000
0000
0000
,  // measure 81
0000
0000
0000
0000
,  // measure 82
MMMM
0000
0000
0000
,  // measure 83
0000
0000
0000
0000
,  // measure 84
MMMM
0000
0000
0000
;

//---------------dance-single - Practice\: Crossovers----------------
#NOTES:
     dance-single:
     :
     Hard:
     14:
     0.331067,0.645718,0.038242,0.038242,0.057363,303.000000,298.000000,5.000000,5.000000,0.000000,0.000000,0.331067,0.645718,0.038242,0.038242,0.057363,303.000000,298.000000,5.000000,5.000000,0.000000,0.000000:
0000
0000
0000
0000
,
0000
0000
0000
0000
,
0000
0000
0000
0000
,
0000
0000
0000
0000
,
0000
0000
0000
0000
,
0000
0000
0000
0000
,
0000
0000
0000
0000
,
0000
0000
0000
0000
,
0000
0000
0000
0000
,
0000
0000
0000
0000
,
0000
0000
0000
0000
,
0000
0000
0000
0000
,
1000
1000
0001
0001
,
0000
0010
0000
0010
,
0000
0000
1000
0010
0001
0010
1000
0010
,
0000
0001
0000
1000
0000
0001
0000
0100
,
0010
1000
0010
1000
,
0000
0100
0000
0001
0000
0100
0000
1000
,
0001
0000
0000
0000
,
0000
0000
0000
0000
,
1000
0100
1000
0100
0001
0100
0001
0100
,
1000
0100
0001
0100
1000
0100
0001
0100
,
1000
0010
1000
0010
0001
0010
0001
0010
,
1000
0010
0001
0010
1000
0010
0001
0010
,
1000
0000
0000
0000
,
0000
0000
0000
0000
,
0000
0000
0000
0000
,
0000
0000
0000
0000
,
0000
0000
0000
0000
,
0000
0000
0000
0000
,
0000
0000
0000
0000
,
0000
0000
0000
0000
,
0000
0000
0000
0000
,
0000
0000
0000
0000
,
0000
0000
0001
0010
0000
0010
0000
1000
,
0010
0000
0010
0001
0000
0010
1000
0010
,
0000
0000
0001
1000
0000
0010
0000
0010
,
0001
0010
0000
1000
0000
0002
0000
0013
,
0000
0000
0001
0100
1000
0100
0001
0000
,
0001
0100
1000
0100
0001
0000
0001
1000
,
0000
0000
1000
0100
0001
0100
1000
0000
,
1000
0100
0001
1000
0010
0001
2000
0000
,
3000
0000
1000
0010
0000
0010
0000
0001
,
0010
0000
0010
1000
0000
0010
0001
0010
,
0000
0000
1000
0001
0000
0010
0000
0010
,
1000
0010
0000
0001
0000
0200
0000
0310
,
1000
0000
1000
0100
0001
0100
1000
0010
,
1000
0100
0001
0100
1000
0010
0100
0001
,
1000
0000
0001
0100
1000
0100
0001
1000
,
0001
0010
1000
0001
1000
0010
0001
0000
,
1001
0000
0000
0000
,
0000
0000
0000
0000
,
0000
0000
0000
0000
,
0000
0000
0000
0000
,
0000
0000
0000
0000
,
0000
0000
0000
0000
,
0000
0000
0000
0000
,
0000
0000
0000
0000
,
0000
0000
0000
0000
,
1000
0000
0000
1000
0001
0000
0100
0000
0010
1000
0010
1000
0001
0000
0100
0000
,
0010
0000
0000
0000
1001
0000
0001
0000
0010
0000
1000
0000
0010
0000
0001
0010
,
0001
0010
1000
0001
0100
1000
0010
1000
,
0100
0000
1000
0000
0100
0000
0010
0000
0001
0000
0100
0000
0010
0000
0100
1000
,
0100
0010
0100
0001
1000
0010
0001
0010
,
0110
0000
0001
0010
1000
0010
0001
1000
,
0001
0010
1000
0010
0001
0100
0010
1000
,
0001
1000
0100
0001
0100
1000
0001
1000
,
0010
0000
0001
0000
1000
0000
0001
0000
0010
0000
1000
0000
0001
0100
0001
0100
,
0010
0000
0000
0000
1001
0000
1000
0000
0010
0000
0001
0000
0010
0000
1000
0010
,
1000
0010
0001
1000
0100
0001
0010
0001
,
0100
0000
0001
0000
0100
0000
0010
0000
1000
0000
0100
0000
0010
0000
0100
0001
,
0100
0010
0100
1000
0001
0010
1000
0010
,
0001
0100
0001
0100
1000
0100
1000
0100
,
0001
0100
1000
0100
0001
1000
0010
0001
,
0010
0000
0001
0010
1000
0000
0010
1000
0001
0000
1000
0100
0001
0000
0100
1000
,
0001
0000
0010
0000
1000
0000
0001
0000
1000
0000
0010
0000
0001
1000
0001
1000
,
0000
0220
0000
0330
;

//---------------dance-single - Practice\: Beginner----------------
#NOTES:
     dance-single:
     :
     Beginner:
     3:
     0.088503,0.205456,0.015297,0.015297,0.000000,81.000000,79.000000,2.000000,2.000000,0.000000,0.000000,0.088503,0.205456,0.015297,0.015297,0.000000,81.000000,79.000000,2.000000,2.000000,0.000000,0.000000:
0000
0000
0000
0000
,
0000
0000
0000
0000
,
0000
0000
0000
0000
,
0000
0000
0000
0000
,
0000
0000
0000
0000
,
0000
0000
0000
0000
,
0000
0000
0000
0000
,
0000
0000
0000
0000
,
0000
0000
0000
0000
,
0000
0000
0000
0000
,
0000
0000
0000
0000
,
0000
0000
0000
0000
,
1000
0000
0000
0000
,
0001
0000
0000
0000
,
1000
0000
0000
0000
,
1000
0000
0000
0000
,
0001
0000
0000
0000
,
0100
0000
0000
0000
,
0010
0000
0000
0000
,
0000
0000
0000
0000
,
1000
0000
1000
0000
,
1000
0000
0100
0000
,
0001
0000
0001
0000
,
0001
0000
0010
0000
,
1000
0000
0000
0000
,
0000
0000
0000
0000
,
0000
0000
0000
0000
,
0000
0000
0000
0000
,
0000
0000
0000
0000
,
0000
0000
0000
0000
,
0000
0000
0000
0000
,
0000
0000
0000
0000
,
0000
0000
0000
0000
,
0000
0000
0000
0000
,
0000
1000
0000
0000
,
1000
0000
0000
0000
,
0000
0001
0000
0000
,
0001
0000
0000
0000
,
0000
0010
0000
0000
,
0010
0000
0000
1000
,
0000
0010
0000
0000
,
0001
0000
0000
0000
,
0000
1000
0000
0000
,
1000
0000
0000
0000
,
0000
0001
0000
0000
,
0001
0000
0000
0000
,
0010
0000
0010
0000
,
1000
1000
1000
0000
,
0001
0000
0001
0000
,
0100
0100
0100
0000
,
1001
0000
0000
0000
,
0000
0000
0000
0000
,
0000
0000
0000
0000
,
0000
0000
0000
0000
,
0000
0000
0000
0000
,
0000
0000
0000
0000
,
0000
0000
0000
0000
,
0000
0000
0000
0000
,
0000
0000
0000
0000
,
0000
0000
0000
0000
,
1000
0000
0001
0000
,
1000
1000
1000
0000
,
0001
0000
0100
0000
,
0010
0000
0010
0000
,
0100
0100
0100
0000
,
0001
0000
1000
0000
,
0010
0010
0010
0000
,
0100
0000
0001
0000
,
0000
0000
1000
0000
,
0001
0001
0001
0000
,
1000
0000
0100
0000
,
0010
0000
0010
0000
,
0100
0100
0100
0000
,
1000
1000
1000
0000
,
0001
0000
1000
0000
,
0010
0010
0010
0000
,
0000
2002
0000
3003
;

//---------------dance-single - Practice\: Spins----------------
#NOTES:
     dance-single:
     :
     Medium:
     11:
     0.256768,0.410911,0.038242,0.022945,0.000000,235.000000,230.000000,5.000000,3.000000,0.000000,0.000000,0.256768,0.410911,0.038242,0.022945,0.000000,235.000000,230.000000,5.000000,3.000000,0.000000,0.000000:
0000
0000
0000
0000
,
0000
0000
0000
0000
,
0000
0000
0000
0000
,
0000
0000
0000
0000
,
0000
0000
0000
0000
,
0000
0000
0000
0000
,
0000
0000
0000
0000
,
0000
0000
0000
0000
,
0000
0000
0000
0000
,
0000
0000
0000
0000
,
0000
0000
0000
0000
,
0000
0000
0000
0000
,
1000
1000
0001
0001
,
0000
0100
0000
0100
,
0000
0000
0010
0000
0010
0100
0010
0000
,
0000
0001
0000
0001
0000
1000
0000
1000
,
0010
0010
0100
0100
,
0000
1000
0000
1000
0000
0001
0000
0100
,
0010
0000
0000
0000
,
0000
0000
0000
0000
,
1000
0001
1000
0000
0010
0100
0010
0000
,
0001
1000
0001
0000
0100
0010
0100
0000
,
1000
0100
1000
0000
0100
0001
0100
0000
,
0001
0010
0001
0000
0010
1000
0010
0000
,
1001
0000
0000
0000
,
0000
0000
0000
0000
,
0000
0000
0000
0000
,
0000
0000
0000
0000
,
0000
0000
0000
0000
,
0000
0000
0000
0000
,
0000
0000
0000
0000
,
0000
0000
0000
0000
,
0000
0000
0000
0000
,
0000
0000
0000
0000
,
0000
0000
0001
0010
0000
0010
0000
0010
,
1000
0000
1000
0100
0000
0100
0001
0100
,
0000
0000
0001
0100
0000
1000
0000
0100
,
1000
0100
0000
1000
0000
0010
0000
0001
,
0000
0000
0010
1000
0010
0000
1000
0000
,
0100
1000
0100
0000
1000
0000
0100
0001
,
0000
0000
0100
1000
0100
0000
1000
0000
,
0010
1000
0010
0000
0001
0000
2000
0000
,
3000
0000
0001
0010
0000
0010
0000
0010
,
1000
0000
1000
0100
0000
0100
0001
0100
,
0000
0000
0001
0100
0000
1000
0000
0100
,
1000
0100
0000
1000
0000
0010
0000
0001
,
1000
0000
0010
0001
0010
0001
0100
0000
,
0001
0100
0001
0100
1000
0000
0100
0001
,
0100
0000
0001
0010
0001
0010
1000
0000
,
0010
0001
0010
0001
0100
0000
1000
0000
,
1001
0000
0000
0000
,
0000
0000
0000
0000
,
0000
0000
0000
0000
,
0000
0000
0000
0000
,
0000
0000
0000
0000
,
0000
0000
0000
0000
,
0000
0000
0000
0000
,
0000
0000
0000
0000
,
0000
0000
0000
0000
,
0100
0000
1000
0010
1000
0010
0001
0000
,
0110
0000
0001
1000
0000
0010
0000
0001
,
1000
0000
0001
0100
0000
0001
0100
1000
,
0100
0000
1000
0100
0000
0001
0000
0001
,
1000
0001
0000
0010
0000
1000
0000
0100
,
0010
0000
0001
0010
0001
0010
1000
0000
,
0010
1000
0010
1000
0100
0000
1000
0100
,
0001
0000
0001
0100
0001
0100
1000
0000
,
0100
1000
0100
1000
0010
0000
0001
0000
,
0110
0000
0001
1000
0000
0100
0000
0001
,
1000
0000
0001
0010
0000
0001
0010
1000
,
0010
0000
1000
0010
0000
0001
0000
0001
,
1000
0001
0000
0100
0000
1000
0000
0010
,
0100
0000
0001
0100
0001
0100
1000
0000
,
0100
1000
0100
1000
0010
0000
1000
0010
,
0001
0000
0001
0010
0001
0010
1000
0000
,
0010
1000
0010
1000
0100
0000
0001
0000
,
0000
2002
0000
3003
;

//---------------dance-single - Practice\: Jumps----------------
#NOTES:
     dance-single:
     :
     Easy:
     9:
     0.276436,0.528314,0.604225,0.022945,0.000000,253.000000,174.000000,79.000000,3.000000,0.000000,0.000000,0.276436,0.528314,0.604225,0.022945,0.000000,253.000000,174.000000,79.000000,3.000000,0.000000,0.000000:
0000
0000
0000
0000
,
0000
0000
0000
0000
,
0000
0000
0000
0000
,
0000
0000
0000
0000
,
0000
0000
0000
0000
,
0000
0000
0000
0000
,
0000
0000
0000
0000
,
0000
0000
0000
0000
,
0000
0000
0000
0000
,
0000
0000
0000
0000
,
0000
0000
0000
0000
,
0000
0000
0000
0000
,
1000
1000
0001
0001
,
0000
0010
0000
0010
,
0000
0100
0010
0100
,
0000
1000
0000
0100
0000
1000
0000
0100
,
0010
0001
0010
0001
,
0000
0100
0000
0001
0000
0100
0000
0010
,
1000
0000
0000
0000
,
0000
0000
0000
0000
,
1000
1100
0010
0011
,
0001
0101
0010
1010
,
0001
0110
0010
1001
,
0100
1001
0001
0110
,
1001
0000
0000
0000
,
0000
0000
0000
0000
,
0000
0000
0000
0000
,
0000
0000
0000
0000
,
0000
0000
0000
0000
,
0000
0000
0000
0000
,
0000
0000
0000
0000
,
0000
0000
0000
0000
,
0000
0000
0000
0000
,
0000
0000
0000
0000
,
0000
0000
1000
0100
0000
0100
0000
0100
,
1000
0000
0001
0100
0000
0000
0101
0000
,
0000
0000
0001
0010
0000
0010
0000
0010
,
0001
0000
0000
1000
0000
0010
0000
1010
,
0000
0000
0010
0100
0010
0000
0110
0000
,
0001
0100
0001
0000
1000
0000
1100
0000
,
0000
0000
0010
0100
0010
0000
0110
0000
,
1000
0100
1000
0000
0010
0000
0101
0000
,
0000
0000
0001
0010
0000
0010
0000
0010
,
0001
0000
1000
0010
0000
0000
1010
0000
,
0000
0000
1000
0100
0000
0100
0000
0100
,
1000
0000
0000
0001
0000
0100
0000
0101
,
0000
0000
0100
0010
0100
0000
0110
0000
,
1000
0010
1000
0000
0001
0000
0011
0000
,
0100
0000
0100
0010
0100
0000
0110
0000
,
0001
0010
0001
0000
0100
0000
1010
0000
,
0110
0000
0000
0000
,
0000
0000
0000
0000
,
0000
0000
0000
0000
,
0000
0000
0000
0000
,
0000
0000
0000
0000
,
0000
0000
0000
0000
,
0000
0000
0000
0000
,
0000
0000
0000
0000
,
0000
0000
0000
0000
,
0010
0000
0010
0100
0010
0000
0200
0000
,
0300
1010
1001
1001
,
0110
0011
1100
0101
,
0000
0110
1100
1100
,
1010
1001
0011
0110
,
1001
0001
1010
1100
,
0110
0101
0101
0011
,
0000
1000
0101
0011
,
0110
1010
1001
1100
,
0000
0011
1001
1001
,
0110
1010
0101
1100
,
0000
0110
0101
0101
,
0011
1001
1010
0110
,
1001
0101
0011
0011
,
0110
1010
1010
1100
,
0010
0101
1100
1100
,
0110
0101
1001
0011
,
0000
0220
0000
0330
;

//---------------dance-double - Practice\: Jumps----------------
#NOTES:
     dance-double:
     :
     Easy:
     9:
     0.272065,0.498964,0.588928,0.030594,0.000000,249.000000,172.000000,77.000000,4.000000,0.000000,0.000000,0.272065,0.498964,0.588928,0.030594,0.000000,249.000000,172.000000,77.000000,4.000000,0.000000,0.000000:
00000000
00000000
00000000
00000000
,
00000000
00000000
00000000
00000000
,
00000000
00000000
00000000
00000000
,
00000000
00000000
00000000
00000000
,
00000000
00000000
00000000
00000000
,
00000000
00000000
00000000
00000000
,
00000000
00000000
00000000
00000000
,
00000000
00000000
00000000
00000000
,
00000000
00000000
00000000
00000000
,
00000000
00000000
00000000
00000000
,
00000000
00000000
00000000
00000000
,
00000000
00000000
00000000
00000000
,
10000000
10000000
00010000
00010000
,
00000000
00100000
00000000
00100000
,
00000000
00001000
01000000
00001000
,
00000000
00010000
00000000
01000000
00000000
00010000
00000000
01000000
,
10000000
00100000
10000000
00100000
,
00000000
01000000
00000000
00001000
00000000
01000000
00000000
00001000
,
00010000
00000000
00000000
00000000
,
00000000
00000000
00000000
00000000
,
00001000
00010100
00001000
00000110
,
00001000
00010010
00001000
00011000
,
00010000
00101000
00010000
01100000
,
00010000
01001000
00010000
00001100
,
00000110
00000000
00000000
00000000
,
00000000
00000000
00000000
00000000
,
00000000
00000000
00000000
00000000
,
00000000
00000000
00000000
00000000
,
00000000
00000000
00000000
00000000
,
00000000
00000000
00000000
00000000
,
00000000
00000000
00000000
00000000
,
00000000
00000000
00000000
00000000
,
00000000
00000000
00000000
00000000
,
00000000
00000000
00000000
00000000
,
00000000
00000000
00100000
00010000
00000000
00010000
00000000
00010000
,
10000000
00000000
00100000
01000000
00000000
00000000
01100000
00000000
,
00000000
00000000
00001000
00010000
00000000
00010000
00000000
00000100
,
00001000
00000000
00000000
00000001
00000000
00000100
00000000
00000101
,
00000000
00000000
00000010
00000100
00000010
00000000
00000110
00000000
,
00001000
00000010
00001000
00000000
00000001
00000000
00001100
00000000
,
00000000
00000000
00010000
00001000
00010000
00000000
00011000
00000000
,
00001000
00000010
00001000
00000000
00000010
00000000
00000011
00000000
,
00000000
00000000
00000100
00001000
00000000
00001000
00000000
00001000
,
00000001
00000000
00000100
00000010
00000000
00000000
00000110
00000000
,
00000000
00000000
00010000
00001000
00000000
00001000
00000000
00100000
,
00010000
00000000
00000000
10000000
00000000
00100000
00000000
10100000
,
00000000
00000000
01000000
00100000
01000000
00000000
01100000
00000000
,
00010000
01000000
00010000
00000000
10000000
00000000
00110000
00000000
,
00001000
00000000
00001000
00010000
00001000
00000000
00011000
00000000
,
00010000
01000000
00010000
00000000
01000000
00000000
10000000
00000000
,
10010000
00000000
00000000
00000000
,
00000000
00000000
00000000
00000000
,
00000000
00000000
00000000
00000000
,
00000000
00000000
00000000
00000000
,
00000000
00000000
00000000
00000000
,
00000000
00000000
00000000
00000000
,
00000000
00000000
00000000
00000000
,
00000000
00000000
00000000
00000000
,
00000000
00000000
00000000
00000000
,
00200000
00010000
01000000
00002000
,
00303000
00101000
00010100
00010100
,
00101000
00011000
01001000
01100000
,
00000000
11000000
01010000
01010000
,
10010000
10100000
00110000
01000000
,
10010000
11000000
00110000
00110000
,
00011000
00001100
00011000
00001001
,
00000000
00001000
00001010
00011000
,
00101000
10010000
01100000
01010000
,
00000000
00010100
00101000
00101000
,
00010100
00011000
00010010
00000110
,
00000000
00000011
00001010
00001010
,
00001001
00000101
00001100
00000010
,
00001001
00000011
00001100
00001100
,
00011000
00110000
00011000
10010000
,
00000000
10100000
01010000
00011000
,
00010100
00001001
00000110
00001010
,
00000000
00022000
00000000
00033000
;

//---------------dance-double - Practice\: Spins----------------
#NOTES:
     dance-double:
     :
     Medium:
     12:
     0.275343,0.498964,0.053539,0.061187,0.000000,252.000000,245.000000,7.000000,8.000000,0.000000,0.000000,0.275343,0.498964,0.053539,0.061187,0.000000,252.000000,245.000000,7.000000,8.000000,0.000000,0.000000:
00000000
00000000
00000000
00000000
,
00000000
00000000
00000000
00000000
,
00000000
00000000
00000000
00000000
,
00000000
00000000
00000000
00000000
,
00000000
00000000
00000000
00000000
,
00000000
00000000
00000000
00000000
,
00000000
00000000
00000000
00000000
,
00000000
00000000
00000000
00000000
,
00000000
00000000
00000000
00000000
,
00000000
00000000
00000000
00000000
,
00000000
00000000
00000000
00000000
,
00000000
00000000
00000000
00000000
,
00010000
00010000
00001000
00001000
,
00000000
00000010
00000000
00000010
,
00000000
00000000
00010000
00000000
00010000
00001000
00010000
00000000
,
00000000
00001000
00000000
00001000
00000000
00000010
00000000
00000010
,
00001000
00001000
00010000
00010000
,
00000000
00100000
00000000
00100000
00000000
00001000
00000000
00001000
,
00010000
00000000
00000000
00000000
,
00000000
00000000
00000000
00000000
,
01000000
00100000
01000000
00000000
10000000
00010000
10000000
00000000
,
00100000
01000000
00100000
00000000
00010000
00001000
00010000
00000000
,
00000010
00000100
00000010
00000000
00001000
00000001
00001000
00000000
,
00000100
00000010
00000100
00000000
00000001
00001000
00000001
00000000
,
00000110
00000000
00000000
00000000
,
00000000
00000000
00000000
00000000
,
00000000
00000000
00000000
00000000
,
00000000
00000000
00000000
00000000
,
00000000
00000000
00000000
00000000
,
00000000
00000000
00000000
00000000
,
00000000
00000000
00000000
00000000
,
00000000
00000000
00000000
00000000
,
00000000
00000000
00000000
00000000
,
00000000
00000000
00000000
00000000
,
00000000
00000000
00010000
00000100
00000000
00000100
00000000
00000100
,
00001000
00000000
00001000
00010000
00000000
00010000
01000000
00001000
,
00000000
00000000
00010000
00001000
00000000
00100000
00000000
00100000
,
00010000
00001000
00000000
00000010
00000000
00020000
00000000
00030100
,
00000000
00000000
00000010
00000001
00000010
00000000
00001000
00000000
,
00000001
00000100
00000001
00000000
00001000
00000000
00010000
00001000
,
00000000
00000000
00100000
10000000
00100000
00000000
00010000
00000000
,
10000000
01000000
10000000
00000000
00100000
00000000
00020000
00000000
,
00030000
00000000
00001000
00100000
00000000
00100000
00000000
00100000
,
00010000
00000000
00010000
00001000
00000000
00001000
00000010
00010000
,
00000000
00000000
00001000
00010000
00000000
00000100
00000000
00000100
,
00001000
00010000
00000000
01000000
00000000
00002000
00000000
00103000
,
01000000
00000000
10000000
00100000
10000000
00100000
00010000
00000000
,
00001000
00010000
00001000
00010000
01000000
00000000
00010000
00001000
,
00000010
00000000
00000001
00000100
00000001
00000100
00001000
00000000
,
00010000
00001000
00010000
00001000
00000010
00001000
00010000
00000000
,
01100000
00000000
00000000
00000000
,
00000000
00000000
00000000
00000000
,
00000000
00000000
00000000
00000000
,
00000000
00000000
00000000
00000000
,
00000000
00000000
00000000
00000000
,
00000000
00000000
00000000
00000000
,
00000000
00000000
00000000
00000000
,
00000000
00000000
00000000
00000000
,
00000000
00000000
00000000
00000000
,
01000000
00000000
00010000
00001000
00010000
00000010
00000200
00000000
,
00000310
00000000
00001001
00001000
00000010
00000100
00000010
00000001
,
00001000
00000100
00001000
00000100
00000001
00000010
00001000
00010000
,
00001000
00000000
00100000
01000000
10000000
00100000
10000000
00100000
,
10000000
01000000
00100000
00010000
00001000
00000100
00000010
00000000
,
00000110
00000000
00000001
00000100
00000001
00000100
00001000
00000000
,
00010000
00001000
00010000
00001000
00000010
00000000
00000001
00000100
,
00001000
00000000
00010000
01000000
00010000
01000000
10000000
00000000
,
00100000
01000000
00100000
00000000
00010000
00000000
00002000
00000000
,
00003010
00000000
00001001
00000001
00000100
00000010
00000100
00000010
,
00001000
00000001
00001000
00000100
00001000
00010000
00100000
00010000
,
10000000
00000000
00010000
01000000
00100000
01000000
00100000
10000000
,
00010000
00100000
01000000
00100000
10000000
00100000
00010000
00000000
,
01100000
00000000
10000000
00100000
10000000
00100000
00010000
00000000
,
00001000
00010000
00001000
00010000
01000000
00000000
10000000
01000000
,
00010000
00000000
00001000
00010000
00001000
00010000
00100000
00000000
,
10000000
01000000
00010000
00000000
00001000
00000000
00000200
00000000
,
00000300
00002002
00000000
00003003
;

//---------------dance-double - Practice\: Crossovers----------------
#NOTES:
     dance-double:
     :
     Hard:
     14:
     0.320141,0.616367,0.045891,0.061187,0.034418,293.000000,287.000000,6.000000,8.000000,0.000000,0.000000,0.320141,0.616367,0.045891,0.061187,0.034418,293.000000,287.000000,6.000000,8.000000,0.000000,0.000000:
00000000
00000000
00000000
00000000
,
00000000
00000000
00000000
00000000
,
00000000
00000000
00000000
00000000
,
00000000
00000000
00000000
00000000
,
00000000
00000000
00000000
00000000
,
00000000
00000000
00000000
00000000
,
00000000
00000000
00000000
00000000
,
00000000
00000000
00000000
00000000
,
00000000
00000000
00000000
00000000
,
00000000
00000000
00000000
00000000
,
00000000
00000000
00000000
00000000
,
00000000
00000000
00000000
00000000
,
00010000
00010000
01000000
01000000
,
00000000
10000000
00000000
10000000
,
00000000
00000000
00100000
00010000
00100000
00010000
00001000
00010000
,
00000000
00001000
00000000
00000010
00000000
00001000
00000000
00000010
,
00000100
00001000
00000100
00001000
,
00000000
00000010
00000000
00000001
00000000
00000010
00000000
00001000
,
00000001
00000000
00000000
00000000
,
00000000
00000000
00000000
00000000
,
00000001
00000010
00000001
00000010
00001000
00000010
00001000
00000010
,
00000001
00000010
00000100
00000010
00001000
00010000
01000000
10000000
,
00010000
01000000
00010000
01000000
10000000
01000000
10000000
01000000
,
00010000
10000000
00100000
01000000
00100000
00010000
00001000
00000000
,
00011000
00000000
00000000
00000000
,
00000000
00000000
00000000
00000000
,
00000000
00000000
00000000
00000000
,
00000000
00000000
00000000
00000000
,
00000000
00000000
00000000
00000000
,
00000000
00000000
00000000
00000000
,
00000000
00000000
00000000
00000000
,
00000000
00000000
00000000
00000000
,
00000000
00000000
00000000
00000000
,
00000000
00000000
00000000
00000000
,
00000000
00000000
00000001
00000010
00000000
00000010
00000000
00001000
,
00010000
00000000
00001000
00010000
00000000
01000000
10000000
01000000
,
00000000
00000000
10000000
00100000
00000000
00100000
00000000
00010000
,
00001000
00010000
00000000
00001000
00000000
00000200
00000000
00000301
,
00000000
00000000
00001000
00000100
00000001
00000100
00001000
00000000
,
00001000
00000100
00000001
00000100
00001000
00000000
00000010
00000100
,
00000000
00000000
00001000
00010000
00100000
00010000
00001000
00000000
,
01000000
00100000
00010000
00100000
01000000
00010000
20000000
00000000
,
30000000
00000000
10000000
01000000
00000000
01000000
00000000
00010000
,
00001000
00000000
00010000
00001000
00000000
00000010
00000001
00000010
,
00000000
00000000
00000001
00000100
00000000
00000100
00000000
00001000
,
00010000
00001000
00000000
00010000
00000000
00200000
00000000
10300000
,
00010000
00000000
00010000
00100000
10000000
00100000
00010000
10000000
,
00010000
00100000
10000000
00100000
00010000
01000000
00100000
00010000
,
00001000
00000000
00010000
00001000
00000010
00001000
00010000
00000100
,
00001000
00000010
00000100
00000010
00000001
00000010
00001000
00000000
,
00001001
00000000
00000000
00000000
,
00000000
00000000
00000000
00000000
,
00000000
00000000
00000000
00000000
,
00000000
00000000
00000000
00000000
,
00000000
00000000
00000000
00000000
,
00000000
00000000
00000000
00000000
,
00000000
00000000
00000000
00000000
,
00000000
00000000
00000000
00000000
,
00000000
00000000
00000000
00000000
,
10000000
00000000
00000000
10000000
01000000
00000000
00010000
00000000
00001000
00000000
00000010
00000000
00000002
00000000
00000000
00000000
,
00000013
00000000
00000000
00000000
00000110
00000000
00001000
00000000
00000010
00000000
00001000
00000000
00000001
00000000
00000010
00000100
,
00000010
00001000
00010000
00001000
00010000
01000000
10000000
00010000
,
10000000
00000000
00100000
00000000
10000000
00000000
00100000
00000000
10000000
00000000
01000000
00000000
00010000
00000000
00001000
00010000
,
00001000
00010000
00000100
00010000
00001000
00000100
00000001
00001000
,
00001001
00000000
00000001
00000010
00001000
00000010
00000001
00001000
,
00000001
00000010
00001000
00010000
00001000
00010000
01000000
10000000
,
00010000
00000000
10000000
00100000
00010000
00100000
10000000
00010000
,
00100000
01000000
00100000
00001000
00010000
01000000
20000000
00000000
,
30010000
00000000
00000000
00000000
01100000
00000000
00010000
00000000
10000000
00000000
00100000
00000000
10000000
00000000
01000000
00100000
,
01000000
00010000
00001000
00000100
00000010
00000100
00000001
00001000
,
00000100
00000000
00000010
00000000
00000100
00000000
00000010
00000000
00000001
00000000
00000100
00000000
00001000
00000000
00010000
00001000
,
00010000
00100000
00010000
00100000
10000000
01000000
00010000
00001000
,
00000010
00000001
00000010
00000001
00001000
00000100
00001000
00000100
,
00000010
00000001
00000100
00001000
00010000
00001000
00010000
00100000
,
10000000
00000000
00010000
10000000
01000000
00000000
00100000
00010000
01000000
00000000
00100000
00010000
00001000
00000000
00010000
00001000
,
00000010
00000001
00000010
00001000
00010000
01000000
20000000
00000000
,
30000000
02200000
00000000
03300000
;

//---------------dance-double - Practice\: Shock Arrows----------------
#NOTES:
     dance-double:
     :
     Challenge:
     13:
     0.287362,0.546097,0.099429,0.030594,0.003824,263.000000,250.000000,13.000000,4.000000,448.000000,0.000000,0.287362,0.546097,0.099429,0.030594,0.003824,263.000000,250.000000,13.000000,4.000000,448.000000,0.000000:
00000000
00000000
00000000
00000000
,
MMMMMMMM
00000000
00000000
00000000
,
MMMMMMMM
00000000
00000000
00000000
,
MMMMMMMM
00000000
00000000
00000000
,
MMMMMMMM
00000000
00000000
00000000
,
MMMMMMMM
00000000
00000000
00000000
,
MMMMMMMM
00000000
00000000
00000000
,
MMMMMMMM
00000000
00000000
00000000
,
MMMMMMMM
00000000
00000000
00000000
,
MMMMMMMM
00000000
00000000
00000000
,
MMMMMMMM
00000000
00000000
00000000
,
MMMMMMMM
00000000
00000000
00000000
,
00010000
00010000
00010000
00010000
,
MMMMMMMM
00001000
MMMMMMMM
00001000
,
MMMMMMMM
00000000
01000000
00000000
00100000
01000000
00100000
00000000
,
MMMMMMMM
00001000
00000000
00010000
00000000
00001000
00000000
00010000
,
00000100
00000010
00000100
00000010
,
MMMMMMMM
00001000
00000000
00000010
00000000
00000100
00000000
00000001
,
00001000
00000000
00000000
00000000
,
MMMMMMMM
00000000
00000000
00000000
,
MMMM1000
00011000
0001MMMM
00011000
,
MMMM1000
00001100
0001MMMM
00110000
,
MMMM1000
10010000
MMMM1000
10010000
,
0001MMMM
00001001
0001MMMM
00001001
,
00011000
00000000
00000000
00000000
,
MMMMMMMM
00000000
00000000
00000000
,
MMMMMMMM
00000000
00000000
00000000
,
MMMMMMMM
00000000
00000000
00000000
,
MMMMMMMM
00000000
00000000
00000000
,
MMMM0000
0000MMMM
00000000
00000000
,
MMMMMMMM
00000000
00000000
00000000
,
MMMMMMMM
00000000
00000000
00000000
,
MMMMMMMM
00000000
00000000
00000000
,
MMMMMMMM
00000000
00000000
00000000
,
00000000
00000000
01000000
00100000
00000000
00100000
00000000
00010000
,
00001000
00000000
00000100
00000010
00000000
00001000
00000001
00001000
,
MMMMMMMM
00000000
00001000
00000010
00000000
00000010
00000000
00000100
,
00000001
00001000
00000000
00000100
00000000
00000010
00000000
00000001
,
MMMMMMMM
00000000
00000100
00001000
00000010
00010000
00001000
00000000
,
00010000
00001000
00100000
00010000
01000000
00000000
10000000
01000000
,
MMMMMMMM
00000000
01000000
00010000
00100000
00001000
00010000
00000000
,
00000100
00010000
00001000
00010000
00000010
00000100
00000001
00000000
,
MMMMMMMM
00000000
00000100
00000010
00000000
00000010
00000000
00001000
,
00010000
00000000
01000000
00100000
00000000
00010000
10000000
00010000
,
MMMMMMMM
00000000
00010000
00100000
00000000
00100000
00000000
01000000
,
10000000
00010000
00000000
01000000
00000000
00100000
00000000
10000000
,
MMMMMMMM
00000000
10000000
01000000
00010000
01000000
10000000
00010000
,
10000000
00100000
00010000
00100000
10000000
01000000
00010000
00001000
,
MMMMMMMM
00000000
00000001
00000010
00001000
00000010
00000001
00001000
,
00000001
00000100
00001000
00010000
00001000
00010000
01000000
00000000
,
10010000
00000000
00000000
00000000
,
MMMMMMMM
00000000
00000000
00000000
,
MMMMMMMM
00000000
00000000
00000000
,
MMMMMMMM
00000000
00000000
00000000
,
MMMMMMMM
00000000
00000000
00000000
,
MMMMMMMM
00000000
00000000
00000000
,
MMMMMMMM
00000000
00000000
00000000
,
00000000
00000000
00000000
00000000
,
MMMMMMMM
00000000
00000000
00000000
,
00100000
00000000
00000000
00100000
00001000
00000000
01000000
00000000
00010000
00000000
10000000
00000000
00200000
00000000
00300000
00000000
,
MMMMMMMM
00000000
10010000
10000000
01000000
00010000
01000000
10000000
,
00010000
01000000
00010000
01000000
00100000
10000000
00010000
00100000
,
MMMMMMMM
00000000
01000000
00001000
00010000
00001000
00010000
00000100
,
00010000
00001000
00100000
00010000
01000000
00100000
10000000
00010000
,
MMMMMMMM
00000000
00001000
00010000
01000000
00010000
00001000
00100000
,
00001000
00010000
01000000
00010000
00001000
00010000
00100000
01000000
,
MMMMMMMM
00000000
00010000
00001000
00000010
00001000
00010000
MMMMMMMM
,
00001000
00000100
00010000
00000010
00001000
00000001
00000200
00000300
,
MMMMMMMM
00000000
00001001
00000001
00000010
00001000
00000010
00000001
,
00001000
00000010
00001000
00000010
00000100
00000001
00001000
00000100
,
MMMMMMMM
00000000
00000010
00010000
00001000
00010000
00001000
00100000
,
00001000
00010000
00000100
00001000
00000010
00000100
00000001
00001000
,
00000100
00000100
00010000
00001000
01000000
00001000
00010000
00010000
,
01000000
10000000
00010000
10000000
01000000
10000000
00100000
10000000
,
00010000
00100000
01000000
10000000
01000000
00010000
00001000
MMMMMMMM
,
00001000
00010000
01000000
10000000
00100000
00010000
00001000
00000000
,
MMMMMMMM
00000220
00000000
00000330
,
00000000
00000000
00000000
00000000
,
00000000
00000000
00000000
00000000
,
00000000
00000000
00000000
MMMMMMMM
,
00000000
00000000
00000000
00000000
,
00000000
00000000
00000000
00000000
,
MMMMMMMM
00000000
00000000
00000000
,
00000000
00000000
00000000
00000000
,
MMMMMMMM
00000000
00000000
00000000
;
