#TITLE:kors k's How to make OTOGE CORE;
#SUBTITLE:「LONG」;
#ARTIST:kors k;
#TITLETRANSLIT:;
#SUBTITLETRANSLIT:;
#ARTISTTRANSLIT:;
#GENRE:BEMANI;
#CREDIT:;
#BANNER:kors k's How to make OTOGE CORE [LONG].png;
#BACKGROUND:kors k's How to make OTOGE CORE [LONG]-bg.png;
#LYRICSPATH:;
#CDTITLE:../cdtitle.png;
#MUSIC:kors k's How to make OTOGE CORE [LONG].ogg;
#OFFSET:-0.001000;
#SAMPLESTART:1.262000;
#SAMPLELENGTH:15.000000;
#SELECTABLE:YES;
#BPMS:0.000000=190.000000
;
#STOPS:
;
#BGCHANGES:-0.875=kors k's How to make OTOGE CORE [LONG].avi=1.000=0=0=0=StretchNoLoop====,
99999=-nosongbg-=1.000=0=0=0 // don't automatically add -songbackground-
;
#KEYSOUNDS:;
#ATTACKS:;

//---------------dance-single - ----------------
#NOTES:
     dance-single:
     :
     Beginner:
     5:
     0.183440,0.269119,0.069202,0.084580,0.000000,167.000000,158.000000,9.000000,11.000000,0.000000,0.000000,0.183440,0.269119,0.069202,0.084580,0.000000,167.000000,158.000000,9.000000,11.000000,0.000000,0.000000:
0000
0000
0000
0000
,
0000
0000
0000
0000
,
1000
0000
0001
0000
,
1000
1000
1000
0000
,
0001
0000
0100
0000
,
0010
0000
0010
0000
,
0100
0100
0100
0000
,
0001
0000
1000
0000
,
0010
0010
0010
0000
,
0100
0000
0001
0000
,
0000
0000
1000
0000
,
0001
0001
0001
0000
,
1000
0000
0100
0000
,
0010
0000
0010
0000
,
0100
0100
0100
0000
,
1000
1000
1000
0000
,
0001
0000
1000
0000
,
0010
0010
0010
0000
,
0000
2002
0000
0000
,
0000
0000
0000
0000
,
3003
0000
0000
0000
,
0000
0000
0000
0000
,
0110
0000
0000
0000
,
0000
0000
0000
0000
,
0100
0100
0100
0010
,
0000
0000
0000
0000
,
0010
0000
0100
0000
,
0010
0000
0000
0000
,
1000
0000
0001
0000
,
1000
0000
0000
0000
,
0001
0000
0010
0000
,
0001
0000
0000
0000
,
1000
0000
0100
0000
,
1000
1000
1000
0000
,
0001
0001
0001
0000
,
0001
0001
0001
0000
,
0010
0000
0100
0000
,
0001
0000
0100
0000
,
1000
0000
0010
0000
,
0100
0000
0000
0000
,
0010
0000
0010
0000
,
0001
0000
0001
0000
,
0000
0000
0010
0000
,
0000
0000
0000
0000
,
0010
0000
0100
0000
,
1000
0000
0100
0000
,
0001
0000
0010
0000
,
0100
0000
0100
0000
,
0000
0010
0010
0000
,
0001
0000
0001
0000
,
0000
1000
1000
0000
,
1001
0000
0000
0000
,
0001
0000
1000
0000
,
0010
0000
0100
0000
,
0010
0000
1000
0000
,
0001
0000
0000
0000
,
2000
0000
3000
0000
,
0200
0000
0300
0000
,
0020
0000
0000
0000
,
0030
0000
0000
0000
,
0000
0000
0100
0000
,
1000
0000
0001
0000
,
1000
0000
1000
0000
,
0010
0000
1000
0000
,
0001
0000
0001
0000
,
0010
0000
0001
0000
,
1000
0000
0001
0000
,
1001
0000
0000
0000
,
0110
0000
0000
0000
,
0000
0000
0000
0000
,
0001
0000
0001
0000
,
0100
0000
0001
0000
,
1000
0000
1000
0000
,
0100
0000
1000
0000
,
0001
1000
0001
0000
,
1001
0000
0000
0000
,
0020
0000
0000
0000
,
0030
0000
0000
0000
,
2000
0000
0000
0000
,
3000
0000
0000
0000
,
0001
0000
0001
0000
,
1000
0000
1000
0000
,
0010
0100
0010
0000
,
0110
0000
0000
0000
,
0001
0000
0010
0000
,
0001
0000
0001
0000
,
0100
0000
0010
0000
,
1000
0000
0001
0000
,
1000
1000
1000
0000
,
0100
0100
0100
0000
,
0001
0000
0100
0000
,
0010
0000
0100
0000
,
0000
2002
0000
0000
,
0000
0000
0000
0000
,
0000
0000
0000
0000
,
3003
0000
0000
0000
,
0000
0000
0000
0000
,
2002
0000
0000
0000
,
0000
0000
0000
0000
,
0000
0000
0000
0000
,
3003
0000
0000
0000
;

//---------------dance-single - ----------------
#NOTES:
     dance-single:
     :
     Easy:
     10:
     0.441575,0.692020,0.968828,0.261430,0.000000,402.000000,276.000000,126.000000,34.000000,0.000000,0.000000,0.441575,0.692020,0.968828,0.261430,0.000000,402.000000,276.000000,126.000000,34.000000,0.000000,0.000000:
0000
0000
0000
0000
,
0000
0000
0000
0000
,
0000
1010
1001
1001
,
0110
0011
1100
0101
,
0000
0110
1100
1100
,
1010
1001
0011
0110
,
1001
0001
1010
1100
,
0110
0101
0101
0011
,
0000
1000
0101
0011
,
0110
1010
1001
1100
,
0000
0011
1001
1001
,
0110
1010
0101
1100
,
0000
0110
0101
0101
,
0011
1001
1010
0110
,
1001
0101
0011
0011
,
0110
1010
1010
1100
,
0010
0101
1100
1100
,
0110
0101
1001
0011
,
0000
0220
0000
0000
,
0000
0000
0000
0330
,
0110
1001
0000
0000
,
0100
0010
0100
0000
0010
0000
0110
0000
,
2002
0000
0000
0000
,
0000
0000
0000
3003
,
0110
0110
1001
0011
,
0000
0000
0000
0000
,
1000
0100
0001
0100
,
1100
0101
0110
0000
,
0001
1000
0100
1000
,
0011
0011
1001
0000
,
0001
0010
1000
0010
,
0011
1010
0110
0000
,
1000
0001
0010
0001
,
1100
1100
1001
0000
,
0110
0110
1001
0000
,
0110
1001
0110
0000
,
1001
0010
0000
0010
,
1000
0100
0001
0100
,
1000
0010
0000
0010
,
0001
0010
1000
0001
,
0100
0010
0020
0030
,
1000
0100
1100
2200
,
3300
0010
0100
0000
,
2000
0000
0000
3000
,
1001
0100
0000
0100
,
1000
0010
0001
0010
,
1000
0100
0000
0100
,
0001
0100
1000
0001
,
0100
0110
0010
0110
,
1000
1100
0110
0110
,
0000
1000
0001
0001
,
0110
0010
0220
0330
,
0001
0000
0010
0000
,
1000
0000
0100
0100
,
0001
0000
0100
0000
,
1000
0000
0020
0030
,
0220
0000
0000
0330
,
2002
0000
0000
3003
,
2200
0000
0000
3300
,
0010
0010
0100
0010
,
0000
0011
1000
0010
,
1000
1100
0001
0100
,
0001
1001
0010
0100
,
0010
0110
0001
1000
,
0100
0110
0001
1000
,
0010
0110
0001
1000
,
0100
0100
0001
0100
,
2002
0000
0000
3003
,
1001
0000
0000
0100
0000
0100
0000
0010
,
0000
0100
0220
0330
,
0000
0001
1000
1100
,
1000
0001
0100
0110
,
0010
0010
1000
1000
,
0001
0001
0010
0010
,
0100
1000
0001
0100
,
2002
0000
0000
3003
,
0200
0000
0000
0000
,
0020
0000
0330
0000
,
2000
0000
0000
0000
,
0002
0000
3003
0000
,
1000
1100
0100
0101
,
0001
0011
0200
0300
,
0001
1001
1000
1001
,
0220
0000
0000
0330
,
0001
1000
0000
1000
,
0010
0100
0010
1000
,
0100
0010
0000
0010
,
0001
1000
0001
0010
,
0100
0100
0110
0110
,
1000
1000
1001
0101
,
0010
0010
0100
1001
,
0101
0101
1010
0011
,
0000
0220
0000
0000
,
0000
0000
0000
0000
,
0000
0000
0000
0000
,
0330
0000
0000
0000
,
0000
0000
0000
0000
,
2002
0000
0000
0000
,
0000
0000
0000
0000
,
0000
0000
0000
0000
,
3003
0000
0000
0000
;

//---------------dance-single - ----------------
#NOTES:
     dance-single:
     :
     Medium:
     12:
     0.478922,0.576684,0.346010,0.269119,0.000000,436.000000,391.000000,45.000000,35.000000,0.000000,0.000000,0.478922,0.576684,0.346010,0.269119,0.000000,436.000000,391.000000,45.000000,35.000000,0.000000,0.000000:
0000
0000
0000
0000
,
0000
0000
0000
0000
,
0110
0000
0001
1000
0000
0010
0000
0001
,
1000
0000
0001
0100
0000
0001
0100
1000
,
0100
0000
1000
0100
0000
0001
0000
0001
,
1000
0001
0000
0010
0000
1000
0000
0100
,
0010
0000
0001
0010
0001
0010
1000
0000
,
0010
1000
0010
1000
0100
0000
1000
0100
,
0001
0000
0001
0100
0001
0100
1000
0000
,
0100
1000
0100
1000
0010
0000
0001
0000
,
0110
0000
0001
1000
0000
0100
0000
0001
,
1000
0000
0001
0010
0000
0001
0010
1000
,
0010
0000
1000
0010
0000
0001
0000
0001
,
1000
0001
0000
0100
0000
1000
0000
0010
,
0100
0000
0001
0100
0001
0100
1000
0000
,
0100
1000
0100
1000
0010
0000
1000
0010
,
0001
0000
0001
0010
0001
0010
1000
0000
,
0010
1000
0010
1000
0100
0000
0001
0000
,
0000
2002
0000
0000
,
0000
0000
0000
3003
,
0110
1001
0000
0000
,
0100
0100
0100
0000
0010
0000
0110
0000
,
2002
0000
0000
0000
,
0000
0000
3003
0100
,
1001
0000
1001
0000
0110
0000
0001
1000
,
0000
0010
0100
0001
1000
0000
1001
0000
,
0001
0010
0001
0000
0010
1000
0010
0000
,
1100
0101
1001
0000
,
1000
0100
1000
0000
0100
0001
0100
0000
,
0001
0010
0001
0010
0001
0000
0110
0000
,
1000
0010
1000
0000
0010
0001
0010
0000
,
0101
1100
1001
0000
,
0001
0100
0001
0000
0100
1000
0100
0000
,
1000
0010
1000
0010
1000
0000
0110
0000
,
1001
0000
1001
0000
0100
0100
0000
0010
,
0100
0010
0220
0330
,
1001
0000
0001
0100
0000
0001
0000
0001
,
0010
0000
0010
1000
0000
1000
0100
1000
,
0000
0000
1000
0100
0000
0100
0000
0100
,
0001
1000
0000
0100
0000
0010
0100
0000
,
1000
0000
0001
0010
1000
0000
0001
0000
,
1000
0100
0001
0000
1000
0000
0020
0000
,
0030
0000
0100
0001
1000
0000
0100
0000
,
0020
0000
0000
0030
,
1001
0000
1000
0010
0000
1000
0000
1000
,
0100
0000
0100
0001
0000
0001
0010
0001
,
0000
0000
0001
0010
0000
0010
0000
0010
,
1000
0001
0000
0010
0000
0100
0010
0000
,
0001
0101
1000
1000
,
0010
0000
0010
0000
0001
1000
0001
0000
,
0100
0100
1000
1000
,
1001
1001
0220
0330
,
1000
0000
0000
0001
0010
0000
0000
0010
,
1000
0000
0000
1000
0100
0000
0001
0000
,
1000
0000
0000
0001
0100
0000
0000
0100
,
1000
0000
0020
0031
,
0022
0000
0000
0033
,
2200
0000
0000
3300
,
0220
0000
0000
0330
,
0101
0101
1100
0002
,
0003
0000
1000
0000
0100
0010
0100
0000
,
0001
0000
0001
0000
0010
0100
0010
0000
,
1000
0000
0001
0000
0010
0100
1000
0000
,
0001
0000
1000
0000
0100
0010
0001
0000
,
1000
0000
1000
0000
0010
0100
0010
0000
,
0001
0000
0001
0000
0100
0010
0100
0000
,
1000
0000
0001
0000
0100
0010
1000
0000
,
2002
0000
0000
3003
,
0001
0010
0000
1010
0000
1000
0000
1100
,
0000
0100
0001
0000
0010
0000
0200
0000
,
0300
0000
1000
0000
0001
0010
0100
0000
,
1000
0000
0001
0000
1000
0100
0010
0000
,
0001
0001
0010
0010
,
1000
1000
0100
0100
,
0001
0010
0001
0000
1000
0100
1000
0000
,
2002
0000
0000
3003
,
0020
0000
0001
0000
,
2030
0000
3010
0000
,
0200
0000
1000
0000
,
0302
0000
0020
0033
,
1000
1010
1000
1100
,
0100
0001
0100
0000
0002
0000
0003
0000
,
0010
0000
0110
0000
1000
0001
1000
0000
,
2002
0000
0000
3003
,
0001
0000
0001
0000
1000
0100
1000
0000
,
0100
0000
0001
0000
0010
0001
0010
0000
,
1000
1000
0001
0001
,
0100
0000
0010
0000
1000
0001
1000
0000
,
1001
0000
1000
0100
1000
0100
0001
0000
,
0100
0001
0100
0001
0010
0000
0001
0010
,
1000
0000
1000
0010
1000
0010
0001
0000
,
0010
0001
0010
0001
0100
0000
1000
0000
,
0000
2002
0000
0000
,
0000
0000
0000
0000
,
0000
0000
0000
0000
,
3003
0000
0000
0000
,
0000
0000
0000
0000
,
0220
0000
0000
0000
,
0000
0000
0000
0000
,
0000
0000
0000
0000
,
0330
0000
0000
0000
;

//---------------dance-single - ----------------
#NOTES:
     dance-single:
     :
     Hard:
     17:
     0.847999,0.961139,0.438279,0.269119,0.545927,772.000000,715.000000,57.000000,35.000000,0.000000,0.000000,0.847999,0.961139,0.438279,0.269119,0.545927,772.000000,715.000000,57.000000,35.000000,0.000000,0.000000:
// measure 0
0000
0000
0000
0000
,  // measure 1
0000
0000
0000
0000
,  // measure 2
0010
0000
0000
0000
1001
0000
0001
0000
0010
0000
1000
0000
0010
0000
0001
0010
,  // measure 3
0001
0010
1000
0001
0100
1000
0010
1000
,  // measure 4
0100
0000
1000
0000
0100
0000
0010
0000
0001
0000
0100
0000
0010
0000
0100
1000
,  // measure 5
0100
0010
0100
0001
1000
0010
0001
0010
,  // measure 6
0110
0000
0001
0010
1000
0010
0001
1000
,  // measure 7
0001
0010
1000
0010
0001
0100
0010
1000
,  // measure 8
0001
1000
0100
0001
0100
1000
0001
1000
,  // measure 9
0010
0000
0001
0000
1000
0000
0001
0000
0010
0000
1000
0000
0001
0100
0001
0100
,  // measure 10
0010
0000
0000
0000
1001
0000
1000
0000
0010
0000
0001
0000
0010
0000
1000
0010
,  // measure 11
1000
0010
0001
1000
0100
0001
0010
0001
,  // measure 12
0100
0000
0001
0000
0100
0000
0010
0000
1000
0000
0100
0000
0010
0000
0100
0001
,  // measure 13
0100
0010
0100
1000
0001
0010
1000
0010
,  // measure 14
0001
0100
0001
0100
1000
0100
1000
0100
,  // measure 15
0001
0100
1000
0100
0001
1000
0010
0001
,  // measure 16
0010
0000
0001
0010
1000
0000
0010
1000
0001
0000
1000
0100
0001
0000
0100
1000
,  // measure 17
0001
0000
0010
0000
1000
0000
0001
0000
1000
0000
0010
0000
0001
1000
0001
1000
,  // measure 18
0000
0210
0010
0010
,  // measure 19
0010
0010
0010
0310
,  // measure 20
0011
2100
0001
0001
,  // measure 21
3001
0010
0001
0010
0001
0000
0000
0000
1000
0000
0000
0000
0110
0000
0000
0000
,  // measure 22
1002
1000
1000
1000
,  // measure 23
1003
0100
1000
0001
1000
0100
1000
0010
,  // measure 24
0110
0000
0110
0000
1100
0000
0101
0011
,  // measure 25
0000
0000
1000
0100
1000
0100
1000
0100
1000
0000
0001
0000
0100
0000
0000
0000
,  // measure 26
0110
0000
0100
0000
0010
0000
0001
0000
0010
0000
0100
0010
0000
0010
1000
0000
,  // measure 27
1100
0100
0101
0100
2100
0000
3001
0000
,  // measure 28
1001
0000
1000
0000
0100
0000
1000
0000
0010
0000
0100
0001
0000
0001
0100
0000
,  // measure 29
1000
1000
0100
0001
0012
0000
0103
0000
,  // measure 30
0110
0000
0010
0000
0100
0000
1000
0000
0100
0000
0010
0100
0000
0100
0001
0000
,  // measure 31
0011
0010
1010
0010
0012
0000
1003
0000
,  // measure 32
1001
0000
0001
0000
0010
0000
0001
0000
0100
0000
0010
1000
0000
1000
0010
0000
,  // measure 33
0001
0001
0010
1000
2100
0000
3010
0000
,  // measure 34
0110
0000
0001
1000
0100
0100
0000
0001
,  // measure 35
0100
0100
1000
0010
0001
0000
0110
0000
,  // measure 36
1001
0000
0000
0000
0001
0000
0010
0000
1000
0000
0010
0000
0001
0000
0100
0010
,  // measure 37
0100
1000
0100
0010
0100
0001
1000
0010
,  // measure 38
0001
0000
0000
0000
0010
0000
1000
0000
0001
0000
0010
0000
1000
0000
0010
0100
,  // measure 39
0010
0001
1000
0001
0100
0010
1000
0010
,  // measure 40
0110
0000
0001
0010
1000
0010
0001
0000
,  // measure 41
1000
0100
0001
0100
1000
0000
2200
0000
,  // measure 42
3300
0000
1000
0010
0001
0010
1000
0000
,  // measure 43
0001
0001
0100
0001
0010
0100
2000
3000
,  // measure 44
1001
0000
0000
0000
0001
0000
0100
0000
1000
0000
0100
0000
0001
0000
0010
0100
,  // measure 45
0010
1000
0010
0100
0010
0001
1000
0100
,  // measure 46
0001
0000
0000
0000
0100
0000
1000
0000
0001
0000
0100
0000
1000
0000
0100
0010
,  // measure 47
0100
0001
1000
0001
0010
0100
1000
0100
,  // measure 48
0010
0110
1100
1100
,  // measure 49
1001
0000
1001
0000
0010
0001
0010
0000
,  // measure 50
0110
1000
0010
0010
,  // measure 51
1000
0000
1000
0000
0100
0000
0100
0000
0001
0000
0100
0000
2000
0000
3000
1000
,  // measure 52
0001
0000
0000
0000
0100
0000
0000
0001
0010
0000
0000
0000
0100
0000
0000
1000
,  // measure 53
0001
0000
0000
0000
0010
0000
0000
0001
0100
0000
0010
0100
0010
0000
0000
1000
,  // measure 54
0100
0000
0000
0000
1000
0000
0000
0001
0100
0000
0000
0000
0010
0000
0000
1000
,  // measure 55
0100
0000
0000
0000
0010
0000
0000
0000
0100
1000
0100
0010
0001
1000
0001
0100
,  // measure 56
0020
0000
0000
0030
,  // measure 57
2002
0000
0000
3003
,  // measure 58
1000
0100
1000
0100
1000
0100
1000
0100
0010
0001
1000
0100
0010
0001
1000
0100
,  // measure 59
0020
0000
0032
0000
0103
0010
1000
0001
,  // measure 60
0100
0000
0000
0000
0110
0000
0010
0001
0000
0001
0010
0000
1000
0010
1000
0000
,  // measure 61
0100
0010
0000
0100
0010
0000
0100
0001
0000
0001
0100
0000
1000
0100
1000
0000
,  // measure 62
0010
0100
0000
0100
0010
0000
1000
0100
0000
0100
1000
0000
0001
0100
0010
0000
,  // measure 63
1000
0010
0000
0010
0100
0000
0001
0010
0000
0001
0010
0000
0100
0010
0001
0000
,  // measure 64
1000
0100
0000
0100
0001
0000
0100
1000
0000
1000
0100
0000
1000
0010
0100
0000
,  // measure 65
0001
0010
0000
0010
1000
0000
0010
0001
0000
0001
0010
0000
0001
0100
0010
0000
,  // measure 66
1000
0100
0000
0100
0001
0000
0001
0010
0000
0010
1000
0000
0001
0000
0010
0000
,  // measure 67
0100
0010
0100
0010
0001
0000
1000
0000
0001
0100
0001
0100
0010
1000
0010
0100
,  // measure 68
0001
1100
0000
0011
0000
1100
0000
0101
,  // measure 69
0000
0000
0110
0000
0110
0000
0000
0000
0001
1000
0100
0010
0100
0000
0110
0000
,  // measure 70
0001
0010
0000
0010
1000
0000
1000
0010
0000
0010
0001
0000
1000
0100
1000
0000
,  // measure 71
0001
0100
0000
0100
1000
0000
1000
0100
0000
0100
0001
0000
1000
0010
1000
0000
,  // measure 72
0001
0010
0000
0100
0010
0000
1000
0010
0000
0100
0010
0000
0001
0100
0001
0000
,  // measure 73
1000
0010
0000
0100
0010
0000
0001
0010
0000
0100
0010
0000
1000
0100
1000
0000
,  // measure 74
0002
0023
0230
2300
3020
0230
0302
2003
,  // measure 75
3100
0010
0100
0010
0100
0000
1000
0001
0000
0100
0010
0000
1000
0000
0001
0000
,  // measure 76
2000
0000
0200
3300
,  // measure 77
1000
0001
0100
0010
1000
0001
0100
0010
0200
0000
0000
0000
0310
0000
0000
0000
,  // measure 78
2000
0000
0000
0000
3100
0000
0100
0000
0001
0000
0100
0000
1000
0100
1000
0000
,  // measure 79
0010
0000
0000
0010
0000
0000
0110
0000
0001
1000
0001
0100
0010
1000
0010
1000
,  // measure 80
0001
0000
0010
0100
0001
0000
0100
0000
0010
0000
0001
0100
0010
0000
0001
0000
,  // measure 81
1000
0100
1000
0000
0001
0000
0010
0000
1000
0000
0100
0000
0001
0000
0001
0000
,  // measure 82
1000
0000
0010
0000
0100
0000
0010
0000
0001
0000
1000
0000
0010
0100
0010
0000
,  // measure 83
0220
0000
0000
0330
,  // measure 84
1001
0000
0000
0000
0001
0000
0100
0000
0010
1000
0010
0000
1000
0000
0100
0000
,  // measure 85
0010
0000
0100
1000
0100
0000
1000
0000
0001
0100
1000
0100
0001
0000
1000
0000
,  // measure 86
0010
0000
0000
0000
0100
0000
0001
0000
0010
0000
0100
0000
0010
0000
0001
1000
,  // measure 87
0001
0000
1000
0000
0100
0000
1000
0001
1000
0000
1000
0010
0100
0000
0001
0000
,  // measure 88
0101
0000
0100
0010
1010
0010
0011
0000
,  // measure 89
0010
0000
0100
0000
1100
0000
0100
0000
0101
0000
0001
1000
0010
0000
0100
0000
,  // measure 90
0110
0000
0000
0000
0100
0000
1000
0000
0100
0000
0010
1000
0001
0000
1000
0000
,  // measure 91
0100
0010
0100
0010
0001
1000
0001
1000
0100
0010
0001
0100
0020
0000
0000
0000
,  // measure 92
0030
0220
0000
0000
,  // measure 93
0000
0000
0000
0000
0000
0030
0000
0000
,  // measure 94
0000
0000
0000
0000
,  // measure 95
0300
0000
0000
0000
,  // measure 96
0000
0000
0000
0000
,  // measure 97
2002
0000
0000
0000
,  // measure 98
0000
0000
0000
0000
,  // measure 99
0000
0000
3000
0000
,  // measure 100
0003
0000
0000
0000
;

//---------------dance-single - ----------------
#NOTES:
     dance-single:
     :
     Challenge:
     13:
     0.575585,0.653575,0.361388,0.230673,0.000000,524.000000,477.000000,47.000000,30.000000,212.000000,0.000000,0.575585,0.653575,0.361388,0.230673,0.000000,524.000000,477.000000,47.000000,30.000000,212.000000,0.000000:
0000
0000
0000
0000
,
0000
0000
0000
0000
,
MMMM
0000
1001
0001
0010
0100
1000
0100
,
0010
0100
0010
0100
0001
0100
1000
0001
,
MMMM
0000
0001
0100
0010
1000
0010
0100
,
0010
1000
0010
1000
0001
0010
0100
1000
,
MMMM
0000
1000
0010
0001
0010
1000
0001
,
1000
0010
0001
0010
1000
0001
1000
0100
,
MMMM
0000
0001
0010
1000
0010
0001
MMMM
,
0100
1000
0001
1000
0010
0100
0010
0010
,
MMMM
0000
1001
1000
0010
0100
0001
0100
,
0010
0100
0010
0100
1000
0100
0001
1000
,
MMMM
0000
1000
0100
0010
0001
0010
0100
,
0010
0001
0010
0001
1000
0010
0100
0001
,
1000
1000
0100
1000
0001
0100
0001
0001
,
1000
0010
1000
0010
0100
0010
1000
0001
,
0010
0100
0010
1000
0010
0001
1000
MMMM
,
0010
1000
0001
1000
0010
0001
1000
0000
,
MMMM
0220
0000
0000
,
0000
0000
0330
MMMM
,
1010
0022
0000
0033
,
0100
1000
0001
0000
MMMM
0000
0110
0000
,
2002
0000
0000
0000
,
0000
0000
3003
MMMM
,
0101
0000
0101
0000
1100
0000
1000
0001
,
0000
0100
0010
0100
0010
0000
MMMM
0000
,
1001
0000
0010
0000
0100
0010
0100
0000
,
1100
0101
1001
MMMM
,
0110
0000
1000
0000
0001
0100
0001
0000
,
0010
0100
0010
0100
0010
0000
MMMM
0000
,
1001
0000
0100
0000
0010
0100
0010
0000
,
1010
0011
1001
MMMM
,
0110
0000
1000
0000
0001
0010
0001
0000
,
0100
0010
0100
0010
0100
0000
MMMM
0000
,
1000
0000
1000
0100
0010
0010
MMMM
0110
,
MMMM
1000
0100
0010
0001
0000
MMMM
0000
,
1001
0000
1000
0010
0100
0001
0100
0001
,
1000
0010
0100
0010
1000
0001
0010
0100
,
MMMM
0000
0001
1000
0010
1000
0010
1000
,
0100
0010
0100
1000
0100
0010
0001
1000
,
MMMM
0000
1000
0010
0001
0010
1000
0000
,
0001
0100
1000
0100
0001
0000
0202
0000
,
0303
0000
0001
0010
1000
0010
0001
0000
,
2000
0000
0000
3000
,
MMMM
0000
1000
0100
0010
0001
0010
0001
,
1000
0100
0010
0100
1000
0001
0100
0010
,
MMMM
0000
0001
1000
0100
1000
0100
1000
,
0010
0100
0010
1000
0010
0100
0001
1000
,
MMMM
0010
0011
0011
,
1001
0000
1001
0000
0010
1000
0010
0000
,
MMMM
0100
1100
1100
,
0010
0100
0010
0100
0010
0001
1000
0000
,
1100
0000
MMMM
0001
0100
0000
MMMM
1000
,
0010
0000
MMMM
0001
0010
0100
1000
0000
,
1001
0000
MMMM
1000
0010
0000
MMMM
0001
,
0100
0000
MMMM
0000
1000
0100
0010
0000
,
0220
0000
0000
0330
,
2002
0000
0000
3003
,
0100
0001
0100
0001
1000
0100
1000
0100
,
0010
0000
0110
0000
0001
1000
0010
0100
,
MMMM
0000
1001
0000
0001
0010
0100
1000
,
0001
0100
0001
1000
0010
0100
0001
0010
,
1000
0001
1000
0010
1000
0001
0100
1000
,
0001
0010
0100
0010
0001
0100
0010
MMMM
,
1000
0100
1000
0100
0010
0100
1000
0100
,
0001
0100
0010
1000
0001
0010
0100
0010
,
0001
1000
0100
0000
0010
0001
0100
0000
,
0220
0000
0000
0330
,
0010
0010
MMMM
1010
MMMM
0011
MMMM
1100
,
MMMM
0001
0100
0000
0010
0010
1000
MMMM
,
0000
1000
0100
1000
0001
0100
0010
1000
,
0100
0010
0100
0010
0001
0010
0100
MMMM
,
0010
1000
0010
1000
0100
0010
0001
0000
,
0100
0001
0100
0001
0010
0100
1000
0000
,
0001
0100
0010
1000
0100
0010
0001
MMMM
,
0001
0001
2000
0000
3020
0000
0130
0000
,
0210
0000
0302
0000
,
1003
0100
1000
0100
0010
0000
0001
0000
,
2000
0100
3002
0010
,
2003
0000
0002
3003
,
MMMM
0110
MMMM
1100
,
MMMM
0101
MMMM
0110
,
MMMM
1000
0001
0000
0100
0001
0010
0000
,
0220
0000
0000
0330
,
MMMM
0000
1000
0001
0010
0100
1000
0000
,
0010
0100
0010
0010
1000
0100
0010
0001
,
MMMM
0000
0100
1000
0010
1000
0100
0000
,
0100
0001
0010
0001
0100
0100
0010
0000
,
MMMM
0000
1000
0100
0001
0100
1000
0000
,
1000
0010
0001
0010
1000
0000
1000
0001
,
MMMM
0000
0001
0010
1000
0010
0001
MMMM
,
0100
1000
0001
1000
0010
0100
0002
0003
,
MMMM
0220
0000
0000
,
0000
0000
0000
0000
0000
0030
0000
0000
,
0000
0000
0000
0000
,
0300
0000
0000
0000
,
0000
0000
0000
0000
,
2002
0000
0000
0000
,
0000
0000
0000
0000
,
3000
0000
0003
0000
,
MMMM
0000
0000
0000
;

//---------------dance-double - ----------------
#NOTES:
     dance-double:
     :
     Easy:
     11:
     0.473430,0.653575,1.068787,0.299875,0.000000,431.000000,292.000000,139.000000,39.000000,0.000000,0.000000,0.473430,0.653575,1.068787,0.299875,0.000000,431.000000,292.000000,139.000000,39.000000,0.000000,0.000000:
00000000
00000000
00000000
00000000
,
00000000
00000000
00000000
00000000
,
00000000
00101000
00010100
00010100
,
00101000
00011000
01001000
01100000
,
00000000
11000000
01010000
01010000
,
10010000
10100000
00110000
01000000
,
10010000
11000000
00110000
00110000
,
00011000
00001100
00011000
00001001
,
00000000
00001000
00001010
00011000
,
00101000
10010000
01100000
01010000
,
00000000
00010100
00101000
00101000
,
00010100
00011000
00010010
00000110
,
00000000
00000011
00001010
00001010
,
00001001
00000101
00001100
00000010
,
00001001
00000011
00001100
00001100
,
00011000
00110000
00011000
10010000
,
00000000
10100000
01010000
00011000
,
00010100
00001001
00000110
00001010
,
00000000
00022000
00000000
00000000
,
00000000
00000000
00000000
00033000
,
00011000
00101000
00000000
00000000
,
10000000
00010000
10000000
00000000
00100000
00000000
01010000
00000000
,
00022000
00000000
00000000
00000000
,
00000000
00000000
00000000
00033000
,
00011000
00000000
00010100
00000000
00010100
00000000
00000010
00000010
,
00000000
00000001
00002000
00000000
00003000
00000000
00001001
00000000
,
00000001
00000100
00001000
00000100
,
00000101
00000110
00002020
00003030
,
00000001
00000010
00001000
00000010
,
00000001
00000010
00000001
00000000
00000010
00000000
00001100
00000000
,
00010000
00001000
00000100
00001000
,
00011000
01001000
02020000
03030000
,
00001000
00010000
01000000
00010000
,
00001000
00100000
00001000
00100000
00010000
00000000
10000000
00000000
,
11000000
11000000
00110000
00000000
,
00001010
00001010
00000101
00000000
,
00001001
00000100
00000001
00000010
,
00001000
00010000
00001000
00011000
,
00000000
00010000
00001000
00001000
,
00010000
01000000
10000000
00010000
,
10010000
01000000
00100000
00000000
,
10000000
10000000
11000000
00200000
,
00300000
10000000
00010000
01000000
,
00200000
00000000
00000000
00300000
,
10010000
00100000
10000000
01000000
,
00010000
00001000
00010000
00011000
,
00000000
00001000
00010000
00010000
,
00001000
00000010
00000001
00001000
,
00001001
00000010
00001010
00001010
,
00011000
00000000
00011000
00000000
00100000
00010000
00100000
00000000
,
01100000
10000000
00010000
00010000
,
01100000
01100000
20020000
30030000
,
01100000
00000000
00010000
00000000
,
00001000
00000000
00000100
00000000
,
00000110
00000000
00001000
00000000
,
00010000
00000000
01000000
00000000
,
02200000
00000000
00000000
03300000
,
20020000
00000000
00000000
30030000
,
00022000
00000000
00000000
00033000
,
00001000
00001000
00010000
00002000
,
00003000
00001100
00000001
00000100
,
00001010
00000110
00000001
00001000
,
00001100
00011000
00001000
00010000
,
01001000
00011000
00001000
00100000
,
00110000
00110000
10100000
10100000
,
11000000
11000000
01010000
01010000
,
00100000
00010000
00001000
00000100
,
00000220
00000000
00000000
00000330
,
00001001
00000000
00000000
00000001
00000000
00001000
00000000
00001001
,
00000000
00000100
00000010
00000000
00000100
00000000
00000220
00000000
,
00000330
00000001
00000100
00000101
,
00000010
00001000
00000100
00001100
,
00010000
00010000
00000100
00000100
,
00001000
00001000
00000010
00000010
,
00000100
00001000
00010000
01000000
,
00220000
00000000
00000000
00330000
,
20020000
00000000
30030000
00000000
,
02000000
00000000
03000000
00000000
,
00020000
00000000
00032000
00000000
,
00023000
00000000
00030000
00000000
,
00000100
00001100
00000010
00001010
,
00000001
00000011
00002000
00003000
,
00010000
01010000
10000000
11000000
,
20020000
00000000
00000000
30030000
,
01010000
00100000
01000000
00100000
,
10000000
00010000
00100000
01010000
,
00000000
00001000
00010000
00010000
,
00001000
00000010
00000001
00000100
,
00000110
00001000
00011000
00011000
,
00100000
00100000
11000000
11000000
,
00010000
01000000
10100000
01100000
,
00001000
00010000
00001100
00000110
,
00000000
00002002
00000000
00000000
,
00000000
00000000
00000000
00000000
,
00000000
00000000
00000000
00000000
,
00003003
00000000
00000000
00000000
,
00000000
00000000
00000000
00000000
,
20020000
00000000
00000000
00000000
,
00000000
00000000
00000000
00000000
,
00000000
00000000
00000000
00000000
,
30030000
00000000
00000000
00000000
;

//---------------dance-double - ----------------
#NOTES:
     dance-double:
     :
     Medium:
     13:
     0.514072,0.653575,0.415212,0.399834,0.000000,468.000000,414.000000,54.000000,52.000000,0.000000,0.000000,0.514072,0.653575,0.415212,0.399834,0.000000,468.000000,414.000000,54.000000,52.000000,0.000000,0.000000:
00000000
00000000
00000000
00000000
,
00000000
00000000
00000000
00000000
,
00000010
00000000
00001001
00001000
00000010
00000100
00000010
00000001
,
00001000
00000100
00001000
00000100
00000001
00000010
00001000
00010000
,
00001000
00000000
00100000
01000000
10000000
00100000
10000000
00100000
,
10000000
01000000
00100000
00010000
00001000
00000100
00000010
00000000
,
00000110
00000000
00000001
00000100
00000001
00000100
00001000
00000000
,
00010000
00001000
00010000
00001000
00000010
00000000
00000001
00000100
,
00001000
00000000
00010000
01000000
00010000
01000000
10000000
00000000
,
00100000
01000000
00100000
00000000
00010000
00000000
00002000
00000000
,
00003010
00000000
00001001
00000001
00000100
00000010
00000100
00000010
,
00001000
00000001
00001000
00000100
00001000
00010000
00100000
00010000
,
10000000
00000000
00010000
01000000
00100000
01000000
00100000
10000000
,
00010000
00100000
01000000
00100000
10000000
00100000
00010000
00000000
,
01100000
00000000
10000000
00100000
10000000
00100000
00010000
00000000
,
00001000
00010000
00001000
00010000
01000000
00000000
10000000
01000000
,
00010000
00000000
00001000
00010000
00001000
00010000
00100000
00000000
,
10000000
01000000
00010000
00000000
00001000
00000000
00000200
00000000
,
00000300
00002002
00000000
00000000
,
00000000
00000000
00000000
00003003
,
00000011
00002200
00000000
00003300
,
00010000
00001000
00010000
00000000
00001000
00000000
00110000
00000000
,
20020000
00000000
00000000
00000000
,
00000000
00000000
30030000
01000000
,
10100000
00000000
11000000
00000000
00110000
00000000
00001000
00010000
,
00000000
00010000
00001000
00000100
00000001
00000000
00001001
00000000
,
00000001
00000010
00000001
00000000
00000010
00001000
00000010
00000000
,
00001100
00011000
00002020
00003030
,
00001001
00000000
00000001
00000000
00000100
00001000
00010000
00000000
,
01000000
00100000
01000000
00100000
02000000
00000000
03000000
00000000
,
10000000
01000000
10000000
00000000
01000000
00010000
01000000
00000000
,
00110000
00011000
02020000
03030000
,
10010000
00000000
10000000
00000000
00100000
00010000
00001000
00000000
,
00000010
00000100
00000010
00000100
00000020
00000000
00000030
00000000
,
00000001
00000000
00001001
00000000
00000010
00000010
00000000
00001000
,
00010000
00000000
00001000
00010000
00200000
00000000
00300000
00000000
,
01100000
00000000
00010000
00100000
00000000
00100000
00000000
10000000
,
01000000
00000000
01000000
00010000
00000000
00010000
00001000
00000100
,
00000001
00000000
00000001
00001000
00000000
00000100
00000000
00000100
,
00000001
00000010
00000000
00000010
00000000
00001000
00000001
00000000
,
00001001
00000000
00000001
00000100
00001000
00000000
00010000
00000000
,
00001000
00000010
00000001
00000000
00001000
00000000
00002200
00000000
,
00003300
00000000
00010000
00001000
00000100
00000000
00000001
00000000
,
00000020
00000000
00000000
00000030
,
00000110
00000000
00001000
00000010
00000000
00000010
00000000
00000001
,
00000100
00000000
00000100
00001000
00000000
00001000
00010000
01000000
,
10000000
00000000
10000000
00010000
00000000
01000000
00000000
01000000
,
10000000
00100000
00000000
00100000
00000000
00010000
10000000
00000000
,
00100000
01000000
01100000
01100000
,
10010000
00000000
01100000
00000000
00010000
00001000
00010000
00000000
,
00011000
00000100
00000010
00000010
,
00000110
00001001
00000220
00000330
,
00001001
00000000
00000000
00000001
00000010
00000000
00000000
00000010
,
00001000
00000000
00000000
00001000
00010000
00000000
00100000
00000000
,
10000000
00000000
00000000
10000000
01000000
00000000
00000000
01000000
,
00010000
00000000
00002000
00003000
,
00022000
00000000
00000000
00033000
,
00002020
00000000
00000000
00003030
,
00002200
00000000
00000000
00003300
,
00020000
00032000
00003020
00020030
,
00031000
00000000
00011000
00000000
00010000
01000000
00001000
00000000
,
00100000
00000000
00100000
00000000
01000000
00010000
00001000
00000000
,
00000010
00000000
00000100
00000000
00000010
00000001
00000100
00000000
,
00000010
00000000
00000100
00000000
00000010
00001000
00000100
00000000
,
00010000
00000000
00011000
00000000
00001000
00000010
00000100
00000000
,
00010000
00000000
00010000
00000000
00001000
01000000
00100000
00000000
,
00010000
00000000
00001000
00000000
00010000
01000000
10000000
00000000
,
20020000
00000000
00000000
30030000
,
10000000
00010000
00000000
00001000
00000000
00010000
00000000
10000000
,
00000000
01000000
00100000
00000000
00001000
00000000
00011000
00000000
,
00010000
00000000
00000100
00000000
00010000
00001000
00000100
00000000
,
00000010
00000000
00010000
00000000
00000010
00001000
00010000
00000000
,
01000000
00000000
00001000
00000000
01000000
00010000
00001000
00000000
,
00100000
00000000
00001000
00000000
00100000
00010000
00001000
00000000
,
00100000
00010000
00100000
00000000
10000000
00100000
10000000
00000000
,
01000000
10000000
02000000
00000000
03020000
00000000
10030000
00000000
,
20010000
00000000
32000000
00000000
,
03100000
00001000
00100000
00001000
00020000
00000000
00030000
00000000
,
02000000
23000000
30200000
00320000
,
00032000
00000000
00020000
00033000
,
00000100
00001100
00000010
00001010
,
00010000
00011000
00000200
00000300
,
00000010
00001010
00010000
00011000
,
00220000
00000000
00000000
00330000
,
10010000
00000000
00010000
00000000
10000000
01000000
00010000
00000000
,
00010000
00100000
10000000
00010000
,
00011000
00000000
00001000
00000000
00000001
00000010
00001000
00000000
,
00001000
00000100
00000001
00000000
00001000
00000100
00000010
00000000
,
00000110
00000000
00000001
00000010
00000001
00000010
00001000
00000000
,
00010000
00001000
00010000
00001000
00000100
00000000
00000001
00000100
,
00001000
00000000
00010000
00001000
00010000
00001000
00000010
00000000
,
00000001
00000100
00001000
00000000
00010000
00000000
02000000
00000000
,
03000000
20020000
00000000
00000000
,
00000000
00000000
00000000
00000000
,
00000000
00000000
00000000
00000000
,
30030000
00000000
00000000
00000000
,
00000000
00000000
00000000
00000000
,
00002002
00000000
00000000
00000000
,
00000000
00000000
00000000
00000000
,
00000000
00000000
00000000
00000000
,
00003003
00000000
00000000
00000000
;

//---------------dance-double - ----------------
#NOTES:
     dance-double:
     :
     Hard:
     17:
     0.809554,0.922694,0.445969,0.207606,0.395989,737.000000,679.000000,58.000000,27.000000,0.000000,0.000000,0.809554,0.922694,0.445969,0.207606,0.395989,737.000000,679.000000,58.000000,27.000000,0.000000,0.000000:
00000000
00000000
00000000
00000000
,
00000000
00000000
00000000
00000000
,
00000010
00000000
00000000
00000000
00000110
00000000
00001000
00000000
00000010
00000000
00001000
00000000
00000001
00000000
00000010
00000100
,
00000010
00001000
00010000
00001000
00010000
01000000
10000000
00010000
,
10000000
00000000
00100000
00000000
10000000
00000000
00100000
00000000
10000000
00000000
01000000
00000000
00010000
00000000
00001000
00010000
,
00001000
00010000
00000100
00010000
00001000
00000100
00000001
00001000
,
00001001
00000000
00000001
00000010
00001000
00000010
00000001
00001000
,
00000001
00000010
00001000
00010000
00001000
00010000
01000000
10000000
,
00010000
00000000
10000000
00100000
00010000
00100000
10000000
00010000
,
00100000
01000000
00100000
00001000
00010000
01000000
20000000
00000000
,
30010000
00000000
00000000
00000000
01100000
00000000
00010000
00000000
10000000
00000000
00100000
00000000
10000000
00000000
01000000
00100000
,
01000000
00010000
00001000
00000100
00000010
00000100
00000001
00001000
,
00000100
00000000
00000010
00000000
00000100
00000000
00000010
00000000
00000001
00000000
00000100
00000000
00001000
00000000
00010000
00001000
,
00010000
00100000
00010000
00100000
10000000
01000000
00010000
00001000
,
00000010
00000001
00000010
00000001
00001000
00000100
00001000
00000100
,
00000010
00000001
00000100
00001000
00010000
00001000
00010000
00100000
,
10000000
00000000
00010000
10000000
01000000
00000000
00100000
00010000
01000000
00000000
00100000
00010000
00001000
00000000
00010000
00001000
,
00000010
00000001
00000010
00001000
00010000
01000000
20000000
00000000
,
30000000
02100000
00100000
00100000
,
00100000
00100000
00100000
03100000
,
01010000
00012000
00010000
00013000
,
00000100
00001000
00000100
00001000
00000100
00000000
00000000
00000000
00010000
00000000
00000000
00000000
00001010
00000000
00000000
00000000
,
00000120
00000100
00000100
00000100
,
00000130
00000010
00000100
00001000
00000100
00000010
00000100
00000001
,
00001001
00000000
00001001
00000000
00000011
00000000
00000100
00000010
,
00000000
00000000
00001000
00010000
00001000
00010000
00001000
00010000
00001000
00000000
00010000
00000000
00001000
00000000
00000000
00000000
,
00011000
00000000
00001000
00000000
00100000
00000000
00001000
00000000
00010000
00000000
00001000
01000000
00000000
01000000
00001000
00000000
,
01001000
00001000
00011000
00001000
00101000
00000000
00010000
00000000
,
10010000
00000000
01000000
00000000
10000000
00000000
00010000
00000000
01000000
00000000
10000000
01000000
00000000
01000000
00010000
00000000
,
00100000
00100000
10000000
00010000
01010000
00000000
00001000
00000000
,
00011000
00000000
00010000
00000000
00000010
00000000
00010000
00000000
00001000
00000000
00010000
00000100
00000000
00000100
00010000
00000000
,
00010100
00010000
00011000
00010000
00010010
00000000
00001000
00000000
,
00001001
00000000
00000100
00000000
00000001
00000000
00001000
00000000
00000100
00000000
00000001
00000100
00000000
00000100
00001000
00000000
,
00000010
00000010
00000001
00001000
00001100
00000000
00010000
00000000
,
00011000
00000000
00001000
01000000
01010000
10010000
00000000
00010000
,
00100000
00001000
00000010
00001000
00010000
00000000
00001000
00000000
,
00011000
00000000
00000000
00000000
00010000
00000000
00000100
00000000
00000010
00000000
00000100
00000000
00000010
00000000
00000001
00001000
,
00000001
00000100
00001000
00010000
00001000
00010000
01000000
10000000
,
00010000
00000000
00000000
00000000
10000000
00000000
01000000
00000000
00100000
00000000
01000000
00000000
00100000
00000000
00010000
10000000
,
00010000
01000000
10000000
00010000
00100000
10000000
01000000
00010000
,
00001000
00000000
00010000
00000100
00000001
00000100
00010000
00000000
,
00001000
00100000
10000000
00100000
00001000
00000000
00022000
00000000
,
00033000
00000000
00010000
00000010
00000001
00000010
00010000
00000000
,
00002000
00000000
00000000
00003000
,
00011000
00000000
00000000
00000000
00001000
00000000
00100000
00000000
01000000
00000000
00100000
00000000
01000000
00000000
10000000
00010000
,
10000000
00100000
00010000
00001000
00010000
00001000
00000010
00000001
,
00001000
00000000
00000000
00000000
00000001
00000000
00000010
00000000
00000100
00000000
00000010
00000000
00000100
00000000
00001000
00000001
,
00001000
00000010
00000001
00001000
00000100
00000001
00000010
00001000
,
00010000
01000000
10010000
10010000
,
00011000
00000000
00011000
00000000
00001000
00000001
00001000
00000000
,
00001001
00000001
00001000
00001000
,
00010000
00001000
00010000
00001000
00010000
00010000
00001000
00000000
,
00011000
00000000
00000000
00000000
00010000
00000000
00000000
00000010
00001000
00000000
00000000
00000000
00000001
00000000
00000000
00000010
,
00000001
00000000
00000000
00000000
00000100
00000000
00000000
00001000
00010000
00000000
00010000
00001000
00010000
00000000
00000000
00100000
,
10000000
00000000
00000000
00000000
00010000
00000000
00000000
00100000
01000000
00000000
00000000
00000000
10000000
00000000
00000000
01000000
,
00010000
00000000
00000000
00000000
00001000
00000000
00000000
00000000
00000100
00000001
00000100
00000001
00000100
00000000
00000010
00000000
,
00000220
00000000
00000000
00000330
,
00002002
00000000
00000000
00003003
,
00001000
00000100
00001000
00000100
00001000
00000100
00001000
00000100
00010000
00001000
00010000
00001000
00010000
00001000
00010000
00001000
,
00200000
00000000
00320000
00000000
01030000
01000000
00100000
10000000
,
00010000
00100000
10000000
00000000
00010000
00000000
10000000
00100000
00010000
00000000
10000000
00000000
00100000
01000000
00100000
00000000
,
01000000
00001000
00010000
00000000
00000100
00000000
00010000
00001000
00010000
00000000
00001000
00000000
00000010
00000100
00000010
00000000
,
00000100
00001000
00000100
00000000
00001000
00000000
00000001
00000100
00000001
00000000
00000100
00000000
00000010
00001000
00000001
00000000
,
00000010
00001000
00000001
00000000
00001000
00000000
00000010
00000001
00000000
00000001
00001000
00000000
00000001
00000100
00000010
00000000
,
00001000
00000100
00000001
00000000
00001000
00000000
00000001
00000100
00001000
00000000
00000001
00000000
00000100
00000010
00000100
00000000
,
00000010
00010000
00001000
00000000
00100000
00000000
00001000
00010000
00001000
00000000
00010000
00000000
01000000
00100000
01000000
00000000
,
00100000
00010000
00100000
00000000
00010000
00000000
01000000
00100000
10000000
00000000
00100000
00000000
01000000
00000000
00010000
00000000
,
20020000
00000000
00000000
30030000
,
11000000
01010000
00000000
00011000
00000000
00001100
00000000
00000101
,
00000000
00000000
00000011
00000000
00000110
00000000
00000000
00000000
00001000
00000001
00001000
00000001
00001000
00000000
00001001
00000000
,
00000001
00000100
00000000
00000010
00000100
00000000
00001000
00000100
00000000
00010000
00000100
00000000
00000010
00001000
00000010
00000000
,
00010000
00001000
00000000
00010000
01000000
00000000
00001000
01000000
00000000
00010000
01000000
00000000
10000000
00010000
10000000
00000000
,
01000000
00100000
00010000
00000000
01000000
00000000
00100000
00010000
00001000
00000000
00010000
00000000
00001000
00000100
00000010
00000000
,
00001000
00000100
00000010
00000000
00000001
00000000
00000010
00000100
00001000
00000000
00000010
00000000
00000100
00001000
00000100
00000000
,
00000001
00000010
00001000
00010000
00001000
00010000
00100000
10000000
,
00010000
00100000
00010000
00100000
01000000
00000000
10000000
00000000
01000000
00000000
00010000
00000000
00001000
00000000
00010000
00000000
,
00021000
00000000
00030200
00000000
,
00010300
00001000
00010000
00001000
00010000
00000000
00000010
00000000
00002000
00000000
00000000
00000000
00003001
00000000
00000000
00000000
,
00000201
00000000
00000000
00000000
00001300
00000000
00001000
00000000
00010000
00000000
00010000
00000000
00100000
01000000
00100000
00000000
,
10000000
00000000
00000000
10000000
00000000
00000000
11000000
00000000
00010000
01000000
00010000
01000000
00010000
10000000
01000000
10000000
,
00010000
00000000
00100000
01000000
00100000
00000000
00001000
00000000
00010000
00000000
00000010
00000100
00000010
00000000
00010000
00000000
,
00001000
01000000
00100000
10000000
00010000
00100000
01000000
00100000
,
00010000
00000000
01000000
00000000
00001000
00010000
00001000
00000000
00010000
00000000
00000100
00000000
00000010
00000100
00000010
00000000
,
00000220
00000000
00000000
00000330
,
00001001
00000000
00000000
00000000
00000001
00000000
00001000
00000000
00000010
00000000
00000100
00000000
00000010
00000000
00000100
00001000
,
00000100
00000000
00001000
00000000
00010000
00000000
01000000
00000000
10000000
00010000
10000000
00000000
01000000
00000000
00100000
00000000
,
00010000
00000000
00000000
00000000
10000000
00000000
00100000
00000000
00010000
00000000
00001000
00000000
00010000
00000000
00001000
00000010
,
00001000
00000000
00000010
00000000
00000001
00000000
00001000
00000100
00001000
00000000
00000001
00000000
00000100
00000000
00000010
00000000
,
00001010
00000000
00010000
00001000
00101000
00100000
00110000
00000000
,
10000000
00000000
01000000
00000000
01010000
00000000
00010000
00000000
00011000
00000000
00001000
00010000
00001000
00000000
00000100
00000000
,
00000001
00000000
00000001
00000000
00000100
00000000
00000100
00000000
00000010
00000000
00001000
00000010
00001000
00000000
00000100
00000000
,
00000001
00000000
00000100
00000000
00001000
00000000
00010000
00000000
00100000
01000000
00100000
01000000
20000000
00000000
00000000
00000000
,
30000000
02020000
00000000
00000000
,
00000000
00000000
00000000
00000000
00000000
00030000
00000000
00000000
,
00000000
00000000
00000000
00000000
,
03000000
00000000
00000000
00000000
,
00000000
00000000
00000000
00000000
,
00022000
00000000
00000000
00000000
,
00000000
00000000
00000000
00000000
,
00000000
00000000
00030000
00000000
,
00003000
00000000
00000000
00000000
;

//---------------dance-double - ----------------
#NOTES:
     dance-double:
     :
     Challenge:
     14:
     0.593160,0.653575,0.376767,0.238363,0.023067,540.000000,491.000000,49.000000,31.000000,464.000000,0.000000,0.593160,0.653575,0.376767,0.238363,0.023067,540.000000,491.000000,49.000000,31.000000,464.000000,0.000000:
00000000
00000000
00000000
00000000
,
00000000
00000000
00000000
00000000
,
MMMMMMMM
00000000
10010000
10000000
01000000
00010000
01000000
10000000
,
00010000
01000000
00010000
01000000
00100000
10000000
00010000
00100000
,
MMMMMMMM
00000000
01000000
00001000
00010000
00001000
00010000
00000100
,
00010000
00001000
00100000
00010000
01000000
00100000
10000000
00010000
,
MMMMMMMM
00000000
00001000
00010000
01000000
00010000
00001000
00100000
,
00001000
00010000
01000000
00010000
00001000
00010000
00100000
01000000
,
MMMMMMMM
00000000
00010000
00001000
00000010
00001000
00010000
MMMMMMMM
,
00001000
00000100
00010000
00000010
00001000
00000001
00000200
00000300
,
MMMMMMMM
00000000
00001001
00000001
00000010
00001000
00000010
00000001
,
00001000
00000010
00001000
00000010
00000100
00000001
00001000
00000100
,
MMMMMMMM
00000000
00000010
00010000
00001000
00010000
00001000
00100000
,
00001000
00010000
00000100
00001000
00000010
00000100
00000001
00001000
,
00000100
00000100
00010000
00001000
01000000
00001000
00010000
00010000
,
01000000
10000000
00010000
10000000
01000000
10000000
00100000
10000000
,
00010000
00100000
01000000
10000000
01000000
00010000
00001000
MMMMMMMM
,
00001000
00010000
01000000
10000000
00100000
00010000
00001000
00000000
,
MMMMMMMM
00000220
00000000
00000000
,
00000000
00000000
00000330
MMMMMMMM
,
00001010
00022000
00000000
00033000
,
01000000
00010000
10000000
00000000
MMMMMMMM
00000000
01100000
00000000
,
20020000
00000000
00000000
00000000
,
00000000
00000000
30030000
MMMMMMMM
,
00110000
00000000
00011000
00000000
00011000
00000000
00000100
00001000
,
00000000
00001000
00000100
00000010
00000001
00000000
MMMMMMMM
00000000
,
00001001
00000000
00001000
00000000
00000010
00000100
00000010
00000000
,
00001100
00011000
01100000
MMMMMMMM
,
10010000
00000000
00010000
00000000
01000000
00100000
01000000
00000000
,
00010000
00010000
00100000
00001000
00000010
00000000
MMMMMMMM
00000000
,
00001001
00000000
00001000
00000000
00000100
00000010
00000100
00000000
,
00001010
00011000
01100000
MMMMMMMM
,
10010000
00000000
00010000
00000000
00100000
01000000
00100000
00000000
,
00010000
00010000
01000000
00001000
00000100
00000000
MMMMMMMM
00000000
,
00000110
00000000
00000001
00000100
00000010
00000010
MMMMMMMM
00001000
,
MMMMMMMM
00010000
01000000
00100000
10000000
00000000
MMMMMMMM
00000000
,
10010000
00000000
00010000
10000000
01000000
10000000
01000000
00100000
,
00010000
10000000
00100000
01000000
00100000
00010000
00001000
00000100
,
MMMMMMMM
00000000
00001000
00000001
00000010
00000100
00000010
00000100
,
00001000
00000001
00000010
00000100
00001000
00000001
00000100
00000010
,
MMMM1010
00000000
00000001
00000100
00001000
0001MMMM
00001000
00000000
,
00010000
MMMM1000
00010000
01000000
10000000
00000000
22000000
33000000
,
MMMMMMMM
00000000
10000000
00100000
00010000
MMMM1000
00010000
00000000
,
MMMM0020
00000000
MMMM0000
00000000
MMMM0000
00000030
MMMMMMMM
00000000
,
00001001
00000000
00001000
00000001
00000010
00000001
00000010
00000100
,
00001000
00000001
00000100
00000010
00000100
00001000
00010000
00100000
,
MMMMMMMM
00000000
00010000
10000000
01000000
00100000
01000000
00100000
,
00010000
10000000
01000000
00100000
00010000
10000000
00100000
01000000
,
0101MMMM
00001000
1001MMMM
1001MMMM
,
00011000
00000000
MMMM1001
00000000
0001MMMM
00001000
0001MMMM
00000000
,
00011000
MMMM0100
0100MMMM
MMMM1000
,
00010000
00001000
00010000
00001000
00020000
00000000
00031000
00000000
,
00011000
00000000
00000000
00000000
MMMMMMMM
00000000
00000000
00000100
00001000
00000000
00000000
00000000
MMMMMMMM
00000000
00000000
00000100
,
00000001
00000000
00000000
00000000
MMMMMMMM
00000000
00000000
00000010
00001000
00000000
00000000
00001000
00010000
00000000
00000000
00000000
,
00011000
00000000
00000000
00000000
MMMMMMMM
00000000
00000000
01000000
00010000
00000000
00000000
00000000
MMMMMMMM
00000000
00000000
01000000
,
10000000
00000000
MMMMMMMM
00000000
00100000
00001000
00010000
00000000
,
00022000
00000000
00000000
00033000
,
00002200
00000000
00000000
00003300
,
00010000
00000010
00000100
00001000
00010000
00001000
00000100
00000010
,
00020000
00000000
00032000
00000000
00103000
01000000
10000000
00000000
,
MMMMMMMM
00000000
10010000
00000000
00010000
01000000
00100000
10000000
,
00010000
00100000
01000000
00010000
01000000
00100000
00001000
00010000
,
00000010
00001000
00000001
00000100
00000010
00001000
00000100
00010000
,
00001000
01000000
00001000
00010000
00000010
00001000
00000001
MMMMMMMM
,
00000100
00001000
00000001
00000010
00000100
00001000
00000010
00000100
,
00000010
00001000
00000100
00000010
00001000
00010000
01000000
10000000
,
00010000
00100000
01000000
00000000
10000000
00010000
01000000
00000000
,
02200000
00000000
00000000
03300000
,
10000000
01000000
MMMMMMMM
00110000
MMMMMMMM
00001100
MMMMMMMM
00000011
,
MMMMMMMM
00001000
00000100
00000000
00001000
00000001
00000100
MMMMMMMM
,
00001000
00000010
00001000
00000010
00000100
00000001
00000010
00000100
,
00010000
00001000
00100000
00001000
00010000
00000010
00000100
MMMMMMMM
,
00010000
00001000
00010000
00001000
00100000
00010000
00100000
00010000
,
10000000
00100000
10000000
00100000
01000000
00010000
01000000
00010000
,
00100000
10000000
00100000
00010000
00001000
00000100
00000001
MMMMMMMM
,
00001000
00000001
00000100
00000000
00000010
00000000
00001000
00000000
,
00001002
00000000
00000203
00000000
,
00000310
00001000
00000010
00001000
00000200
00000000
00000310
00000000
,
00000200
00000301
00000200
00001300
,
00000020
00000000
00000000
00000000
00000130
00001000
00010000
00000000
,
MMMMMMMM
10100000
MMMMMMMM
01010000
,
MMMMMMMM
00000000
00011000
00000000
00000100
00000010
00000001
00000000
,
00000100
00001000
0001MMMM
00000000
00100000
00010000
MMMM1000
00000000
,
00022000
00000000
00000000
00000000
00000000
00000000
00033000
MMMMMMMM
,
00011000
00000000
00001000
00000010
00000100
00000010
00000001
00001000
,
00000010
00000100
00000001
00000100
00001000
00010000
00100000
01000000
,
MMMMMMMM
00000000
10000000
00010000
00100000
01000000
10000000
00010000
,
10000000
00100000
10000000
00100000
01000000
00010000
10000000
00000000
,
11000000
00000000
10000000
01000000
00010000
00001000
00010000
MMMMMMMM
,
00010000
00001000
00000100
00000001
00001000
00000100
00000010
00000100
,
MMMMMMMM
00000000
00000001
00000100
00001000
00010000
00001000
MMMMMMMM
,
00001000
00010000
01000000
10000000
00100000
00010000
00001000
00000000
,
MMMMMMMM
00000220
00000000
00000000
,
00000000
00000000
00000000
00000000
00000000
00000300
00000000
00000000
,
00000000
00000000
00000000
00000000
,
00000030
00000000
00000000
00000000
,
00000000
00000000
00000000
00000000
,
20020000
00000000
00000000
00000000
,
00000000
00000000
00000000
00000000
,
00030000
00000000
30000000
00000000
,
MMMMMMMM
00000000
00000000
00000000
;
