#VERSION:0.83;
#TITLE:invoker;
#SUBTITLE:;
#ARTIST:Caladborg;
#TITLETRANSLIT:;
#SUBTITLETRANSLIT:;
#ARTISTTRANSLIT:;
#GENRE:BEMANI;
#ORIGIN:;
#CREDIT:;
#BANNER:invoker.png;
#BACKGROUND:invoker-bg.png;
#PREVIEWVID:;
#JACKET:invoker-jacket.png;
#CDIMAGE:;
#DISCIMAGE:;
#LYRICSPATH:;
#CDTITLE:../cdtitle.png;
#MUSIC:invoker.ogg;
#OFFSET:0.730000;
#SAMPLESTART:10.346000;
#SAMPLELENGTH:15.000000;
#SELECTABLE:YES;
#BPMS:0.000=195.000;
#STOPS:170.500=0.308,
186.000=0.154,
193.500=0.154,
201.000=0.154,
216.500=0.154;
#DELAYS:;
#WARPS:;
#TIMESIGNATURES:0.000=4=4;
#TICKCOUNTS:0.000=4;
#COMBOS:0.000=1;
#SPEEDS:0.000=1.000=0.000=0;
#SCROLLS:0.000=1.000;
#FAKES:;
#LABELS:0.000=Song Start;
#BGCHANGES:-99.000=../bg.avi=1.000=0=0=1=====,
99999=-nosongbg-=1.000=0=0=0 // don't automatically add -songbackground-
;
#KEYSOUNDS:;
#ATTACKS:
;

//---------------dance-double - ----------------
#NOTEDATA:;
#CHARTNAME:;
#STEPSTYPE:dance-double;
#DESCRIPTION:;
#CHARTSTYLE:;
#DIFFICULTY:Easy;
#METER:7;
#RADARVALUES:0.265718,0.395058,0.165511,0.023644,0.000000,236.000000,215.000000,21.000000,3.000000,0.000000,0.000000,0.000000,0.000000,0.000000,0.265718,0.395058,0.165511,0.023644,0.000000,236.000000,215.000000,21.000000,3.000000,0.000000,0.000000,0.000000,0.000000,0.000000;
#CREDIT:led_light;
#NOTES:
00000000
00000000
00000000
00000000
,
00000000
00000000
00000000
00000000
,
00000000
00000000
00000000
00000000
,
00000000
00000000
00000000
00000000
,
00000000
00000000
00000000
00000000
,
00000000
00000000
00000000
00000000
,
00000000
00000000
00000000
00000000
,
00000000
00000000
00000000
00000000
,
00000000
00000000
00000000
00000000
,
10010000
00000000
00000000
00000000
,
00000000
00000000
00000000
00000000
,
01000000
00000000
00000000
00000000
,
01000000
00000000
00000000
00000000
,
01000000
00000000
00000000
00000000
,
01000000
00000000
00000000
00000000
,
01000000
00000000
00000000
00000000
,
10010000
00000000
00000000
00000000
,
01000000
01000000
00100000
00100000
,
01000000
01000000
10000000
00100000
,
00010000
00010000
00001000
00001000
,
00010000
00000100
00001000
00000010
,
00000100
00000100
00000010
00000010
,
00000100
00000100
00000001
00000010
,
00001000
00001000
00010000
00010000
,
00001000
00010000
00100000
10000000
,
01000000
01000000
00000000
00100000
,
00000000
00001000
00000000
00010000
,
00000000
00000010
00000000
00000100
,
00000000
00000001
00000000
00000010
,
00000010
00000100
00000000
00010000
,
00000000
00001000
00000000
01000000
,
00000000
00100000
00000000
10000000
,
00000000
00010000
00000000
00100000
,
01000000
10000000
00100000
00000000
,
01000000
00010000
00100000
00000000
,
00000100
00001000
00000010
00000000
,
00000100
00000001
00000010
00000000
,
00000100
00010000
00001000
00000000
,
01000000
00001000
00010000
00000000
,
02000000
00000000
00000000
00000000
,
03100000
00100000
00100000
00100000
,
01000000
00000000
01100000
00000000
,
10000000
00000000
10010000
00010000
,
00000000
11000000
00000000
00100000
,
00000000
00011000
00000000
00001000
,
00000000
00011000
00000000
00000010
,
00000000
00000000
00000101
00000000
00000000
00000100
00000000
00000000
,
00000000
00001001
00000000
00000000
00000000
00000100
00000000
00000000
,
00000000
00000011
00000000
00000000
00001000
00000000
00000001
00000000
,
00000000
00000001
00000100
00001000
,
00000000
00000000
00001000
00010000
00000000
00000000
01000000
00000000
,
00000000
01000000
00000000
10000000
00000000
00000000
00100000
00000000
,
00000000
01000000
00000000
00010000
00000000
10000000
00000000
00000000
,
00000000
10000000
00000000
01000000
00000000
00010000
00000000
00000000
,
00000000
00010000
00001000
00000000
00000000
00000100
00000000
00000000
,
00000100
00000000
00000001
00000000
00000000
00000010
00000000
00000000
,
00000100
00000110
00000000
00000000
,
00000000
00000000
00000000
00000000
,
00001000
00001001
00000000
00000000
,
00000000
00000000
00000000
00000000
,
00000000
00011000
00000000
00000000
,
00000000
00000000
00000000
00000000
,
00010000
10010000
00000000
00000000
,
00000000
00000000
00000000
00000000
,
00000000
02200000
00000000
00000000
,
00000000
00000000
00000000
00000000
,
00000000
00000000
00000000
00000000
,
00000000
00000000
00000000
00000000
,
00000000
03300000
00000000
00000000
,
00000000
00000000
00000000
00000000
,
00000000
00000000
00000000
00000000
,
00000000
00000000
00000000
00000000
,
00000000
00011000
00000000
00000000
,
00000000
00000000
00000000
00000000
,
00001000
00001001
00000000
00000000
,
00000000
00000010
00000100
00000010
,
00000100
00001001
00000000
00000000
,
00000000
00001000
00000000
00000000
,
00000000
00001000
00000000
00000000
,
00000000
00001000
00000000
00000000
,
00000000
00010000
00000000
00010000
,
00000000
01000000
00000000
01000000
,
00000000
00100000
00100000
00100000
,
00100000
00100000
00100000
00100000
,
01000000
01100000
00010000
10000000
,
00010000
10000000
00100000
00010000
,
00001000
00010000
00001000
00000010
,
00001000
00000010
00000001
00000100
,
00000100
00000110
00001000
00000001
,
00001000
00000001
00000010
00001000
,
00010000
00001000
00010000
00100000
,
00010000
00100000
10000000
01000000
,
01000000
00100000
00010000
00100000
,
00010000
10000000
01000000
10000000
,
01000000
00010000
00001000
00010000
,
00001000
00000100
00000001
00000100
,
00000100
00000001
00000001
00000010
,
00000010
00001000
00001000
00010000
,
00010000
01000000
10000000
00100000
,
00010000
00001000
00000100
00000001
,
00000010
00001001
00000000
00000000
;

//---------------dance-double - ----------------
#NOTEDATA:;
#CHARTNAME:;
#STEPSTYPE:dance-double;
#DESCRIPTION:;
#CHARTSTYLE:;
#DIFFICULTY:Medium;
#METER:10;
#RADARVALUES:0.370429,0.632093,0.386192,0.133985,0.000000,329.000000,280.000000,49.000000,17.000000,0.000000,0.000000,0.000000,0.000000,0.000000,0.370429,0.632093,0.386192,0.133985,0.000000,329.000000,280.000000,49.000000,17.000000,0.000000,0.000000,0.000000,0.000000,0.000000;
#CREDIT:led_light;
#NOTES:
00000000
00000000
00000000
00000000
,
00000000
00000000
00000000
00000000
,
00000000
00000000
00000000
00000000
,
00000000
00000000
00000000
00000000
,
00000000
00000000
00000000
00000000
,
00000000
00000000
00000000
00000000
,
00000000
00000000
00000000
00000000
,
00000000
00000000
00000000
00000000
,
00000000
00000000
00000000
00000000
,
01100000
00000000
00000000
00000000
,
00000000
00000000
00000000
00000000
,
01000000
00000000
00000000
00000000
,
01000000
00000000
00000000
10000000
,
01000000
10000000
00000000
00010000
,
01000000
00010000
00000000
00001000
,
00000100
00001000
00000000
00000001
,
00002002
00000000
00003003
00000000
,
00001000
00000010
00000001
00000010
,
00001000
00000000
00000010
00000000
00000001
00000010
00000001
00000000
,
00000010
00001000
00000100
00010000
,
00001000
01000000
00100000
01100000
,
00010000
01000000
10000000
01000000
,
00010000
00000000
01000000
00000000
10000000
01000000
10000000
00000000
,
01000000
00010000
00100000
00001000
,
00010000
00000010
00000100
00000110
,
00001000
00001000
00000001
00000001
,
00001000
00000000
00001000
00000000
00000100
00000010
00000100
00000000
,
00000010
00000010
00000001
00000001
,
00000100
00001000
00010000
01000000
,
10000000
10000000
00010000
00010000
,
10000000
00000000
10000000
00000000
01000000
00100000
01000000
00000000
,
00010000
00010000
00001000
00001000
,
00000100
00000001
00000010
00000010
,
00000001
00000100
00000010
00001000
,
00000001
00000010
00000100
00001000
,
00010000
01000000
00100000
10000000
,
00010000
00100000
01000000
10000000
,
01000000
01000000
01000000
00000000
,
00100000
00100000
00100000
00000000
,
00020000
00000000
00000000
00000000
,
10030000
00010000
10000000
00010000
,
01100000
00000000
00000000
10100000
00000000
10100000
00000000
00000000
,
00110000
00000000
00000000
00101000
00000000
00101000
00011000
00000000
,
00000000
00001010
00000000
00001010
00000000
00000000
00001100
00000000
,
00000000
00000001
00000000
00000010
00000010
00000000
00000110
00000000
,
00000000
00000011
00000000
00000011
00000000
00000000
00001010
00000000
,
00000000
00010010
00000000
00010010
00000000
00011000
00000000
00000000
,
00110000
00000000
00110000
00000000
00000000
01010000
00000000
00000000
,
10000000
00000000
00100000
00100000
10000000
00000000
01000000
00000000
,
00010000
01000000
10000000
00100000
,
00010000
00001000
00000000
00010000
00000000
00000000
00001000
00000000
,
00001000
00010000
00000000
00000100
00000000
00000000
00001000
00000000
,
00000001
00001000
00000000
00000001
00000000
00000100
00000000
00001000
,
00000000
00000100
00000000
00000001
00000000
00000010
00000000
00001000
,
00010000
00000000
00001000
00000000
00000000
00010000
00000000
00010000
,
00001000
00000000
01000000
00000000
00000000
00010000
00000000
10000000
,
00010000
20020000
00000000
00000000
,
00000000
00000000
00000000
30030000
,
01100000
02200000
00000000
00000000
,
00000000
00000000
00000000
00000000
,
03300000
00022000
00000000
00000000
,
00000000
00000000
00000000
00033000
,
00000110
00000220
00000000
00000000
,
00000000
00000000
00000000
00000000
,
00000330
00002002
00000000
00000000
,
00000000
00000000
00000000
00000000
,
00000000
00000000
00000000
00000000
,
00000000
00000000
00000000
00000000
,
00003003
00000200
00000000
00000000
,
00000000
00002300
00000000
00000000
,
00000000
00023000
00000000
00000000
,
00000000
02030000
00000000
00000000
,
03000000
10010000
00000000
00000000
,
00000000
10000000
01000000
10000000
,
01000000
00110000
00000000
00000000
,
00000000
00001000
00000100
00001000
,
00000100
00000011
00000000
00000000
,
00000000
00001010
00000000
00000000
,
00000000
00011000
00000000
00000000
,
00000000
00110000
00000000
00000000
,
00000000
10100000
00000000
10100000
,
00000000
11000000
00000000
11000000
,
00000000
10010000
10010000
01100000
,
01100000
10000000
00010000
00001000
,
00000001
00001001
00000100
00000001
,
00000010
00000000
00000100
00000000
00001000
00000000
00000010
00001000
,
00000010
00000100
00001000
00010000
,
00001000
00010000
01000000
10000000
,
10000000
10010000
00100000
10000000
,
01000000
00000000
00100000
00000000
00010000
00000000
01000000
00010000
,
01000000
00100000
00010000
00001000
,
00010000
00001000
00000010
00000001
,
00000001
00000010
00001000
00000010
,
00000001
00000000
00000100
00000000
00001000
00000000
00000100
00000001
,
00000100
00000010
00010000
00001000
,
01000000
00010000
00100000
01000000
,
01100000
00000000
10000000
01000000
10000000
00000000
00100000
10000000
,
00100000
00000000
00010000
00100000
00010000
00000000
00001000
00010000
,
00001000
00000000
00000010
00000001
00000100
00000000
00000010
00001000
,
00000100
00000000
00000010
00001000
00010000
00000000
00100000
00010000
,
00001000
00011000
00000000
00000000
;

//---------------dance-double - ----------------
#NOTEDATA:;
#CHARTNAME:;
#STEPSTYPE:dance-double;
#DESCRIPTION:;
#CHARTSTYLE:;
#DIFFICULTY:Hard;
#METER:14;
#RADARVALUES:0.677806,0.870212,0.425599,0.094578,0.003941,602.000000,548.000000,54.000000,12.000000,0.000000,0.000000,0.000000,0.000000,0.000000,0.677806,0.870212,0.425599,0.094578,0.003941,602.000000,548.000000,54.000000,12.000000,0.000000,0.000000,0.000000,0.000000,0.000000;
#CREDIT:led_light;
#NOTES:
00000000
00000000
00000000
00000000
,
00000000
00000000
00000000
00000000
,
00000000
00000000
00000000
00000000
,
00000000
00000000
00000000
00000000
,
00000000
00000000
00000000
00000000
,
00000000
00000000
00000000
00000000
,
00000000
00000000
00000000
00000000
,
00000000
00000000
00000000
00000000
,
00000000
00000000
00000000
00000000
,
00001001
00000100
00000001
00000010
00000100
00001000
00010000
00100000
,
01000000
10000000
01000000
00100000
00010000
00001000
00000100
00000010
,
00000001
00001000
00000001
00000100
00000010
00001000
00010000
01000000
,
00100000
10000000
00100000
01000000
00010000
00001000
00000010
00000100
,
00000110
00000010
00001000
00000001
00000010
00001000
00010000
01000000
,
01100000
00100000
00010000
10000000
00100000
00010000
00001000
00000100
,
00000110
00000010
00001000
00000001
00000010
00001000
00010000
00001000
,
00022000
00000000
00033000
00000000
,
00100000
00001000
00010000
00001000
01000000
00001000
00010000
00001000
,
00100000
00010000
10000000
00100000
01000000
01000000
01000000
00100000
,
10000000
01000000
00100000
01000000
00010000
01000000
00001000
00010000
,
00000010
00001000
00000010
00000001
00001000
00000001
00000100
00000000
,
00000010
00010000
00001000
00010000
00000100
00010000
00001000
00010000
,
00000010
00001000
00000001
00000010
00000100
00000100
00000100
00000010
,
00000001
00000100
00000010
00000100
00001000
00000100
00010000
00001000
,
00100000
00010000
00100000
10000000
00010000
10000000
01000000
00100000
,
01000000
11000000
10000000
10100000
,
00100000
00000000
00110000
00000000
00010000
00010000
00011000
00000000
,
00001000
00001010
00000010
00000011
,
00000001
00000101
00000100
00000110
,
00001000
00000010
00000001
00000010
00000100
00000010
00001000
00000010
,
00010000
00001000
00100000
00010000
00100000
01000000
00100000
10000000
,
00100000
00001000
00010000
00001000
01000000
00001000
00010000
00001000
,
00100000
00010000
01000000
10000000
00010000
00100000
10000000
00000000
,
10000000
01000000
00100000
00010000
01000000
00100000
00010000
00001000
,
00010000
00001000
00000010
00000100
00001000
00000010
00000100
00000001
,
00000001
00000010
00000100
00001000
00000010
00000100
00001000
00010000
,
00001000
00010000
01000000
00100000
00010000
01000000
00100000
10000000
,
10010000
00000000
00110000
00000000
10100000
01000000
00010000
10000000
,
10010000
00010000
00100000
00002000
00010000
00000000
00013000
00000000
,
00002000
00000000
00000000
00000000
,
00000010
00100000
00000010
00103000
,
00110000
00001000
00010000
00001010
00000000
00001100
00000010
00001000
,
00001001
00000001
00000010
00000110
00001000
00000001
00001001
00001000
,
00000010
00001010
00000000
00000101
00000001
00000000
00001000
00000100
,
00000010
00000000
00000001
00000000
00000000
00000000
00001000
00000000
00000010
00001000
00000010
00000000
00001010
00000000
00010000
00000000
,
00001000
00110000
00000000
01010000
00100000
00010000
10010000
10000000
,
00100000
01100000
00000000
00010000
10000000
10010000
00010000
00100000
,
00110000
00000000
11000000
10000000
00000000
00010000
01000000
00100000
,
10000000
00000000
00010000
00100000
01000000
10000000
00010000
00100000
,
01000000
10000000
00100000
01000000
00001000
00010000
00000100
00001000
,
00000001
00000010
00000000
00000100
00000000
00001000
00000001
00000000
,
00000100
00000001
00000100
00000010
00000000
00001000
00000100
00000000
,
00001000
00000001
00000000
00000100
00000001
00001000
00000010
00000100
,
00000001
00000010
00000100
00010000
00001000
01000000
00010000
10000000
,
00100000
00000000
01000000
00000000
00010000
10000000
00000000
01000000
,
10000000
01000000
00100000
00000000
00010000
01000000
00000000
00010000
,
10000000
00010000
20020000
00000000
00000000
00000000
00000000
00000000
,
00000000
00000000
00000000
30030000
,
00011000
00022000
00000000
00000000
,
00000000
00000000
00000000
00000000
,
00033000
00002002
00000000
00000000
,
00000000
00000000
00000000
00003003
,
00011000
00022000
00000000
00000000
,
00000000
00000000
00000000
00000000
,
00033000
00000000
00010000
00001000
00000100
00000001
00000100
00000010
,
00001000
00000001
00000000
00000010
00000100
00010000
00001000
00010000
,
00000010
00001000
00000001
00000100
00000010
00001000
00000100
00000010
,
00000001
00001000
00000000
00000100
00000001
00000100
00010000
00001000
,
00010000
00000000
00001000
00010000
01000000
10000000
01000000
00100000
,
00010000
10000000
00000000
00100000
01000000
00001000
00010000
00001000
,
00100000
00010000
10000000
01000000
00100000
00010000
01000000
00100000
,
10000000
00010000
00000000
01000000
10000000
01000000
00001000
00010000
,
00001000
00010000
00011000
00000000
00000000
00000000
00000000
00000000
,
00000000
00000000
00010000
00100000
10000000
00100000
00010000
00001000
,
00000100
00000001
00000110
00000000
00000000
00000000
00000000
00000000
,
00000000
00000000
00001000
00000010
00000001
00000010
00001000
00010000
,
01000000
01100000
00000000
00000000
,
00000000
00011000
00000000
00000000
,
00000000
00000110
00000000
00000000
,
00000000
00011000
00000000
00000000
,
00000000
10100000
00000000
01010000
,
00000000
00001100
00000000
00000011
,
00000000
00001010
00011000
00110000
,
00011000
00000000
00000010
00000100
00001000
00010000
00100000
01000000
,
10000000
00000000
01000000
00100000
10000000
00010000
01000000
00001000
,
00010000
00000100
00001000
00000100
00000010
00000100
00001000
00000100
,
00000001
00000100
00000010
00000001
00001000
00000010
00000100
00000001
,
00001000
00000010
00010000
00001000
00010000
00000100
00010000
00001000
,
00000100
00000000
00000010
00000100
00000001
00001000
00000010
00010000
,
00001000
00100000
00010000
00100000
01000000
00100000
00010000
00100000
,
10000000
00100000
01000000
10000000
00010000
01000000
00100000
10000000
,
00010000
01000000
00001000
00010000
00001000
00100000
00001000
00010000
,
00100000
00000000
10000000
00100000
01000000
00001000
00010000
00000100
,
00000010
00000001
00001000
00000100
00010000
00001000
00000100
00000010
,
00001000
00000001
00000010
00000100
00010000
00001000
01000000
00100000
,
10000000
00010000
00100000
00001000
00010000
01000000
00100000
00010000
,
10000000
00000000
00010000
01000000
00010000
01000000
00001000
00010000
,
00001000
00010000
00000010
00001000
00000010
00001000
00000001
00000010
,
00000001
00000010
00000100
00001000
00010000
00100000
01000000
00100000
,
00010000
10000000
00100000
01000000
00010000
00001000
00000100
00000010
,
00000001
00001000
00001001
00000010
00000000
00000000
00000000
00000000
;

//---------------dance-single - ----------------
#NOTEDATA:;
#CHARTNAME:;
#STEPSTYPE:dance-single;
#DESCRIPTION:;
#CHARTSTYLE:;
#DIFFICULTY:Hard;
#METER:14;
#RADARVALUES:0.701450,0.870212,0.520177,0.110340,0.035467,623.000000,557.000000,66.000000,14.000000,0.000000,0.000000,0.000000,0.000000,0.000000,0.701450,0.870212,0.520177,0.110340,0.035467,623.000000,557.000000,66.000000,14.000000,0.000000,0.000000,0.000000,0.000000,0.000000;
#CREDIT:led_light;
#NOTES:
// measure 0
0000
0000
0000
0000
,  // measure 1
0000
0000
0000
0000
,  // measure 2
0000
0000
0000
0000
,  // measure 3
0000
0000
0000
0000
,  // measure 4
0000
0000
0000
0000
,  // measure 5
0000
0000
0000
0000
,  // measure 6
0000
0000
0000
0000
,  // measure 7
0000
0000
0000
0000
,  // measure 8
0000
0000
0000
0000
,  // measure 9
1100
0100
0010
0001
0010
0100
1000
0001
,  // measure 10
1000
0100
0010
0001
0010
0100
1000
0001
,  // measure 11
0100
0010
1000
0010
0100
0001
1000
0001
,  // measure 12
0100
0010
1000
0010
0100
0001
1000
0001
,  // measure 13
0101
0100
0010
1000
0100
0001
0100
1000
,  // measure 14
1100
0100
0010
0001
0100
1000
0100
0001
,  // measure 15
1001
1000
0100
1000
0010
0100
0001
0010
,  // measure 16
0220
0000
0330
0000
,  // measure 17
1001
0001
0010
0100
0010
1000
0010
0001
,  // measure 18
0010
0100
0010
0001
0100
0100
0100
0001
,  // measure 19
1000
0010
0100
0010
0001
0010
0100
1000
,  // measure 20
0100
0010
0100
0001
1000
0100
0110
0000
,  // measure 21
1001
0001
0100
0010
0100
1000
0100
0001
,  // measure 22
0100
0010
0100
0001
0010
0010
0010
0001
,  // measure 23
1000
0100
0010
0100
0001
0100
0010
1000
,  // measure 24
0010
0100
0010
0001
1000
0010
0100
0001
,  // measure 25
1000
1100
0100
0101
,  // measure 26
0001
0000
0011
0000
0010
0010
1010
0000
,  // measure 27
1000
1100
0100
0101
,  // measure 28
0001
0011
0010
1010
,  // measure 29
0001
0010
0100
0010
1000
0010
0100
0010
,  // measure 30
0001
0100
0010
0100
1000
0100
0010
0100
,  // measure 31
0001
1000
0010
1000
0001
1000
0100
1000
,  // measure 32
0001
0010
1000
0010
0001
1000
0001
0000
,  // measure 33
0001
0100
0010
1000
0010
0100
0001
1000
,  // measure 34
0001
0100
0010
1000
0010
0100
0001
1000
,  // measure 35
0100
0010
0001
0010
0100
1000
0001
1000
,  // measure 36
0100
0010
0001
0010
0100
1000
0001
1000
,  // measure 37
1001
0101
2001
3100
,  // measure 38
0010
0100
1000
0001
2000
0000
3010
0000
,  // measure 39
0200
0000
0000
0000
,  // measure 40
0001
1000
0001
0310
,  // measure 41
1010
1000
0001
0101
0000
0101
0010
1000
,  // measure 42
1100
0100
0001
0101
0100
0010
0001
1000
,  // measure 43
0100
0110
0000
0110
0001
0000
1001
0001
,  // measure 44
0100
0000
0010
0000
0000
0000
1000
0000
0001
1000
0001
0000
1100
0000
1000
0000
,  // measure 45
0001
0011
0000
0011
0100
1000
1010
0010
,  // measure 46
0001
0011
0010
0100
0001
0010
0100
1000
,  // measure 47
1100
0000
1100
0001
0000
0100
0010
1000
,  // measure 48
1010
0010
0001
0010
1000
0100
0010
0100
,  // measure 49
1000
0001
1000
0100
0010
0001
1000
0001
,  // measure 50
0100
0010
1000
1001
0000
0001
0100
0000
,  // measure 51
1000
0000
0100
0000
0001
0000
0010
0000
0000
0010
0000
0000
0110
0000
0000
0000
,  // measure 52
0100
2000
0000
3001
0010
0100
0010
0001
,  // measure 53
1000
0001
0010
0100
1000
0001
1000
0010
,  // measure 54
0100
0001
1001
0000
1000
0010
0000
0001
,  // measure 55
0010
1000
1010
0000
0001
0011
0000
0100
,  // measure 56
1000
0001
1000
0000
2002
0000
0000
0000
0000
0000
0000
0000
0000
0000
0000
0000
,  // measure 57
0000
0000
0000
3003
,  // measure 58
0101
2200
0000
0000
,  // measure 59
0000
0000
0000
0000
,  // measure 60
3300
0220
0000
0000
,  // measure 61
0000
0000
0000
0330
,  // measure 62
1010
0022
0000
0000
,  // measure 63
0000
0000
0000
0000
,  // measure 64
0033
0000
0110
0100
0010
0100
1000
0001
,  // measure 65
1000
0001
0000
0100
0010
1000
0001
1000
,  // measure 66
0010
0100
0001
1000
0010
1000
0001
1000
,  // measure 67
0100
0010
0000
0010
0100
0010
0100
1000
,  // measure 68
0100
0000
1000
0001
1000
0001
0100
0010
,  // measure 69
1000
0010
0000
0100
0001
1000
0100
1000
,  // measure 70
0100
1000
0001
0100
0010
1000
0100
0010
,  // measure 71
0100
1000
0000
0100
0010
0100
0010
0001
,  // measure 72
0100
0010
1001
0000
0000
0000
0000
0000
,  // measure 73
0000
0000
0001
0100
0010
1000
0010
0001
,  // measure 74
0010
1000
1001
0000
0000
0000
0000
0000
,  // measure 75
0000
0000
0000
0000
1000
0000
0100
0000
0001
0000
0100
0010
0100
0010
0100
0000
,  // measure 76
1000
1001
0000
0000
,  // measure 77
0000
0101
0000
0000
,  // measure 78
0000
0011
0000
0000
,  // measure 79
0000
1010
0000
0000
,  // measure 80
0000
1100
0000
1100
,  // measure 81
0000
0101
0000
0101
,  // measure 82
0000
0110
0110
0011
,  // measure 83
1010
0000
0001
0010
0100
1000
0001
0010
,  // measure 84
0110
0000
1000
0100
0001
0100
1000
0001
,  // measure 85
1000
0010
0001
0010
1000
0001
1000
1000
,  // measure 86
1000
0100
0010
0100
0001
0100
0010
0100
,  // measure 87
1000
0001
1000
0100
0010
0001
0100
0010
,  // measure 88
0110
0000
1000
0010
0001
0010
1000
0001
,  // measure 89
1000
0100
0001
0100
1000
0001
1000
1000
,  // measure 90
1000
0010
0100
0010
0001
0010
0100
1000
,  // measure 91
0100
0001
1000
0010
0100
0001
0010
0100
,  // measure 92
0110
0000
0001
0010
1000
0001
1000
0010
,  // measure 93
0001
1000
0010
0001
1000
0001
0010
0010
,  // measure 94
0010
1000
0001
0010
0100
0010
0100
1000
,  // measure 95
0001
1000
0010
1000
0100
0010
0001
0010
,  // measure 96
0110
0000
1000
0100
1000
0100
0001
0100
,  // measure 97
0001
0100
0010
1000
0010
1000
0010
0001
,  // measure 98
0010
0000
0001
0000
0010
0100
0010
0000
0001
0000
1000
0000
0100
0010
0100
0000
,  // measure 99
1000
0000
0001
0000
0100
0010
0100
0010
1000
0000
0100
0000
0010
0000
0001
0000
,  // measure 100
0100
0010
1001
0100
0000
0000
0000
0000
;

//---------------dance-single - ----------------
#NOTEDATA:;
#CHARTNAME:;
#STEPSTYPE:dance-single;
#DESCRIPTION:;
#CHARTSTYLE:;
#DIFFICULTY:Medium;
#METER:10;
#RADARVALUES:0.416592,0.632093,0.449243,0.181274,0.003941,370.000000,313.000000,57.000000,23.000000,0.000000,0.000000,0.000000,0.000000,0.000000,0.416592,0.632093,0.449243,0.181274,0.003941,370.000000,313.000000,57.000000,23.000000,0.000000,0.000000,0.000000,0.000000,0.000000;
#CREDIT:led_light;
#NOTES:
0000
0000
0000
0000
,
0000
0000
0000
0000
,
0000
0000
0000
0000
,
0000
0000
0000
0000
,
0000
0000
0000
0000
,
0000
0000
0000
0000
,
0000
0000
0000
0000
,
0000
0000
0000
0000
,
0000
0000
0000
0000
,
2002
0000
0000
0000
,
0000
0000
0000
3003
,
2000
0000
3000
0000
,
0002
0000
0003
0010
,
1001
0100
0000
0100
,
1001
0010
0000
0010
,
1001
0100
0000
0100
,
0220
0000
0330
0000
,
1000
1000
0100
0100
,
1000
0000
1000
0000
0010
0100
0010
0000
,
1000
0100
0001
0100
,
1000
1000
0001
0110
,
0001
0001
0010
0010
,
0001
0000
0001
0000
0100
0010
0100
0000
,
0001
0010
1000
0010
,
0001
0100
1000
0100
,
0001
0101
0001
0101
,
0001
0000
0101
0000
0001
0010
0100
0000
,
1000
1100
1000
1100
,
1000
1100
1000
0110
,
0001
0100
0010
0000
1000
0000
1000
0000
,
0100
0000
0100
0000
0010
0001
0010
0000
,
0100
1000
0001
0000
1000
0000
1000
0000
,
0010
0100
0002
0003
,
1000
0100
0001
0000
0100
0000
1000
0000
,
0100
0001
0100
0000
1000
0000
0001
0000
,
1000
0010
0001
0000
0010
0000
1000
0000
,
0010
0001
0010
0000
1000
0000
0001
0000
,
0110
0110
0002
1003
,
0010
0100
0010
0000
2000
0000
3001
0000
,
0020
0000
0000
0000
,
0100
0100
0100
0130
,
1001
0000
0000
1010
0000
0110
0000
0000
,
0101
0000
0000
1001
0000
1100
0110
0000
,
0000
0101
0000
0101
0000
0000
0011
0000
,
0000
1001
0000
0100
0100
0000
0110
0000
,
0000
0011
0000
0110
0000
0000
1010
0000
,
0000
1001
0000
0100
0010
0011
0000
0000
,
1100
0000
1001
0000
0000
0110
0000
0000
,
0110
0000
1000
0100
0010
0001
0010
0000
,
0100
1000
0001
0100
,
0010
1000
0010
1000
0000
1000
0100
0000
,
1000
0000
0100
0000
0000
0000
0010
0000
0000
0100
0000
0000
1000
0000
0000
0000
,
1000
0010
0000
0010
0100
0010
0000
1000
,
0000
0100
0000
0001
0000
0100
0000
1000
,
0100
1000
0001
0000
0100
0010
0000
0100
,
0010
0000
1000
0000
0001
0010
0000
1000
,
0010
2002
0000
0000
,
0000
0000
0000
3003
,
0110
0220
0000
0000
,
0000
0000
0000
0000
,
0330
2020
0000
0000
,
0000
0000
0000
3030
,
0011
2200
0000
0000
,
0000
0000
0000
0000
,
3300
0102
0000
0000
,
0000
0000
0000
0000
,
0000
0000
0000
0000
,
0000
0000
0000
0003
,
0000
2000
0000
0100
,
0000
3002
0000
0100
,
0000
2003
0000
0100
,
0000
3002
0000
0010
,
0003
1001
0000
0000
,
0000
1000
0100
0001
,
0100
1001
0000
0000
,
0000
0001
0010
1000
,
0010
1001
0000
0000
,
0000
0101
0000
0000
,
0000
1100
0000
0000
,
0000
1001
0000
0000
,
0000
0110
0000
0110
,
0000
1001
0000
1001
,
0000
0100
0010
0100
,
0010
0000
1000
0001
1000
0001
0100
0010
,
0100
1001
0001
0100
,
0001
0000
0100
0000
0001
0000
0010
0100
,
1000
0100
0010
0100
,
1000
0000
0001
0000
1000
0000
0010
0100
,
0001
1001
1000
0100
,
1000
0000
0100
0000
1000
0000
0010
0100
,
0001
0100
0010
0100
,
0001
0000
1000
0000
0001
0000
0010
0100
,
1000
0000
0001
0010
0001
0000
0001
0010
,
0001
0000
0010
0001
0100
0000
0001
0100
,
0010
0000
1000
0100
1000
0000
1000
0100
,
1000
0000
0100
1000
0010
0000
0100
0010
,
0110
0000
1000
0100
1000
0000
0100
0001
,
0100
0000
0001
0010
0001
0000
0010
1000
,
0010
0000
1000
0100
0001
0000
0001
0100
,
1000
0000
1000
0010
0001
0000
0001
0010
,
1000
1001
0000
0000
;

//---------------dance-single - ----------------
#NOTEDATA:;
#CHARTNAME:;
#STEPSTYPE:dance-single;
#DESCRIPTION:;
#CHARTSTYLE:;
#DIFFICULTY:Easy;
#METER:8;
#RADARVALUES:0.329896,0.632093,0.386192,0.094578,0.000000,293.000000,244.000000,49.000000,12.000000,0.000000,0.000000,0.000000,0.000000,0.000000,0.329896,0.632093,0.386192,0.094578,0.000000,293.000000,244.000000,49.000000,12.000000,0.000000,0.000000,0.000000,0.000000,0.000000;
#CREDIT:led_light;
#NOTES:
0000
0000
0000
0000
,
0000
0000
0000
0000
,
0000
0000
0000
0000
,
0000
0000
0000
0000
,
0000
0000
0000
0000
,
0000
0000
0000
0000
,
0000
0000
0000
0000
,
0000
0000
0000
0000
,
0000
0000
0000
0000
,
1001
0000
0000
0000
,
0000
0000
0000
0000
,
0100
0000
0000
0000
,
0100
0000
0000
1000
,
0100
1000
0000
0001
,
0100
0001
0000
1000
,
0100
1000
0000
0001
,
0220
0000
0330
0000
,
1000
0010
1000
0010
,
1000
0010
1000
1000
,
0100
0010
0100
0010
,
0100
0010
0100
1001
,
0001
0010
0001
0010
,
0001
0010
0001
0001
,
0100
0010
0100
0010
,
1000
0100
0001
0100
,
1000
1100
0000
0110
,
0000
1100
0000
0110
,
0000
0101
0000
0110
,
0000
0101
0000
0110
,
1000
0100
1000
0010
,
0100
0010
1000
0100
,
0010
0100
1000
1000
,
0001
0100
0020
0030
,
1000
0100
0001
0000
,
1000
0100
0001
0000
,
0001
0010
1000
0000
,
0001
0010
1000
0000
,
0001
0001
0002
0003
,
1000
1000
2000
3000
,
0020
0000
0000
0000
,
0130
0010
0100
0010
,
1001
0000
0000
0010
0000
0100
0000
0000
,
1100
0000
0000
0001
0000
0100
0110
0000
,
0000
1000
0000
0001
0000
0000
1100
0000
,
0000
0010
0000
0000
0100
0000
1001
0000
,
0000
0010
0000
0100
0000
0000
0101
0000
,
0000
1000
0000
0000
0100
0110
0000
0000
,
1000
0000
0001
0000
0000
1010
0000
0000
,
0100
0000
0000
0010
0110
0000
1000
0000
,
0100
0001
0100
1000
,
0001
0000
0000
1001
0000
0000
0010
0000
,
0000
0010
0000
0100
0000
0000
1000
0000
,
0000
0001
0000
0110
0000
0001
0000
1000
,
0000
0010
0000
0001
0000
0010
0000
1000
,
0000
0000
1001
0000
0000
0010
0000
0000
,
0010
0000
0100
0000
0000
0001
0000
0000
,
1000
1001
0000
0000
,
0000
0000
0000
0000
,
0100
0110
0000
0000
,
0000
0000
0000
0000
,
0000
1001
0000
0000
,
0000
0000
0000
0000
,
0010
0110
0000
0000
,
0000
0000
0000
0000
,
0000
2002
0000
0000
,
0000
0000
0000
0000
,
0000
0000
0000
0000
,
0000
0000
0000
3003
,
0000
0002
0000
0000
,
0000
0023
0000
0000
,
0000
0230
0000
0000
,
0000
2300
0000
0000
,
3000
1001
0000
0000
,
0000
0001
0100
0010
,
1000
1001
0000
0000
,
0000
0100
0100
0010
,
0100
1001
0000
0000
,
0000
0110
0000
0000
,
0000
1001
0000
0000
,
0000
0110
0000
0000
,
0000
1001
0000
1001
,
0000
0110
0000
0110
,
0000
1001
0110
1001
,
0110
1001
1001
0110
,
0000
1000
0100
0001
,
0100
1000
0100
1000
,
0010
0001
0100
0001
,
0100
0001
0010
1000
,
1001
0001
0010
1000
,
0010
0001
0010
0001
,
0100
1000
0010
1000
,
0010
1000
0100
0001
,
1001
0001
0010
1000
,
0010
0001
0010
0100
,
0010
0001
0100
1000
,
0100
0001
0100
0010
,
1001
0010
0010
0010
,
0010
0100
0100
0100
,
0100
1000
0010
0001
,
0010
1000
0100
0001
,
0100
1001
0000
0000
;

//---------------dance-single - ----------------
#NOTEDATA:;
#CHARTNAME:;
#STEPSTYPE:dance-single;
#DESCRIPTION:;
#CHARTSTYLE:;
#DIFFICULTY:Beginner;
#METER:4;
#RADARVALUES:0.182400,0.355552,0.189155,0.063052,0.000000,162.000000,138.000000,24.000000,8.000000,0.000000,0.000000,0.000000,0.000000,0.000000,0.182400,0.355552,0.189155,0.063052,0.000000,162.000000,138.000000,24.000000,8.000000,0.000000,0.000000,0.000000,0.000000,0.000000;
#CREDIT:led_light;
#NOTES:
0000
0000
0000
0000
,
0000
0000
0000
0000
,
0000
0000
0000
0000
,
0000
0000
0000
0000
,
0000
0000
0000
0000
,
0000
0000
0000
0000
,
0000
0000
0000
0000
,
0000
0000
0000
0000
,
0000
0000
0000
0000
,
1001
0000
0000
0000
,
0000
0000
0000
0000
,
0100
0000
0000
0000
,
0100
0000
0000
0000
,
0100
0000
0000
0000
,
0100
0000
0000
0000
,
0100
0000
0000
0000
,
2002
0000
3003
0000
,
0010
0000
0010
0000
,
0010
0000
0001
0000
,
0100
0000
0100
0000
,
1000
0000
0010
0000
,
0100
0000
0100
0000
,
0100
0000
0001
0000
,
0010
0000
0010
0000
,
1000
1000
1000
1000
,
0000
0100
0000
0010
,
0000
0100
0000
0010
,
0000
0100
0000
0100
,
0000
0100
0000
0001
,
0000
0010
0000
0010
,
0000
0010
0000
0100
,
0000
0001
0000
0001
,
0000
0001
0000
0000
,
2002
0000
0000
0000
,
0000
0000
0000
0000
,
0000
0000
0000
0000
,
3003
0000
0000
0000
,
0010
0010
0010
0000
,
0100
0100
0100
0000
,
2000
0000
3000
0000
,
0001
0001
0001
0000
,
1001
0000
0000
0000
,
1001
0000
0000
0110
,
0000
0000
0000
0110
,
0000
0000
0000
1001
,
0000
0000
0000
1001
,
0000
0000
0000
0000
0000
0110
0000
0000
,
0000
0000
0000
0000
0000
0110
0000
0000
,
0000
0000
1000
0000
,
1000
0000
1000
0000
,
0000
0000
0000
0100
0000
0000
0000
0010
,
0000
0000
0000
0100
0000
0000
0000
0000
,
0000
0000
0000
0001
0000
0000
0000
0001
,
0000
0000
0000
0001
0000
0000
0000
0000
,
0000
0010
0000
0100
,
0000
0010
0000
0100
,
0000
1001
0000
0000
,
0000
0000
0000
0000
,
0010
0010
0000
0000
,
0000
0000
0000
0000
,
0000
1001
0000
0000
,
0000
0000
0000
0000
,
0100
0100
0000
0000
,
0000
0000
0000
0000
,
0000
2000
0000
0000
,
0000
0000
0000
0000
,
0000
0000
0000
0000
,
0000
3000
0000
0000
,
0000
0002
0000
0000
,
0000
0000
0000
0000
,
0000
0000
0000
0000
,
0000
0003
0000
0000
,
0000
1001
0000
0000
,
0000
0200
0000
0300
,
0000
1001
0000
0000
,
0000
0010
0010
0010
,
0000
0110
0000
0000
,
0000
0110
0000
0000
,
0000
1001
0000
0000
,
0000
0110
0000
0000
,
0000
0110
0000
0110
,
0000
1001
0000
1001
,
0000
0010
0010
0010
,
0000
0100
0100
0100
,
0000
1000
0000
0010
,
0000
1000
0000
0010
,
0000
0001
0000
0100
,
0000
0001
0001
0001
,
0000
1000
0000
0100
,
0000
1000
0000
0100
,
0000
0001
0000
0010
,
0000
0001
0001
0001
,
0000
1000
0000
1000
,
0000
0100
0000
0100
,
0000
0001
0000
0001
,
0000
0010
0000
0010
,
0000
1000
1000
1000
,
0000
0001
0001
0001
,
0000
0010
0000
1000
,
0000
0100
0100
0100
,
0000
1001
0000
0000
;
