#VERSION:0.83;
#TITLE:id\:entity voices;
#SUBTITLE:;
#ARTIST:hololive Indonesia;
#TITLETRANSLIT:;
#SUBTITLETRANSLIT:;
#ARTISTTRANSLIT:;
#GENRE:Variety;
#ORIGIN:;
#CREDIT:;
#BANNER:identity voices.png;
#BACKGROUND:identity voices-bg.png;
#PREVIEWVID:;
#JACKET:identity voices-jacket.png;
#CDIMAGE:;
#DISCIMAGE:;
#LYRICSPATH:;
#CDTITLE:../cdtitle.png;
#MUSIC:identity voices.ogg;
#OFFSET:0.613000;
#SAMPLESTART:73.857002;
#SAMPLELENGTH:15.000000;
#SELECTABLE:YES;
#BPMS:0.000=170.000;
#STOPS:;
#DELAYS:;
#WARPS:;
#TIMESIGNATURES:0.000=4=4;
#TICKCOUNTS:0.000=4;
#COMBOS:0.000=1;
#SPEEDS:0.000=1.000=0.000=0;
#SCROLLS:0.000=1.000;
#FAKES:;
#LABELS:0.000=Song Start;
#BGCHANGES:1.750=identity voices.avi=1.000=0=0=0=StretchNoLoop====,
99999=-nosongbg-=1.000=0=0=0 // don't automatically add -songbackground-
;
#KEYSOUNDS:;
#ATTACKS:
;

//---------------dance-single - ----------------
#NOTEDATA:;
#CHARTNAME:;
#STEPSTYPE:dance-single;
#DESCRIPTION:;
#CHARTSTYLE:;
#DIFFICULTY:Hard;
#METER:12;
#RADARVALUES:0.466648,0.623665,0.384760,0.596771,0.003926,416.000000,367.000000,49.000000,76.000000,0.000000,0.000000,0.000000,0.000000,0.000000,0.466648,0.623665,0.384760,0.596771,0.003926,416.000000,367.000000,49.000000,76.000000,0.000000,0.000000,0.000000,0.000000,0.000000;
#CREDIT:led_light;
#NOTES:
0000
0000
0000
0000
,
0000
0000
0000
0000
,
0000
0000
0000
0000
,
0000
0000
0000
0000
,
0000
0000
0000
0000
,
2100
0000
3001
0100
0001
0010
0100
2000
,
0010
0000
3001
0100
0001
0010
0100
2000
,
0010
0000
3001
0100
0010
1000
0000
0021
,
0000
0130
0010
0001
0000
2000
0100
0000
,
3001
0000
0101
0001
1000
0010
0100
0002
,
0010
0000
1003
0100
0010
0001
0100
0010
,
1000
0001
0100
0001
0000
0010
0220
0000
,
0000
0000
0000
0300
,
0031
0000
0100
0000
0000
0010
0100
0020
,
0000
0030
1000
0000
0000
0000
1000
0000
,
0110
0000
1000
0100
0000
0010
0000
2100
,
0000
0000
3001
0000
0000
0001
0100
0001
,
0000
1000
0100
1000
0000
0001
0010
0200
,
0000
0310
0000
0010
,
0011
0000
0001
1000
0000
1100
0000
0102
,
0000
0000
1000
0000
0003
0010
0100
1000
,
0001
0000
0100
0000
0000
0000
0100
0010
,
0000
2000
0000
3000
0000
0100
1000
0100
,
0020
0000
0031
0100
0000
0010
0000
2010
,
0000
0000
3001
0000
0000
0100
0001
0000
,
2000
0000
3020
0000
0230
0000
0301
1000
,
0000
0001
0000
0100
0000
0010
1000
1200
,
0000
0000
0010
0000
0300
0000
0010
0200
,
0000
1300
0001
2000
0000
0000
3000
0000
,
1001
0000
0001
0100
0010
0100
1000
0100
,
0002
0013
2000
3010
,
0002
0000
0103
0010
1000
0001
1000
0100
,
0020
0000
0031
0000
1000
0100
0010
0001
,
0000
0100
0010
1000
0000
0001
0000
0021
,
0000
0130
1000
0001
,
0010
0000
0100
1000
0000
0001
0000
1020
,
0000
0000
0100
0000
0030
0100
0010
1000
,
0001
0000
0101
0000
0010
0000
1000
0100
,
0010
0001
0010
0001
1000
0100
0010
0001
,
2000
0000
3010
0100
0001
1000
0010
0002
,
0000
0013
1000
0002
0000
0013
0100
1000
,
1100
0000
0010
0001
0011
0000
0001
1000
,
0100
0010
0100
0010
0001
0100
0010
2010
,
0000
0000
3001
0000
0100
0010
0000
1002
,
0000
0000
0013
0000
0100
0000
0020
0000
0001
0000
0000
0000
0031
1000
0001
0000
,
2000
0000
0000
0000
,
3200
0000
0000
0300
,
0002
0000
0000
0000
,
0023
0000
0000
0030
,
2000
0000
0000
0000
,
3020
0000
0000
0000
0030
0000
0000
2002
,
0000
0000
0000
0000
,
3003
0000
0000
0000
0000
0000
0100
0010
,
2010
0000
3100
0000
0012
0000
0100
0003
,
2000
3200
0302
0023
,
2030
3200
0320
0032
,
0103
0010
1000
0002
0000
0000
0103
0000
,
2001
3100
1002
0013
,
2000
0000
3010
0100
1000
0001
0000
2100
,
0000
0000
3001
0000
0100
0010
1000
0000
,
0001
0010
1000
0010
0000
0011
0000
2010
,
0000
0000
3100
0000
0010
0001
1000
0100
,
0020
0031
0200
0310
,
2000
0000
3100
0010
0000
0101
0000
2100
,
0000
0000
3002
0000
0013
0100
1000
0100
,
0010
0001
0010
0001
0100
0010
1000
2200
,
0000
3300
0000
0000
,
0012
0000
1003
0010
1000
0100
0010
0002
,
0100
0000
1003
0010
1000
0100
0010
0002
,
0100
0000
1003
0010
0100
0001
0000
1100
,
0000
0010
0100
2000
0000
0000
3010
0000
,
0110
0000
0001
0010
0001
0100
0010
2000
,
0100
0000
3001
0010
0001
0100
0010
2000
,
0100
0000
3001
0010
0100
1000
0000
0101
,
0000
0010
0100
0002
0000
0013
0100
0010
,
0011
0011
0101
0101
,
0110
0110
1010
1010
,
1002
0000
0103
0000
1001
1000
0100
0001
,
0100
1000
0001
0000
0201
0000
0310
0000
,
1000
0000
1100
0100
0010
0000
0100
1000
,
0010
0100
0010
0001
0010
1000
0001
0020
,
0000
0000
0130
0010
0001
0100
0010
1000
,
1010
0000
0000
0011
0000
0000
0220
0000
,
0000
0000
0000
0000
,
0000
0000
0000
0000
,
0000
0000
0000
0000
,
0000
0000
0000
0000
,
0000
0000
0000
0000
,
0000
0330
0000
0000
;

//---------------dance-single - ----------------
#NOTEDATA:;
#CHARTNAME:;
#STEPSTYPE:dance-single;
#DESCRIPTION:;
#CHARTSTYLE:;
#DIFFICULTY:Medium;
#METER:9;
#RADARVALUES:0.366812,0.554369,0.369056,0.604623,0.000000,327.000000,280.000000,47.000000,77.000000,0.000000,0.000000,0.000000,0.000000,0.000000,0.366812,0.554369,0.369056,0.604623,0.000000,327.000000,280.000000,47.000000,77.000000,0.000000,0.000000,0.000000,0.000000,0.000000;
#CREDIT:led_light;
#NOTES:
0000
0000
0000
0000
,
0000
0000
0000
0000
,
0000
0000
0000
0000
,
0000
0000
0000
0000
,
0000
0000
0000
0000
,
2001
0000
3100
0000
0001
0100
0001
0000
,
2000
0000
3010
0000
0001
0010
0001
0000
,
2000
0000
3100
0000
0001
0100
0001
0000
,
2000
0000
3010
0100
0000
0010
0002
0000
,
0013
0000
1001
0000
0100
1000
0000
0020
,
0000
0000
0130
0000
0001
0100
0001
0000
,
0010
0000
0100
0010
0000
0001
2000
0000
,
0000
0000
0000
0000
,
3001
0100
0000
0100
,
0020
1030
0000
1000
,
1001
0000
0010
0000
0000
0001
0000
2000
,
0000
3100
0000
0100
,
1001
0010
0000
0010
,
0200
0301
0000
0001
,
1001
0000
0100
0000
0000
1000
0000
0002
,
0000
0010
0003
0001
,
1100
0000
0000
0000
0001
0000
0100
0002
,
0000
0203
0000
0300
0000
0001
0100
0000
,
0110
0000
1000
0000
0000
0001
0000
0110
,
0000
0000
0001
0000
0000
0010
0001
0000
,
2000
0000
3100
0000
0020
0000
0031
1000
,
0000
0100
0000
0001
0000
0100
0000
2020
,
0000
0000
3030
0000
0100
0000
0000
2002
,
0000
3003
0000
0220
0000
0000
0330
0000
,
1001
0000
0001
0100
0010
0000
1000
0000
,
0002
0013
2000
3010
,
0001
0000
0100
0010
1000
0000
0001
0000
,
0020
0000
0130
0000
1000
0000
0100
0010
,
0000
0001
1000
0001
0000
0100
0000
0020
,
0000
1030
0001
0100
,
0010
0000
1000
0100
0000
1000
0000
0012
,
0000
0000
0100
0000
0003
0001
1000
0000
,
0200
0310
0020
0130
,
0010
0100
1000
0000
0100
0010
0001
0000
,
0200
0310
0020
0130
,
0002
0023
0230
1300
,
0110
0000
1001
0000
,
0001
0000
0100
0000
0010
0000
1000
0002
,
0000
0003
0200
0300
,
2002
0000
3003
0000
0020
0000
0130
0001
,
2000
0000
0000
0000
,
3200
0000
0000
0300
,
0020
0000
0000
0000
,
0032
0000
0000
0003
,
0200
0000
0000
0000
,
0320
0000
0000
0000
0030
0000
0000
2002
,
0000
0000
0000
0000
,
3003
0000
0000
0100
,
1001
0100
2001
3010
,
0200
0302
0023
0230
,
2300
3020
0032
0023
,
1030
0000
0001
0020
0000
0000
0130
0000
,
2100
3010
0102
0013
,
0100
0000
1000
0001
0000
1000
0000
1020
,
0000
0130
0010
1000
,
0001
0000
0100
0010
0000
1000
0000
0021
,
0000
0130
0010
0001
,
2000
3100
0002
0103
,
1000
0000
0001
0100
0000
0010
0000
1002
,
0000
0100
0003
0100
,
0010
0000
1000
0000
0100
0010
0000
2002
,
0000
3003
0000
0000
,
2001
0000
3100
0000
0001
0100
0001
0000
,
2000
0000
3010
0000
0001
0010
0001
0000
,
2000
0000
3100
0000
0001
0100
0001
0000
,
2000
0000
3010
0200
0000
0000
0310
0000
,
1002
0000
0013
0000
1000
0010
1000
0000
,
0002
0000
0103
0000
1000
0100
1000
0000
,
0002
0000
0013
0000
1000
0010
1000
0000
,
0001
0000
0100
0020
0000
0130
0010
0000
,
1001
0100
1001
0100
,
0110
0110
1010
0011
,
0110
1000
0110
1000
,
1001
1001
0011
0101
,
0010
1001
0010
1001
,
1100
0000
1100
0000
0101
0000
0010
0200
,
0000
0000
0310
1000
0001
0000
1000
0000
,
1100
0000
0000
0101
0000
0000
2002
0000
,
0000
0000
0000
0000
,
0000
0000
0000
0000
,
0000
0000
0000
0000
,
0000
0000
0000
0000
,
0000
0000
0000
0000
,
0000
3003
0000
0000
;

//---------------dance-single - ----------------
#NOTEDATA:;
#CHARTNAME:;
#STEPSTYPE:dance-single;
#DESCRIPTION:;
#CHARTSTYLE:;
#DIFFICULTY:Easy;
#METER:7;
#RADARVALUES:0.288290,0.346481,0.149193,0.486840,0.000000,257.000000,238.000000,19.000000,62.000000,0.000000,0.000000,0.000000,0.000000,0.000000,0.288290,0.346481,0.149193,0.486840,0.000000,257.000000,238.000000,19.000000,62.000000,0.000000,0.000000,0.000000,0.000000,0.000000;
#CREDIT:led_light;
#NOTES:
0000
0000
0000
0000
,
0000
0000
0000
0000
,
0000
0000
0000
0000
,
0000
0000
0000
0000
,
0000
0000
0000
0000
,
2001
3100
0001
0100
,
2000
3100
0001
0100
,
2000
3010
0001
0010
,
2000
3100
1000
0002
,
0003
0110
0001
0010
,
2000
3010
0001
0010
,
0100
0000
0000
1000
0000
0000
0202
0000
,
0000
0000
0000
0303
,
1000
0001
0000
0001
,
0010
0100
0000
0100
,
1000
0001
0000
0001
,
2000
3100
0000
0100
,
0001
0100
0000
0100
,
1000
0010
0000
0010
,
0100
0001
0000
0001
,
2000
3000
0002
0003
,
0101
0000
1000
0000
,
0200
0300
1000
0001
,
0011
0000
0100
0000
,
2000
3000
0010
0000
,
1000
0100
0001
0000
,
1000
0010
0001
0000
,
0220
0000
0330
0000
,
2000
0000
0002
3003
,
1001
0100
0001
0100
,
0010
1000
0010
1000
,
0100
0001
0100
1000
,
0001
1000
0001
0010
,
0100
0010
0100
1000
,
0001
0010
1000
0010
,
0001
0100
0010
1000
,
0002
0003
2000
3000
,
0001
0010
0100
0010
,
0002
0003
2000
3000
,
0100
0100
0010
0001
,
0100
0010
0200
0300
,
1010
0000
0011
0000
,
0100
0010
0100
1000
,
0002
0003
0100
0000
,
2002
3003
0020
0030
,
2000
0000
0000
0000
,
3002
0000
0000
0003
,
0020
0000
0000
0000
,
0230
0000
0000
0300
,
2000
0000
0000
0000
,
3020
0000
0000
0000
0030
0000
0000
0220
,
0000
0000
0000
0000
,
0330
0000
0000
0000
,
2000
3010
0002
0013
,
2000
3020
0230
0302
,
1003
0100
0001
0100
,
1000
0000
0001
2000
0000
0000
3001
0000
,
0200
0310
2000
3001
,
0100
0000
0001
1000
0000
0010
0000
0200
,
0000
0310
0100
0001
,
1000
0000
0001
1000
0000
0001
0000
0220
,
0000
0330
0001
1000
,
0200
0301
0200
1300
,
0001
0000
0100
0001
0000
1000
0000
0020
,
0000
0030
0100
0001
,
0010
0000
0100
0000
1000
0001
0000
0220
,
0000
0330
0000
0000
,
2001
3100
0001
0100
,
2000
3100
0001
0100
,
2000
3010
0001
0010
,
1000
1000
0001
1000
,
1002
0013
1000
0010
,
0002
0013
1000
0010
,
0002
0103
1000
0100
,
0001
0001
1000
0001
,
0100
0010
0100
0010
,
1000
0001
1000
0001
,
0010
0010
0100
0100
,
0010
0100
2002
3003
,
0010
0000
0110
0000
,
0001
0000
0001
0000
0010
0000
0100
2000
,
0000
3100
0010
0001
,
1100
0000
0000
0001
0000
0000
0220
0000
,
0000
0000
0000
0000
,
0000
0000
0000
0000
,
0000
0000
0000
0000
,
0000
0000
0000
0000
,
0000
0000
0000
0000
,
0000
0330
0000
0000
;

//---------------dance-single - ----------------
#NOTEDATA:;
#CHARTNAME:;
#STEPSTYPE:dance-single;
#DESCRIPTION:;
#CHARTSTYLE:;
#DIFFICULTY:Beginner;
#METER:4;
#RADARVALUES:0.153680,0.277185,0.109932,0.188454,0.000000,137.000000,123.000000,14.000000,24.000000,0.000000,0.000000,0.000000,0.000000,0.000000,0.153680,0.277185,0.109932,0.188454,0.000000,137.000000,123.000000,14.000000,24.000000,0.000000,0.000000,0.000000,0.000000,0.000000;
#CREDIT:led_light;
#NOTES:
0000
0000
0000
0000
,
0000
0000
0000
0000
,
0000
0000
0000
0000
,
0000
0000
0000
0000
,
0000
0000
0000
0000
,
1000
0000
0100
0000
,
0001
0000
0100
0000
,
1000
0000
0100
0000
,
0001
0000
1000
0000
,
0000
0000
0010
0000
,
0001
0000
1000
0000
,
0010
0000
0000
0220
,
0000
0000
0000
0330
,
0010
0000
0000
0000
,
0100
0000
0000
0000
,
0001
0000
0000
0000
,
2000
0000
3000
0000
,
0001
0000
0000
0000
,
0010
0000
0000
0000
,
0100
0000
0000
0000
,
2000
0000
3000
0000
,
0010
0000
0000
0000
,
0010
0000
0000
0000
,
0100
0000
0000
0000
,
0100
0000
0000
0000
,
0001
0000
0000
0000
,
1000
0000
0000
0000
,
0220
0000
0330
0000
,
2002
0000
3003
0000
,
0100
0000
0100
0000
,
0010
0000
0010
0000
,
0100
0000
1000
0000
,
0002
0000
0003
0000
,
0010
0000
0001
0000
,
0010
0000
0100
0000
,
1000
0000
0010
0000
,
2000
0000
3000
0000
,
0001
0000
0001
0000
,
0100
0000
0001
0000
,
1000
0000
0100
0000
,
0010
0000
0010
0000
,
0100
0000
0110
0000
,
0001
0000
0100
0000
,
2002
0000
3003
0000
,
0220
0000
0330
0000
,
2000
0000
0000
0000
,
3000
0000
0000
0000
,
0002
0000
0000
0000
,
0003
0000
0000
0000
,
0020
0000
0000
0000
,
0030
0000
0000
0000
,
0220
0000
0000
0000
,
0330
0000
0000
0000
,
1000
0000
0001
0000
,
0100
0100
0100
0000
,
0001
0000
1000
0000
,
0110
0000
0000
0000
,
0001
0000
1000
0000
,
0010
0010
0010
0000
,
1000
0000
0100
0000
,
0010
0000
0010
0000
,
0110
0000
0001
0000
,
2000
3000
0100
0000
,
0002
0003
0100
0000
,
0020
0000
0030
0000
,
0100
0000
0100
0000
,
1001
0000
0000
0000
,
1000
0000
0010
0000
,
0001
0000
0010
0000
,
1000
0000
0010
0000
,
0001
0000
0001
0000
,
1000
0000
0100
0000
,
0001
0000
0100
0000
,
1000
0000
0100
0000
,
0001
0000
0001
0000
,
0100
0000
1001
0000
,
0010
0010
0010
0000
,
0001
0000
0110
0000
,
1000
1000
1000
0000
,
0100
0000
1001
0000
,
0010
0010
0010
0000
,
1000
0000
0001
0000
,
0100
0000
0000
2002
,
0000
0000
0000
0000
,
0000
0000
0000
0000
,
0000
0000
0000
0000
,
0000
0000
0000
0000
,
0000
0000
0000
0000
,
0000
3003
0000
0000
;

//---------------dance-double - ----------------
#NOTEDATA:;
#CHARTNAME:;
#STEPSTYPE:dance-double;
#DESCRIPTION:;
#CHARTSTYLE:;
#DIFFICULTY:Hard;
#METER:12;
#RADARVALUES:0.458796,0.623665,0.345499,0.636032,0.000000,409.000000,365.000000,44.000000,81.000000,0.000000,0.000000,0.000000,0.000000,0.000000,0.458796,0.623665,0.345499,0.636032,0.000000,409.000000,365.000000,44.000000,81.000000,0.000000,0.000000,0.000000,0.000000,0.000000;
#CREDIT:led_light;
#NOTES:
// measure 0
00000000
00000000
00000000
00000000
,  // measure 1
00000000
00000000
00000000
00000000
,  // measure 2
00000000
00000000
00000000
00000000
,  // measure 3
00000000
00000000
00000000
00000000
,  // measure 4
00000000
00000000
00000000
00000000
,  // measure 5
00000102
00000000
00001003
00000010
00010000
00001000
00000010
00000002
,  // measure 6
00000100
00000000
00001003
00000010
00010000
00001000
00000010
00000002
,  // measure 7
00000100
00000000
00001003
00000010
00010000
00001000
00000000
00210000
,  // measure 8
00000000
01300000
10000000
00010000
00000000
02000000
10000000
00000000
,  // measure 9
03100000
00000000
01010000
00010000
10000000
00100000
00010000
00002000
,  // measure 10
00000000
00000000
00013000
00001000
00010000
01000000
10000000
00010000
,  // measure 11
00100000
01000000
00100000
00001000
00000000
00010000
00022000
00000000
,  // measure 12
00000000
00000000
00000000
00003000
,  // measure 13
00031000
00000000
00100000
00000000
00000000
00001000
00010000
00002000
,  // measure 14
00000000
00003000
00010000
00000000
00000000
00000000
00010000
00000000
,  // measure 15
00001100
00000000
00001000
00000001
00000000
00000100
00000000
00000020
,  // measure 16
00000000
00000000
00001030
00000000
00000000
00000001
00000100
00001000
,  // measure 17
00000000
00001000
00000100
00000001
00000000
00000001
00000010
00002000
,  // measure 18
00000000
00003010
00001000
00010000
,  // measure 19
00011000
00000000
00001000
00010000
00000000
01000000
00000000
21000000
,  // measure 20
00000000
00000000
00010000
00000000
30000000
00010000
01000000
00100000
,  // measure 21
10000000
00000000
00010000
00000000
00000000
00000000
00100000
01000000
,  // measure 22
00000000
00200000
00000000
00300000
00000000
01000000
10000000
00000000
,  // measure 23
00020000
00000000
01030000
00100000
00000000
00010000
00000000
00002000
,  // measure 24
00000000
00003100
00000010
00000200
00000000
00000000
00000310
00000000
,  // measure 25
00002000
00000000
00003002
00000000
00000203
00000000
00000310
00001000
,  // measure 26
00000000
00000100
00000000
00000010
00000000
00000100
00010000
00002000
,  // measure 27
00000000
00000000
00013000
00000000
01000000
10000000
00000000
02000000
,  // measure 28
00000000
03100000
00010000
20000000
00000000
00000000
30000000
00000000
,  // measure 29
10010000
00000000
00010000
01000000
00100000
01000000
10000000
01000000
,  // measure 30
00020000
00130000
00200000
00301000
,  // measure 31
00012000
00000000
00013000
00000010
00001000
00000100
00000010
00000100
,  // measure 32
00002000
00000000
00003001
00000000
00000010
00000001
00000100
00000010
,  // measure 33
00000000
00000100
00000010
00001000
00000000
00000001
00000010
00001000
,  // measure 34
00020000
00031000
00002000
00003100
,  // measure 35
00000020
00000000
00010030
00001000
00000000
00100000
00000000
00012000
,  // measure 36
00000000
00000000
00010000
00000000
00003000
00001000
00100000
00010000
,  // measure 37
01000000
00000000
01100000
00000000
00020000
00000000
10030000
01000000
,  // measure 38
00100000
00010000
10000000
00000000
01000000
00100000
00010000
01000000
,  // measure 39
00200000
00000000
01300000
00001000
00010000
00001000
00100000
02000000
,  // measure 40
00000000
03010000
00001000
00000010
00000002
00000000
00000103
00000010
,  // measure 41
00000110
00000000
00001000
00000001
00001001
00000000
00001000
00000001
,  // measure 42
00000010
00000100
00000010
00001000
00000000
00010000
01000000
00200000
,  // measure 43
00000000
00000000
01300000
00000000
10000000
00010000
00000000
00012000
,  // measure 44
00000000
00103000
00010000
10000000
00200000
00000000
01300000
00010000
,  // measure 45
20000000
00000000
00000000
00000000
,  // measure 46
32000000
00000000
00000000
03000000
,  // measure 47
00020000
00000000
00000000
00000000
,  // measure 48
00032000
00000000
00000000
00003000
,  // measure 49
00000200
00000000
00000000
00000000
,  // measure 50
00000320
00000000
00000000
00000000
00000030
00000000
00000000
00002002
,  // measure 51
00000000
00000000
00000000
00000000
,  // measure 52
00003003
00000000
00000000
00000000
00000000
00000000
00000010
00000001
,  // measure 53
00002001
00003010
00000210
00000301
,  // measure 54
00000020
00002030
00023000
00230000
,  // measure 55
20300000
32000000
03020000
00032000
,  // measure 56
00003100
00000001
00000010
00002000
00000000
00003010
00000001
00000000
,  // measure 57
00002001
00003100
00000012
00000103
,  // measure 58
00000020
00000000
00000031
00000010
00001000
00000010
00000000
00001002
,  // measure 59
00000000
00000103
00000010
00001000
,  // measure 60
00000001
00000010
00001000
00010000
00000000
00110000
00000000
20100000
,  // measure 61
00000000
00000000
31000000
00000000
00100000
00010000
00001000
00000100
,  // measure 62
00000020
00000031
00000200
00000310
,  // measure 63
00002000
00000000
00003100
00010000
00000000
00011000
00000000
02010000
,  // measure 64
00000000
00000000
03002000
00000000
00013000
01000000
10000000
00000000
,  // measure 65
01000000
00100000
01000000
00100000
00001000
00010000
00000000
00002020
,  // measure 66
00000000
00003030
00000000
00000000
,  // measure 67
00000102
00000000
00001003
00000010
00010000
00001000
00000010
00000002
,  // measure 68
00000100
00000000
00001003
00000010
00010000
00001000
00000010
00000002
,  // measure 69
00000100
00000000
00001003
00000010
00010000
00001000
00000000
00110000
,  // measure 70
00000000
01000000
10000000
00200000
00000000
00000000
01300000
00000000
,  // measure 71
20100000
00000000
30010000
01000000
00001000
00010000
01000000
20000000
,  // measure 72
00100000
00000000
30010000
01000000
00001000
00010000
01000000
20000000
,  // measure 73
00100000
00000000
30010000
01000000
00001000
00010000
00000000
00001100
,  // measure 74
00000000
00000010
00000001
00002000
00000000
00003001
00000100
00000010
,  // measure 75
00001010
00001010
00011000
00011000
,  // measure 76
01100000
00011000
00001100
00001100
,  // measure 77
00012000
00000000
00103000
00000000
00011000
00001000
01000000
00100000
,  // measure 78
00010000
00001000
00000010
00000000
00000120
00000000
00000031
00000000
,  // measure 79
00001000
00000000
00000101
00000100
00000010
00000000
00000100
00000001
,  // measure 80
00000010
00001000
00010000
00001000
00000010
00000001
00001000
00000020
,  // measure 81
00000000
00000000
00000130
00000001
00000010
00001000
00010000
00001000
,  // measure 82
00011000
00000000
00000000
01100000
00000000
00000000
20020000
00000000
,  // measure 83
00000000
00000000
00000000
00000000
,  // measure 84
00000000
00000000
00000000
00000000
,  // measure 85
00000000
00000000
00000000
00000000
,  // measure 86
00000000
00000000
00000000
00000000
,  // measure 87
00000000
00000000
00000000
00000000
,  // measure 88
00000000
30030000
00000000
00000000
;

//---------------dance-double - ----------------
#NOTEDATA:;
#CHARTNAME:;
#STEPSTYPE:dance-double;
#DESCRIPTION:;
#CHARTSTYLE:;
#DIFFICULTY:Medium;
#METER:10;
#RADARVALUES:0.378030,0.623665,0.384760,0.636032,0.000000,337.000000,288.000000,49.000000,81.000000,0.000000,0.000000,0.000000,0.000000,0.000000,0.378030,0.623665,0.384760,0.636032,0.000000,337.000000,288.000000,49.000000,81.000000,0.000000,0.000000,0.000000,0.000000,0.000000;
#CREDIT:led_light;
#NOTES:
// measure 0
00000000
00000000
00000000
00000000
,  // measure 1
00000000
00000000
00000000
00000000
,  // measure 2
00000000
00000000
00000000
00000000
,  // measure 3
00000000
00000000
00000000
00000000
,  // measure 4
00000000
00000000
00000000
00000000
,  // measure 5
00210000
00000000
00301000
00000000
00000100
00000010
00000100
00000000
,  // measure 6
00002000
00000000
00013000
00000000
01000000
00100000
01000000
00000000
,  // measure 7
00020000
00000000
00031000
00000000
00000010
00000100
00000010
00000000
,  // measure 8
00002000
00000000
00013000
00100000
00000000
00010000
00002000
00000000
,  // measure 9
00013000
00000000
00011000
00000000
00010000
01000000
00000000
20000000
,  // measure 10
00000000
00000000
30100000
00000000
01000000
00010000
00100000
00000000
,  // measure 11
00001000
00000000
00010000
00000100
00000000
00001000
00000020
00000000
,  // measure 12
00000000
00000000
00000000
00000000
,  // measure 13
00000130
00000001
00000000
00000001
,  // measure 14
00002000
00003100
00000000
00000100
,  // measure 15
00001001
00000000
00000010
00000000
00000000
00000001
00000000
00002000
,  // measure 16
00000000
00003010
00000000
00000100
,  // measure 17
00001010
00010000
00000000
00010000
,  // measure 18
00002000
00103000
00000000
00100000
,  // measure 19
10010000
00000000
01000000
00000000
00000000
10000000
00000000
00200000
,  // measure 20
00000000
00000000
01000000
00000000
00300000
01000000
00001000
00000000
,  // measure 21
00011000
00000000
00000000
00000000
01000000
00000000
00001000
00020000
,  // measure 22
00000000
00032000
00000000
00003000
00000000
00000100
00000001
00000000
,  // measure 23
00001001
00000000
00001000
00000100
00000000
00000010
00000000
00000002
,  // measure 24
00000000
00002003
00000000
00003002
00000000
00000000
00000103
00000000
,  // measure 25
00000020
00000000
00001030
00000000
00000200
00000000
00010300
00001000
,  // measure 26
00000000
01000000
00000000
00100000
00000000
01000000
00000000
20020000
,  // measure 27
00000000
00000000
30030000
00000000
01000000
00000000
00000000
00220000
,  // measure 28
00000000
00330000
00000000
00022000
00000000
00000000
00033000
00000000
,  // measure 29
00001010
00000000
00000100
00000001
00000010
00000000
00001000
00000000
,  // measure 30
00020000
00030100
00000200
00000310
,  // measure 31
00000001
00000000
00000100
00000010
00001000
00000000
00000001
00000000
,  // measure 32
00000020
00000000
00000130
00000000
00001000
00000100
00001000
00000100
,  // measure 33
00000000
00010000
00001000
00010000
00000000
00001000
01000000
00020000
,  // measure 34
00000000
00130000
01000000
10000000
,  // measure 35
00200000
00000000
01300000
00010000
00000000
10000000
00000000
12000000
,  // measure 36
00000000
00000000
00100000
00000000
03000000
01000000
10000000
00000000
,  // measure 37
00020000
00130000
00200000
00301000
,  // measure 38
00010000
00100000
00010000
00000000
00001000
00000100
00001000
00000000
,  // measure 39
00020000
00030010
00000020
00000130
,  // measure 40
00002000
00003200
00000302
00000013
,  // measure 41
00000110
00000000
00001001
00000000
,  // measure 42
00000001
00000000
00000010
00000000
00001000
00000000
00010000
00000020
,  // measure 43
00000000
00000000
00000130
00000000
00001000
00010000
00000000
02000000
,  // measure 44
00000000
13000000
01000000
00200000
00000000
00000000
01300000
00000000
,  // measure 45
20000000
00000000
00000000
00000000
,  // measure 46
30020000
00000000
00000000
00030000
,  // measure 47
00002000
00000000
00000000
00000000
,  // measure 48
00023000
00000000
00000000
00030000
,  // measure 49
00002000
00000000
00000000
00000000
,  // measure 50
00003020
00000000
00000000
00000000
00000030
00000000
00000000
00002002
,  // measure 51
00000000
00000000
00000000
00000000
,  // measure 52
00003003
00000000
00000000
00000010
,  // measure 53
00002001
00003100
00001002
00000103
,  // measure 54
00000002
00000023
00002030
00023000
,  // measure 55
02030000
23000000
32000000
03020000
,  // measure 56
00031000
00000000
00000100
00000002
00000000
00000000
00000103
00000000
,  // measure 57
00002010
00003100
00000210
00001300
,  // measure 58
00000010
00000000
00010000
00001000
00000000
00100000
00000000
20010000
,  // measure 59
00000000
31000000
00100000
00010000
,  // measure 60
00010000
01000000
00100000
10000000
00000000
00010000
00000000
00210000
,  // measure 61
00000000
00000000
01300000
00000000
00100000
00010000
10000000
00000000
,  // measure 62
00200000
01300000
02000000
03001000
,  // measure 63
00010000
00000000
00000100
00010000
00000000
00001000
00000000
00010020
,  // measure 64
00000000
00000100
00000030
00000100
,  // measure 65
00000001
00000000
00000010
00000000
00001000
00010000
00000000
00022000
,  // measure 66
00000000
00033000
00000000
00000000
,  // measure 67
00001020
00000000
00010030
00000000
01000000
00100000
01000000
00000000
,  // measure 68
00020000
00000000
00031000
00000000
00000100
00000010
00000100
00000000
,  // measure 69
00002000
00000000
00013000
00000000
00100000
01000000
00000000
00100000
,  // measure 70
00000000
00010000
00001000
00000020
00000000
00000000
00000130
00000000
,  // measure 71
00001200
00000000
00010300
00000000
00100000
01000000
00100000
00000000
,  // measure 72
00020000
00000000
00031000
00000000
00000010
00000100
00000010
00000000
,  // measure 73
00002000
00000000
00013000
00000000
01000000
00100000
00000000
01000000
,  // measure 74
00000000
00010000
00001000
00000200
00000000
00000310
00000100
00000000
,  // measure 75
00001001
00001001
00000011
00000011
,  // measure 76
00001010
00011000
00110000
00110000
,  // measure 77
10100000
11000000
01010000
11000000
,  // measure 78
01100000
00110000
00022000
00033000
,  // measure 79
00100000
10010000
01100000
01100000
,  // measure 80
01010000
00000000
00011000
00000000
00001100
00000000
00000001
00002000
,  // measure 81
00000000
00000000
00003010
00000100
00000001
00000000
00001000
00000000
,  // measure 82
00001001
00000000
00000000
00010100
00000000
00000000
02002000
00000000
,  // measure 83
00000000
00000000
00000000
00000000
,  // measure 84
00000000
00000000
00000000
00000000
,  // measure 85
00000000
00000000
00000000
00000000
,  // measure 86
00000000
00000000
00000000
00000000
,  // measure 87
00000000
00000000
00000000
00000000
,  // measure 88
00000000
03003000
00000000
00000000
;

//---------------dance-double - ----------------
#NOTEDATA:;
#CHARTNAME:;
#STEPSTYPE:dance-double;
#DESCRIPTION:;
#CHARTSTYLE:;
#DIFFICULTY:Easy;
#METER:6;
#RADARVALUES:0.253516,0.381129,0.227715,0.408317,0.000000,226.000000,197.000000,29.000000,52.000000,0.000000,0.000000,0.000000,0.000000,0.000000,0.253516,0.381129,0.227715,0.408317,0.000000,226.000000,197.000000,29.000000,52.000000,0.000000,0.000000,0.000000,0.000000,0.000000;
#CREDIT:led_light;
#NOTES:
// measure 0
00000000
00000000
00000000
00000000
,  // measure 1
00000000
00000000
00000000
00000000
,  // measure 2
00000000
00000000
00000000
00000000
,  // measure 3
00000000
00000000
00000000
00000000
,  // measure 4
00000000
00000000
00000000
00000000
,  // measure 5
00210000
00301000
00010000
00001000
,  // measure 6
02000000
03001000
00010000
00001000
,  // measure 7
00200000
00301000
00010000
00001000
,  // measure 8
00000200
00000301
00001000
00000002
,  // measure 9
00000003
00001001
00000001
00000010
,  // measure 10
00002000
00013000
00000100
00010000
,  // measure 11
00001000
00000000
00000000
00000100
00000000
00000000
00000220
00000000
,  // measure 12
00000000
00000000
00000000
00000330
,  // measure 13
00000001
00000000
00000000
00000000
,  // measure 14
00001000
00000000
00000000
00000000
,  // measure 15
00000101
00000000
00000000
00000000
,  // measure 16
00001000
00000000
00000000
00000000
,  // measure 17
00010100
00000000
00000000
00000000
,  // measure 18
00001000
00000000
00000000
00000000
,  // measure 19
01010000
00000000
00000000
00000000
,  // measure 20
00200000
00000000
00300000
00000000
,  // measure 21
10010000
00000000
10000000
00000000
,  // measure 22
00010000
00000000
00000000
00000000
,  // measure 23
01100000
00000000
01000000
00000000
,  // measure 24
00100000
00000000
00000000
00000000
,  // measure 25
10000000
01000000
00010000
00000000
,  // measure 26
00001000
00000100
00000001
00000000
,  // measure 27
00000220
00000000
00000330
00000000
,  // measure 28
00002002
00000000
00003003
00000000
,  // measure 29
00000001
00000100
00000001
00000100
,  // measure 30
00001000
00010000
00001000
00010000
,  // measure 31
01000000
10000000
01000000
10000000
,  // measure 32
00200000
00300000
01100000
00000000
,  // measure 33
10000000
01000000
10000000
01000000
,  // measure 34
00010000
00001000
00010000
00001000
,  // measure 35
00000010
00000001
00000010
00000001
,  // measure 36
00002000
00000000
00003001
00000000
,  // measure 37
00000100
00001000
00000100
00000000
,  // measure 38
00000002
00000000
00000013
00000000
,  // measure 39
00001000
00010000
01000000
00000000
,  // measure 40
00010000
00001000
00000100
00000000
,  // measure 41
00000110
00000000
00001001
00000000
,  // measure 42
00000001
00000100
00001000
00000000
,  // measure 43
00002100
00000000
00013000
00000000
,  // measure 44
00021000
00000000
01030000
00000000
,  // measure 45
20000000
00000000
00000000
00000000
,  // measure 46
30000000
00000000
00000000
00000000
,  // measure 47
00020000
00000000
00000000
00000000
,  // measure 48
00030000
00000000
00000000
00000000
,  // measure 49
00002000
00000000
00000000
00000000
,  // measure 50
00003000
00000000
00000000
00000000
00000000
00000000
00000000
00000220
,  // measure 51
00000000
00000000
00000000
00000000
,  // measure 52
00000330
00000000
00000000
00000000
,  // measure 53
00000002
00000013
00000200
00000310
,  // measure 54
00002000
00023000
00032000
00023000
,  // measure 55
00031000
00100000
00010000
01000000
,  // measure 56
00100000
00000000
00000000
20000000
00000000
00000000
30000000
00000000
,  // measure 57
00020000
01030000
20000000
31000000
,  // measure 58
00010000
00000000
00000000
00100000
00000000
00001000
00000000
00020000
,  // measure 59
00000000
00031000
00010000
00000100
,  // measure 60
00010000
00000000
00000000
00001000
00000000
00001000
00000000
00022000
,  // measure 61
00000000
00033000
00010000
00000010
,  // measure 62
00000200
00000300
00000002
00000003
,  // measure 63
00000010
00000000
00000000
00000100
00000000
00000100
00000000
00000020
,  // measure 64
00000000
00000000
00000130
00000000
,  // measure 65
00010000
00000000
00001000
00000000
00100000
00000000
00000000
00022000
,  // measure 66
00000000
00033000
00000000
00000000
,  // measure 67
00210000
00301000
00010000
00001000
,  // measure 68
02000000
03001000
00010000
00001000
,  // measure 69
00200000
00301000
00010000
00001000
,  // measure 70
00000100
00000001
00002000
00003000
,  // measure 71
00001200
00010300
00001000
00010000
,  // measure 72
00000020
00010030
00001000
00010000
,  // measure 73
00000200
00010300
00001000
00010000
,  // measure 74
00100000
10000000
00010000
10000000
,  // measure 75
11000000
00000000
01010000
00000000
,  // measure 76
01100000
01100000
20000000
30000000
,  // measure 77
01000000
01000000
00010000
00010000
,  // measure 78
00001000
00010000
00002000
00003000
,  // measure 79
00001010
00000000
00000011
00000000
,  // measure 80
00000110
00000110
00001000
00000002
,  // measure 81
00000003
00000100
00001000
00010000
,  // measure 82
00001000
00000000
00000000
00010000
00000000
00000000
00022000
00000000
,  // measure 83
00000000
00000000
00000000
00000000
,  // measure 84
00000000
00000000
00000000
00000000
,  // measure 85
00000000
00000000
00000000
00000000
,  // measure 86
00000000
00000000
00000000
00000000
,  // measure 87
00000000
00000000
00000000
00000000
,  // measure 88
00000000
00033000
00000000
00000000
;
