#TITLE:gentle stress;
#SUBTITLE:wobble rmx;
#ARTIST:fu_mou;
#TITLETRANSLIT:;
#SUBTITLETRANSLIT:;
#ARTISTTRANSLIT:;
#GENRE:BEMANI;
#CREDIT:;
#BANNER:gentle stress wobble rmx.png;
#BACKGROUND:gentle stress wobble rmx-bg.png;
#LYRICSPATH:;
#CDTITLE:../cdtitle.png;
#MUSIC:gentle stress wobble rmx.ogg;
#OFFSET:-0.457000;
#SAMPLESTART:29.256001;
#SAMPLELENGTH:15.000000;
#SELECTABLE:YES;
#BPMS:0.000000=175.000000
;
#STOPS:
;
#BGCHANGES:-99.000=../bg.avi=1.000=0=0=1=====,
99999=-nosongbg-=1.000=0=0=0 // don't automatically add -songbackground-
;
#KEYSOUNDS:;
#ATTACKS:;

//---------------dance-double - ----------------
#NOTES:
     dance-double:
     :
     Easy:
     9:
     0.362286,0.460434,0.104362,0.041745,0.000000,243.000000,233.000000,10.000000,4.000000,0.000000,0.000000,0.362286,0.460434,0.104362,0.041745,0.000000,243.000000,233.000000,10.000000,4.000000,0.000000,0.000000:
00000000
00000000
00000000
00000000
,
00000000
00000000
00000000
00000000
,
00000000
00000000
00000000
00000000
,
00000000
00000000
00000000
00000000
,
00000000
00000000
00000000
00000000
,
00000000
00000000
00000000
00000000
,
00000000
00000000
00000000
00000000
,
00000000
00000000
00000000
00000000
,
00000000
00000000
00000000
00000000
,
00001000
00000100
00000001
00001000
,
00000010
00001000
00000100
00000001
,
00001000
00000010
00000001
00000100
,
00000010
00001000
00000100
00000100
,
00010000
01000000
10000000
00010000
,
00100000
00010000
01000000
10000000
,
00010000
00100000
10000000
01000000
,
00100000
00010000
10000000
10000000
,
02000000
00100000
00000000
00100000
,
00000000
10000000
00000000
10000000
,
03010000
00010000
00010000
00010000
,
00001000
00001000
00001000
00110000
,
00001010
00000000
00000001
00000000
00001000
00000100
00010000
00000000
,
00001000
00000000
01000000
00010000
00000000
01000000
10000000
00000000
,
00110000
00000000
10000000
00000000
00100000
01000000
00010000
00000000
,
00001000
00000000
00000010
00001000
00000000
00000100
00000001
00000000
,
00001000
00000000
00000010
00000000
00000001
00000100
00000010
00000000
,
00010000
00000000
00000100
00001000
00000000
00010000
00001000
00000000
,
00100000
00000000
01000000
00000000
00100000
00010000
01000000
00000000
,
20000000
00000000
00000000
30000000
,
01010000
00000000
10000000
00000000
00010000
00100000
00001000
00000000
,
00010000
00000000
00000010
00001000
00000000
00000010
00000001
00000000
,
00001100
00000000
00000001
00000000
00000100
00000010
00001000
00000000
,
00010000
00000000
01000000
00010000
00000000
00100000
10000000
00000000
,
00010000
00000000
01000000
00000000
10000000
00100000
01000000
00000000
,
00001000
00000000
00100000
00010000
00000000
00001000
00010000
00000000
,
00000100
00000000
00000010
00000000
00000100
00001000
00000010
00000000
,
00000002
00000000
00000000
00000003
,
00001000
00000100
00000001
00000010
,
00001000
00000000
00000100
00000001
00000000
00000000
00000000
00000000
,
00010000
01000000
10000000
00100000
,
00010000
00000000
01000000
10000000
00000000
00000000
00000000
00000000
,
00100000
00000000
10000000
00000000
00000000
00010000
00000000
00000000
,
00001000
00000000
00000000
00000001
00000000
00000000
00000100
00000000
,
00001000
00010000
00010000
00001000
,
00000000
00000000
00000000
00000000
,
00010000
00100000
10000000
01000000
,
00010000
00000000
00100000
10000000
00000000
00000000
00000000
00000000
,
00001000
00000010
00000001
00000100
,
00001000
00000000
00000010
00000001
00000000
00000000
00000000
00000000
,
00000100
00000000
00000001
00000000
00000000
00001000
00000000
00000000
,
00010000
00000000
00000000
10000000
00000000
00000000
00100000
00000000
,
01010000
01000000
01000000
01000000
,
00010000
00010000
00010000
00010100
,
00101000
00000000
00000100
00000000
00001000
00000010
00000001
00000000
,
00000100
00000000
00001000
00010000
00000000
01000000
00010000
00000000
,
00100000
00000000
00010000
00000000
10000000
00100000
01000000
00000000
,
00010000
00000000
10000000
00100000
00000000
00010000
00100000
00000000
,
01000000
00000000
00001000
00000000
00000000
00000010
00000000
00000000
,
00000001
00000000
00000000
00001000
00000000
00000000
00010000
00000000
,
01000000
10000000
00100000
00100000
,
00020000
00000000
00000000
00001000
00000000
00000000
00031000
00000000
,
00010100
00000000
00100000
00000000
00010000
01000000
10000000
00000000
,
00100000
00000000
00010000
00001000
00000000
00000010
00001000
00000000
,
00000100
00000000
00001000
00000000
00000001
00000100
00000010
00000000
,
00001000
00000000
00000001
00000100
00000000
00001000
00000100
00000000
,
00000010
00000000
00010000
00000000
00000000
01000000
00000000
00000000
,
10000000
00000000
00000000
00010000
00000000
00000000
00001000
00000000
,
00000100
00000000
00001000
00000000
00000010
00000001
00000000
00001100
;

//---------------dance-double - ----------------
#NOTES:
     dance-double:
     :
     Medium:
     11:
     0.444285,0.531270,0.187852,0.031309,0.010436,298.000000,280.000000,18.000000,3.000000,0.000000,0.000000,0.444285,0.531270,0.187852,0.031309,0.010436,298.000000,280.000000,18.000000,3.000000,0.000000,0.000000:
00000000
00000000
00000000
00000000
,
00000000
00000000
00000000
00000000
,
00000000
00000000
00000000
00000000
,
00000000
00000000
00000000
00000000
,
00000000
00000000
00000000
00000000
,
00000000
00000000
00000000
00000000
,
00000000
00000000
00000000
00000000
,
00000000
00000000
00000000
00000000
,
00000000
00000000
00000000
00000000
,
01000000
00000000
10000000
00000000
00100000
01000000
00010000
00000000
,
01000000
00000000
00001000
00001000
00000000
00010000
00010000
00000000
,
00000100
00000000
00000010
00000000
00001000
00000100
00000001
00000000
,
00001000
00000000
00000010
00000001
00000000
00000100
00001000
00000000
,
00000010
00000000
00000001
00000000
00000100
00000010
00001000
00000000
,
00000010
00000000
00010000
00010000
00000000
00001000
00001000
00000000
,
00100000
00000000
01000000
00000000
00010000
00100000
10000000
00000000
,
00010000
00000000
01000000
10000000
00000000
00100000
00010000
00000000
,
00002000
00000100
00000000
00000010
,
00000000
00000100
00000000
00003001
,
00000100
00000001
00000010
00000000
00000100
00001000
00000010
00000000
,
01000000
00010000
00100000
01000000
10000000
00000000
00101000
00000000
,
01010000
00000000
00001000
00000000
00010000
00100000
10000000
00000000
,
00010000
00000000
01000000
00010000
00001000
00010000
01000000
00000000
,
00010010
00000000
00001000
00000000
00000001
00000010
00001000
00000000
,
00000100
00000000
00000001
00000100
00001000
00000010
00000001
00000000
,
00000110
00000000
00001000
00000000
00010000
00001000
00000100
00000000
,
00010000
00000000
01000000
01000000
10000000
00010000
00010000
00000000
,
10100000
00000000
01000000
00000000
10000000
00100000
00010000
00000000
,
00000200
00000000
00000000
00000300
,
00001010
00000000
00010000
00000000
00001000
00000100
00000001
00000000
,
00001000
00000000
00000010
00001000
00010000
00001000
00000010
00000000
,
01001000
00000000
00010000
00000000
10000000
01000000
00010000
00000000
,
00100000
00000000
10000000
00100000
00010000
01000000
10000000
00000000
,
01100000
00000000
00010000
00000000
00001000
00010000
00100000
00000000
,
00001000
00000000
00000010
00000010
00000001
00001000
00001000
00000000
,
00000101
00000000
00000010
00000000
00000001
00000100
00001000
00000000
,
00200000
00000000
00000000
00300000
,
10000000
01000000
00100000
00010000
00000000
01000000
00000000
00000000
,
00100000
00010000
00001000
00000100
00000000
00000010
00001000
00000000
,
00000001
00000010
00000100
00001000
00000000
00000010
00000000
00000000
,
00000100
00001000
00010000
00100000
00000000
10000000
01000000
00000000
,
00100000
00000000
11000000
00000000
00000000
00100000
00000000
00000000
,
00001000
00000000
00000000
00000100
00000000
00000000
00000001
00000000
,
00001000
00000000
00000010
00000000
00010000
00000000
00000100
00001000
,
00000000
00000000
00000000
00000000
,
00000001
00000100
00000010
00001000
00000000
00000100
00000000
00000000
,
00000010
00001000
00010000
01000000
00000000
00100000
00010000
00000000
,
10000000
00100000
01000000
00010000
00000000
00100000
00000000
00000000
,
01000000
00010000
00001000
00000010
00000000
00000001
00000100
00000000
,
00000010
00000000
00000101
00000000
00000000
00000010
00000000
00000000
,
00010000
00000000
00000000
01000000
00000000
00000000
10000000
00000000
,
00100000
10000000
01000000
00000000
00100000
00010000
01000000
00000000
,
00000010
00001000
00000100
00000010
00000001
00000000
00001010
00000000
,
00110000
00000000
00001000
00000000
00010000
00100000
01000000
00000000
,
10000000
00000000
00010000
01000000
00100000
01000000
00010000
00000000
,
00001000
00000000
00000001
00000000
00001000
00000100
00000001
00000000
,
00000010
00000000
00001000
00000100
00000010
00001000
00010000
00000000
,
01000000
00000000
10100000
00000000
00000000
00010000
00000000
00000000
,
00000100
00000000
00000000
00001000
00000000
00000000
00100000
00000000
,
01000000
00000000
10000000
00000000
00100000
00010000
01000000
00000000
,
10000000
00000000
00000000
00010000
00000000
00000000
00001000
00000000
00000000
00000100
00000000
00000000
00000001
00000000
00000000
00000000
,
00001100
00000000
00010000
00000000
00001000
00000100
00000010
00000000
,
00000001
00000000
00001000
00000010
00000100
00000010
00001000
00000000
,
00010000
00000000
10000000
00000000
00010000
00100000
10000000
00000000
,
01000000
00000000
00010000
00100000
01000000
00010000
00001000
00000000
,
00000010
00000000
00000101
00000000
00000000
00001000
00000000
00000000
,
00100000
00000000
00000000
00010000
00000000
00000000
00000100
00000000
,
00000001
00000000
00000010
00001000
00010000
00110000
00000000
11000000
;

//---------------dance-double - ----------------
#NOTES:
     dance-double:
     :
     Hard:
     14:
     0.605302,0.743777,0.333960,0.166980,0.135671,406.000000,374.000000,32.000000,16.000000,0.000000,0.000000,0.605302,0.743777,0.333960,0.166980,0.135671,406.000000,374.000000,32.000000,16.000000,0.000000,0.000000:
00000000
00000000
00000000
00000000
,
00000000
00000000
00000000
00000000
,
00000000
00000000
00000000
00000000
,
00000000
00000000
00000000
00000000
,
00000000
00000000
00000000
00000000
,
00000000
00000000
00000000
00000000
,
00000000
00000000
00000000
00000000
,
00000000
00000000
00000000
00000000
,
00000000
00000000
00000000
00000000
,
00010000
00000000
00000010
00000100
00000000
00000001
00000010
00001000
,
00000100
00000000
00001000
00000010
00000001
00000100
00000010
00000000
,
00001000
00000000
00000001
00000010
00000000
00000100
00001000
00000010
,
00000100
00000000
00001000
00010000
00000000
01000000
00100000
00000000
,
00001000
00000000
01000000
00100000
00000000
10000000
01000000
00010000
,
00100000
00000000
00010000
01000000
10000000
00100000
01000000
00000000
,
00010000
00000000
10000000
01000000
00000000
00100000
00010000
01000000
,
00100000
00000000
00010000
00001000
00000000
00000100
00000010
00000000
,
00000002
00000010
00000000
00000013
,
00002000
00000100
00000000
00003100
,
00000001
00000010
00000100
00010000
00001000
00100000
00010000
10000000
,
01000000
00000000
00010000
00000000
01000000
00000000
10000000
00000000
00100000
00010000
00000000
00001000
00000000
00001000
00010000
00000000
,
00001010
00000000
00010000
00000000
00001000
00000000
00100000
00010000
00000000
00000000
10000000
00000000
01000000
00000000
00010000
00000000
,
00002000
00000000
00013000
00000100
00000100
00000100
00000001
00000000
,
00001000
00000000
00000010
00000000
00000001
00000000
00000100
00000010
00000000
00000000
00000010
00000000
00001000
00000000
00000001
00000000
,
00000020
00000000
00001030
00010000
00010000
00010000
01000000
00000000
,
10000000
00000000
10000000
00000000
00010000
00000000
01000000
00100000
00000000
00000000
10000000
00000000
00010000
00000000
00100000
00000000
,
00002000
00000000
00013000
00000010
00000100
00000010
00001000
00000000
,
00000001
00000000
00001000
00000000
00000100
00000000
00000001
00000100
00000000
00000000
00000010
00000000
00001000
00000000
00010000
00000000
,
00022000
00000000
00000000
00033000
,
01010000
00000000
00001000
00000000
00010000
00000000
00000100
00001000
00000000
00000000
00000001
00000000
00000010
00000000
00001000
00000000
,
00020000
00000000
00031000
00100000
00100000
00100000
10000000
00000000
,
00010000
00000000
01000000
00000000
10000000
00000000
00100000
01000000
00000000
00000000
01000000
00000000
00010000
00000000
10000000
00000000
,
02000000
00000000
03010000
00001000
00001000
00001000
00000010
00000000
,
00000001
00000000
00000001
00000000
00001000
00000000
00000010
00000100
00000000
00000000
00000001
00000000
00001000
00000000
00000100
00000000
,
00020000
00000000
00031000
01000000
00100000
01000000
00010000
00000000
,
10000000
00000000
00010000
00000000
00100000
00000000
10000000
00100000
00000000
00000000
01000000
00000000
00010000
00000000
00001000
00000000
,
00022000
00000000
00000000
00033000
,
10000000
01000000
00100000
00010000
01000000
00010000
00001000
00000010
,
00001000
00000100
00000010
00000001
00000000
00000100
00001000
00000000
,
00000001
00000010
00000100
00001000
00000010
00001000
00010000
01000000
,
00010000
00100000
01000000
10000000
00000000
01000000
00010000
00000000
,
00100000
00000000
11000000
00000000
00000000
00011000
00000000
00000000
,
00001010
00000000
00000000
00010100
00000000
00000000
00110000
00000000
,
01000000
00100000
00010000
00001000
00000100
00000010
00001000
00010000
,
00000000
00000000
00000000
00000000
,
00000001
00000100
00000010
00001000
00000100
00001000
00010000
00100000
,
00010000
01000000
00100000
10000000
00000000
00100000
00010000
00000000
,
10000000
00100000
01000000
00010000
00100000
00010000
00001000
00000100
,
00001000
00000010
00000100
00000001
00000000
00000100
00001000
00000000
,
00000010
00000000
00000101
00000000
00000000
00011000
00000000
00000000
,
00110000
00000000
00000000
01001000
00000000
00000000
00001010
00000000
,
00001000
00000100
00000001
00000010
00001000
00010000
01000000
10000000
,
00010000
00010000
00001000
00001000
00000010
00000010
00001000
00001000
,
00001100
00000000
00000001
00000000
00001000
00000000
00000010
00000100
00000000
00000100
00000010
00000000
00000001
00000000
00001000
00000000
,
00020000
00000000
00130000
10000000
10000000
00100000
01000000
00100000
,
10000000
00000000
00010000
00000000
00100000
00000000
10000000
00010000
00000000
00010000
00100000
00000000
10000000
00000000
01000000
00000000
,
00020000
00000000
00031000
00000010
00000010
00000100
00001000
00000001
,
00000100
00000000
00000000
00000000
00001010
00000000
00000010
00010000
00000000
00000000
00011000
00000000
01000000
00000000
00000000
00000000
,
10100000
00000000
01000000
00110000
01000000
01000000
10010000
00000000
,
10000000
00000000
01000000
00000000
00100000
00000000
00001000
00010000
00000000
00000100
00001000
00000000
00000010
00000000
00000100
00000000
,
00000101
00000000
00000000
00001010
00000000
00000000
01010000
00000000
00000000
10100000
00000000
00000000
10000000
00000000
00010000
00000000
,
00110000
00000000
10000000
00000000
00010000
00000000
01000000
00100000
00000000
00100000
01000000
00000000
10000000
00000000
00010000
00000000
,
00002000
00000000
00003100
00000001
00000001
00000100
00000010
00000100
,
00000001
00000000
00001000
00000000
00000100
00000000
00000001
00001000
00000000
00001000
00000100
00000000
00000001
00000000
00000010
00000000
,
00002000
00000000
00013000
01000000
01000000
00100000
00010000
10000000
,
00100000
00000000
00000000
00000000
01010000
00000000
01000000
00001000
00000000
00000000
00011000
00000000
00000010
00000000
00000000
00000000
,
00000101
00000000
00000010
00001100
00000010
00000010
00001001
00000000
,
00001000
00000000
00000100
00000000
00000010
00000000
00000001
00000100
00000001
00000000
00001010
00000000
00000000
00000000
01010000
00000000
;

//---------------dance-single - ----------------
#NOTES:
     dance-single:
     :
     Beginner:
     3:
     0.150580,0.212508,0.041745,0.031309,0.000000,101.000000,97.000000,4.000000,3.000000,0.000000,0.000000,0.150580,0.212508,0.041745,0.031309,0.000000,101.000000,97.000000,4.000000,3.000000,0.000000,0.000000:
0000
0000
0000
0000
,
0000
0000
0000
0000
,
0000
0000
0000
0000
,
0000
0000
0000
0000
,
0000
0000
0000
0000
,
0000
0000
0000
0000
,
0000
0000
0000
0000
,
0000
0000
0000
0000
,
0000
0000
0000
0000
,
0100
0000
0010
0000
,
0100
0000
0100
0000
,
0010
0000
0100
0000
,
0010
0000
0010
0000
,
0001
0000
1000
0000
,
0001
0000
0001
0000
,
1000
0000
0001
0000
,
1000
0000
1000
0000
,
0002
0000
0000
0000
,
0000
0000
0003
0000
,
2000
0000
0000
0000
,
0000
0000
3000
0000
,
0100
0000
0010
0000
,
0010
0000
1000
0000
,
0100
0000
0010
0000
,
0010
0000
0001
0000
,
0010
0000
0100
0000
,
0100
0000
1000
0000
,
0010
0000
0100
0000
,
0110
0000
0000
0000
,
0010
0000
0100
0000
,
0100
0000
0001
0000
,
0010
0000
0100
0000
,
0100
0000
1000
0000
,
0100
0000
0010
0000
,
0010
0000
0001
0000
,
0100
0000
0010
0000
,
0110
0000
0000
0000
,
1000
0000
0001
0000
,
1000
0000
0000
0000
,
0001
0000
1000
0000
,
0001
0000
0000
0000
,
0100
0000
0000
0000
,
0100
0000
0000
0000
,
0010
0000
0000
0000
,
0000
0000
0000
0000
,
0001
0000
1000
0000
,
0001
0000
0000
0000
,
1000
0000
0001
0000
,
1000
0000
0000
0000
,
0010
0000
0000
0000
,
0010
0000
0000
0000
,
0010
0000
0010
0000
,
0010
0000
0000
0000
,
1001
0000
0001
0000
,
0100
0000
0100
0000
,
1000
0000
0001
0000
,
0010
0000
0010
0000
,
0100
0000
1000
0000
,
0010
0000
0001
0000
,
0100
0000
0100
0000
,
0010
0000
0000
0000
,
1001
0000
1000
0000
,
0010
0000
0010
0000
,
0001
0000
1000
0000
,
0100
0000
0100
0000
,
0010
0000
0001
0000
,
0100
0000
1000
0000
,
0010
0000
0000
0000
0020
0000
0000
0030
;

//---------------dance-double - ----------------
#NOTES:
     dance-double:
     :
     Challenge:
     16:
     0.742464,0.920867,0.313087,0.146107,0.281778,498.000000,468.000000,30.000000,14.000000,0.000000,0.000000,0.742464,0.920867,0.313087,0.146107,0.281778,498.000000,468.000000,30.000000,14.000000,0.000000,0.000000:
00000000
00000000
00000000
00000000
,
00000000
00000000
00000000
00000000
,
00000000
00000000
00000000
00000000
,
00000000
00000000
00000000
00000000
,
00000000
00000000
00000000
00000000
,
00000000
00000000
00000000
00000000
,
00000000
00000000
00000000
00000000
,
00000000
00000000
00000000
00000000
,
00000000
00000000
00000000
00000000
,
00010000
00000000
00000010
00000000
00001000
00000000
00000001
00000010
00000001
00000010
00000001
00000000
00001000
00000000
00000100
00000000
,
00000010
00001000
00010000
00000100
00000010
00000001
00000100
00001000
,
00010000
00000000
00100000
00000000
01000000
00000000
00010000
00100000
00010000
00100000
00010000
00000000
10000000
00000000
00100000
00000000
,
01000000
00001000
00000100
00000100
00000010
00001000
00000001
00000010
,
00001000
00000000
00100000
00000000
00010000
00000000
10000000
00100000
10000000
00100000
10000000
00000000
00010000
00000000
01000000
00000000
,
00100000
00010000
00001000
01000000
00100000
10000000
01000000
00010000
,
00001000
00000000
00000010
00000000
00000100
00000000
00001000
00000010
00001000
00000010
00001000
00000000
00000001
00000000
00000010
00000000
,
00001000
00010000
01000000
01000000
10000000
00100000
00010000
00001000
,
00000020
00000001
00001000
00000100
,
00002030
00000010
00100000
00010000
,
01003000
00010000
01000000
00100000
01000000
00010000
01000000
00001000
,
00010000
00000100
00010000
00000100
00001000
00000010
00001000
00000010
00000100
00000001
00000000
00000010
00000000
00000010
00001000
00000000
,
00001100
00000000
00010000
00000000
01000000
00000000
00100000
10000000
00000000
00010000
00100000
00000000
01000000
00000000
00010000
00000000
,
20000000
00000000
30100000
00010000
01000000
00001000
00100000
00010000
,
01000000
00000000
00100000
00000000
10000000
00000000
00010000
00100000
00000000
01000000
10000000
00000000
01000000
00000000
00010000
00000000
,
00002000
00000000
00013000
00000100
00000010
00000001
00001000
00000100
,
00010000
00000000
00001000
00000000
00000010
00000000
00000100
00001000
00000000
00000010
00000001
00000000
00001000
00000000
00000010
00000000
,
00000002
00000000
00000013
00001000
00001000
00000010
00010000
00001000
,
00000010
00000000
00000100
00000000
00001000
00000000
00000010
00000001
00000000
00000001
00001000
00000000
00010000
00000000
00100000
00000000
,
02000000
00000000
00000000
00000000
10000000
00000000
10000000
00000000
00000000
00000000
00100000
00000000
00100000
00000000
03100000
10000000
,
00010000
00000000
00001000
00000000
00000010
00000000
00000100
00000001
00000000
00001000
00000100
00000000
00000010
00000000
00001000
00000000
,
00000002
00000000
00000103
00001000
00000010
00010000
00000100
00001000
,
00000010
00000000
00000100
00000000
00000001
00000000
00001000
00000100
00000000
00000010
00000001
00000000
00000010
00000000
00001000
00000000
,
00020000
00000000
00031000
00100000
01000000
10000000
00010000
00100000
,
00001000
00000000
00010000
00000000
01000000
00000000
00100000
00010000
00000000
01000000
10000000
00000000
00010000
00000000
01000000
00000000
,
20000000
00000000
31000000
00010000
00010000
01000000
00001000
00010000
,
01000000
00000000
00100000
00000000
00010000
00000000
01000000
10000000
00000000
10000000
00010000
00000000
00001000
00000000
00000100
00000000
,
00000020
00000000
00000000
00000000
00000001
00000000
00000001
00000000
00000000
00000000
00000100
00000000
00000100
00000000
00000130
00000001
,
00001000
00000010
00000100
00000001
00000010
00001000
00010000
01000000
,
10000000
00100000
01000000
00010000
00000000
01000000
10000000
10000000
,
00010000
00100000
01000000
10000000
00100000
00010000
00001000
00000100
,
00000001
00000010
00000100
00001000
00000000
00000100
00000001
00000001
,
00000010
00000000
00001100
00010000
00000000
00110000
00001000
00000000
,
10010000
00000000
01000000
00010000
00100000
10000000
01100000
00000000
,
10000000
00100000
01000000
00010000
00001000
00000100
00000010
00000001
,
00000000
00000000
00000000
00000000
,
00010000
01000000
00100000
10000000
01000000
00010000
00001000
00000010
,
00000001
00000100
00000010
00001000
00000000
00000010
00000001
00000001
,
00001000
00000100
00000010
00000001
00000100
00001000
00010000
00100000
,
10000000
01000000
00100000
00010000
00000000
00100000
10000000
10000000
,
01000000
00000000
00110000
00001000
00000000
00001100
00010000
00000000
,
00001001
00000000
00000010
00001000
00000100
00000001
00000110
00000000
,
00001000
00000010
00000100
00001000
00010000
00100000
01000000
00010000
,
00100000
00001000
00100000
00001000
00010000
00000010
00010000
00000010
00001000
00000100
00000010
00000100
00001000
00000001
00000100
00000000
,
00001001
00000000
00000100
00000000
00000010
00000000
00001000
00000100
00000000
00001000
00000100
00000000
00000001
00000000
00000010
00000000
,
00002000
00010000
00013000
00100000
01000000
10000000
00010000
00100000
,
01000000
00000000
01000000
00000000
00100000
00000000
10000000
01000000
00000000
10000000
01000000
00000000
00100000
00000000
00010000
00000000
,
00002000
00010000
00013000
00001000
00000100
00000010
00000001
00000010
,
00000100
00000000
00000100
00000000
00001001
00000000
00000001
00000100
00000001
00000000
00001010
00000000
00010000
00000000
00001000
00000000
,
01010000
00010000
10010000
10000000
01000000
00010000
00100000
10000000
,
11000000
00000000
00100000
00000000
00010000
00000000
10000000
00100000
01000000
00000000
00010000
00000000
10000000
00000000
00100000
00000000
,
10010000
00000000
00000000
00011000
00000000
00000000
00001001
00000000
00000000
00011000
00000000
00000000
10010000
00000000
10010000
00000000
,
10010000
00000000
00100000
00000000
01000000
00000000
00010000
00100000
00000000
00010000
00100000
00000000
10000000
00000000
01000000
00000000
,
00020000
00001000
00031000
00000100
00000010
00000001
00001000
00000100
,
00000010
00000000
00000010
00000000
00000100
00000000
00000001
00000010
00000000
00000001
00000010
00000000
00000100
00000000
00001000
00000000
,
00020000
00001000
00031000
00010000
00100000
01000000
10000000
01000000
,
00100000
00000000
00100000
00000000
10010000
00000000
10000000
00100000
10000000
00000000
01010000
00000000
00001000
00000000
00010000
00000000
,
00001010
00001000
00001001
00000001
00000010
00001000
00000100
00000001
,
00000011
00000000
00000100
00000000
00001000
00000000
00000001
00000100
00000010
00000000
00000110
00000000
00011000
00000000
01100000
00000000
;

//---------------dance-single - ----------------
#NOTES:
     dance-single:
     :
     Easy:
     8:
     0.362286,0.460434,0.093926,0.041745,0.000000,243.000000,234.000000,9.000000,4.000000,0.000000,0.000000,0.362286,0.460434,0.093926,0.041745,0.000000,243.000000,234.000000,9.000000,4.000000,0.000000,0.000000:
0000
0000
0000
0000
,
0000
0000
0000
0000
,
0000
0000
0000
0000
,
0000
0000
0000
0000
,
0000
0000
0000
0000
,
0000
0000
0000
0000
,
0000
0000
0000
0000
,
0000
0000
0000
0000
,
0000
0000
0000
0000
,
0100
0001
1000
0100
,
0001
1000
0010
1000
,
0100
1000
0001
0100
,
1000
0001
0010
0001
,
0010
1000
0001
0010
,
1000
0001
0100
0001
,
0010
0001
1000
0010
,
0001
1000
0100
1000
,
0020
0001
0000
0001
,
0000
1000
0000
1000
,
0130
0100
0100
0100
,
0010
0010
0010
0011
,
1010
0000
0100
0000
1000
0010
0001
0000
,
0100
0000
0001
0001
0000
1000
1000
0000
,
0100
0000
0010
0000
0001
0100
0100
0000
,
1000
0000
0010
0001
0000
0010
1000
0000
,
0100
0000
0001
0000
0100
1000
0010
0000
,
0001
0000
0100
0010
0000
0100
0010
0000
,
1000
0000
0100
0000
0010
1000
0100
0000
,
0002
0000
0000
0003
,
0101
0000
0010
0000
0001
0100
1000
0000
,
0010
0000
1000
1000
0000
0001
0001
0000
,
0010
0000
0100
0000
1000
0010
0010
0000
,
0001
0000
0100
1000
0000
0100
0001
0000
,
0010
0000
1000
0000
0010
0001
0100
0000
,
1000
0000
0010
0100
0000
0010
0100
0000
,
0001
0000
0010
0000
0100
0001
0010
0000
,
2000
0000
0000
3000
,
0001
0100
1000
0010
,
0001
0000
0100
1000
0000
0000
0000
0000
,
1000
0100
0001
0010
,
1000
0000
0100
0001
0000
0000
0000
0000
,
0001
0000
1000
0000
0000
0100
0000
0000
,
0001
0000
0000
1000
0000
0000
0010
0000
,
0100
1000
0001
0001
,
0000
0000
0000
0000
,
1000
0100
0001
0010
,
1000
0000
0100
0001
0000
0000
0000
0000
,
0001
0100
1000
0010
,
0001
0000
0100
1000
0000
0000
0000
0000
,
1000
0000
0001
0000
0000
0010
0000
0000
,
1000
0000
0000
0001
0000
0000
0100
0000
,
0010
0010
0010
0010
,
0010
0010
0010
0110
,
1001
0000
0100
0000
0010
0001
0100
0000
,
1000
0000
0010
1000
0000
0010
0100
0000
,
1000
0000
0001
0000
0010
1000
0100
0000
,
0010
0000
0001
0100
0000
0001
0010
0000
,
0100
0000
1010
0000
0000
0001
0000
0000
,
0100
0000
0000
1000
0000
0000
0010
0000
,
0100
0000
0001
0000
0100
0100
0100
0000
,
2000
0000
0000
0010
0000
0000
3010
0000
,
1001
0000
0010
0000
0100
1000
0010
0000
,
0001
0000
0100
0001
0000
0100
0010
0000
,
0001
0000
1000
0000
0100
0001
0010
0000
,
0100
0000
1000
0010
0000
1000
0100
0000
,
0010
0000
0101
0000
0000
1000
0000
0000
,
0010
0000
0000
0001
0000
0000
0100
0000
,
1000
0000
0001
0000
0010
1000
0000
0101
;

//---------------dance-single - ----------------
#NOTES:
     dance-single:
     :
     Medium:
     11:
     0.432358,0.531270,0.146107,0.031309,0.010436,290.000000,276.000000,14.000000,3.000000,0.000000,0.000000,0.432358,0.531270,0.146107,0.031309,0.010436,290.000000,276.000000,14.000000,3.000000,0.000000,0.000000:
// measure 0
0000
0000
0000
0000
,  // measure 1
0000
0000
0000
0000
,  // measure 2
0000
0000
0000
0000
,  // measure 3
0000
0000
0000
0000
,  // measure 4
0000
0000
0000
0000
,  // measure 5
0000
0000
0000
0000
,  // measure 6
0000
0000
0000
0000
,  // measure 7
0000
0000
0000
0000
,  // measure 8
0000
0000
0000
0000
,  // measure 9
0010
0000
0100
0000
0010
0001
0100
0000
,  // measure 10
0010
0000
1000
0001
0000
1000
0100
0000
,  // measure 11
0001
0000
1000
0000
0001
0010
1000
0000
,  // measure 12
0100
0000
0001
1000
0000
0100
1000
0000
,  // measure 13
0100
0000
0010
0000
0100
1000
0010
0000
,  // measure 14
0100
0000
0001
1000
0000
0001
0010
0000
,  // measure 15
1000
0000
0001
0000
1000
0100
0001
0000
,  // measure 16
0010
0000
1000
0001
0000
0010
0001
0000
,  // measure 17
0200
1000
0000
1000
,  // measure 18
0000
0001
0000
0001
,  // measure 19
0310
1000
0100
0000
0010
0001
0100
0000
,  // measure 20
0010
1000
0100
0010
0001
0000
1100
0000
,  // measure 21
0101
0000
1000
0000
0001
0100
1000
0000
,  // measure 22
0100
0000
0010
1000
0100
1000
0010
0000
,  // measure 23
0001
0000
1000
0000
0100
0001
0010
0000
,  // measure 24
0100
0000
0001
0100
1000
0010
0001
0000
,  // measure 25
1100
0000
0001
0000
1000
0100
0001
0000
,  // measure 26
0100
0000
0010
0001
0100
0001
0010
0000
,  // measure 27
0100
0000
1000
0000
0010
1000
0100
0000
,  // measure 28
0002
0000
0000
0003
,  // measure 29
1010
0000
0001
0000
1000
0010
0001
0000
,  // measure 30
0010
0000
0100
0001
0010
0001
0100
0000
,  // measure 31
1000
0000
0001
0000
0010
1000
0100
0000
,  // measure 32
0010
0000
1000
0010
0001
0100
1000
0000
,  // measure 33
0011
0000
1000
0000
0001
0010
1000
0000
,  // measure 34
0010
0000
0100
1000
0010
1000
0100
0000
,  // measure 35
0010
0000
0001
0000
0100
0001
0010
0000
,  // measure 36
2000
0000
0000
3000
,  // measure 37
1000
0100
0010
0001
0000
0100
0000
0000
,  // measure 38
0010
1000
0001
0100
0000
0000
0010
0000
,  // measure 39
1000
0010
0100
0001
0000
0010
0000
0000
,  // measure 40
0100
1000
0001
0010
0000
0000
0100
0000
,  // measure 41
1000
0000
1100
0000
0000
0001
0000
0000
,  // measure 42
1000
0000
0000
0100
0000
0000
0001
0000
,  // measure 43
1000
0000
0010
0000
0001
0000
0100
1000
,  // measure 44
0000
0000
0000
0000
,  // measure 45
0001
0100
0010
1000
0000
0100
0000
0000
,  // measure 46
0010
0001
1000
0100
0000
0000
0010
0000
,  // measure 47
0001
0010
0100
1000
0000
0010
0000
0000
,  // measure 48
0100
0001
1000
0010
0000
0000
0100
0000
,  // measure 49
0001
0000
0101
0000
0000
1000
0000
0000
,  // measure 50
0001
0000
0000
0100
0000
0000
1000
0000
,  // measure 51
0010
0001
0100
0000
0010
1000
0100
0000
,  // measure 52
0010
0001
0100
0010
1000
0000
0101
0000
,  // measure 53
1100
0000
0001
0000
1000
0100
0010
0000
,  // measure 54
1000
0000
0010
0001
0100
1000
0100
0000
,  // measure 55
0010
0000
1000
0000
0001
0010
0100
0000
,  // measure 56
0001
0000
0100
0010
0001
0100
0100
0000
,  // measure 57
0010
0000
1100
0000
0000
0010
0000
0000
,  // measure 58
0001
0000
0000
0100
0000
0000
0010
0000
,  // measure 59
1000
0000
0100
0000
1000
0010
0100
0000
,  // measure 60
1000
0000
0000
0100
0000
0000
0001
0000
0000
0010
0000
0000
1000
0000
0000
0000
,  // measure 61
0011
0000
1000
0000
0001
0010
0100
0000
,  // measure 62
0001
0000
0100
1000
0010
0001
0010
0000
,  // measure 63
0100
0000
0001
0000
1000
0100
0010
0000
,  // measure 64
1000
0000
0010
0100
1000
0010
0010
0000
,  // measure 65
0100
0000
0011
0000
0000
0100
0000
0000
,  // measure 66
1000
0000
0000
0010
0000
0000
0100
0000
,  // measure 67
0001
0000
1000
0010
0001
0101
0000
1010
;

//---------------dance-single - ----------------
#NOTES:
     dance-single:
     :
     Hard:
     14:
     0.605302,0.743777,0.333960,0.166980,0.135671,406.000000,374.000000,32.000000,16.000000,0.000000,0.000000,0.605302,0.743777,0.333960,0.166980,0.135671,406.000000,374.000000,32.000000,16.000000,0.000000,0.000000:
// measure 0
0000
0000
0000
0000
,  // measure 1
0000
0000
0000
0000
,  // measure 2
0000
0000
0000
0000
,  // measure 3
0000
0000
0000
0000
,  // measure 4
0000
0000
0000
0000
,  // measure 5
0000
0000
0000
0000
,  // measure 6
0000
0000
0000
0000
,  // measure 7
0000
0000
0000
0000
,  // measure 8
0000
0000
0000
0000
,  // measure 9
1000
0000
0010
0100
0000
0001
0010
1000
,  // measure 10
0100
0000
1000
0010
0001
0100
0010
0000
,  // measure 11
0001
0000
0010
1000
0000
0100
0010
0100
,  // measure 12
1000
0000
0010
0100
0000
0001
1000
0000
,  // measure 13
0001
0000
0100
0010
0000
1000
0100
0001
,  // measure 14
0010
0000
0001
0100
1000
0010
0100
0000
,  // measure 15
1000
0000
0100
0001
0000
0010
0100
0010
,  // measure 16
0001
0000
0100
0010
0000
1000
0001
0000
,  // measure 17
2000
0010
0000
3010
,  // measure 18
0002
0100
0000
0103
,  // measure 19
1000
0010
0001
0010
1000
0100
0001
0100
,  // measure 20
1000
0000
0001
0000
0100
0000
0010
0000
1000
0001
0000
0001
0000
1000
0100
0000
,  // measure 21
1100
0000
1000
0000
0010
0000
0100
0010
0000
0000
0100
0000
0001
0000
0010
0000
,  // measure 22
0200
0000
1300
0010
0010
0010
0001
0000
,  // measure 23
0100
0000
0001
0000
1000
0000
0100
1000
0000
0000
1000
0000
0100
0000
0010
0000
,  // measure 24
0002
0000
0013
1000
0001
1000
0010
0000
,  // measure 25
0001
0000
0100
0000
1000
0000
0100
0001
0000
0000
0100
0000
0010
0000
1000
0000
,  // measure 26
0002
0000
0103
1000
1000
1000
0010
0000
,  // measure 27
0100
0000
1000
0000
0010
0000
0010
0100
0000
0000
0001
0000
0010
0000
1000
0000
,  // measure 28
2020
0000
0000
3030
,  // measure 29
0011
0000
0001
0000
0100
0000
0010
0100
0000
0000
0010
0000
1000
0000
0100
0000
,  // measure 30
0020
0000
0031
0100
0100
0100
1000
0000
,  // measure 31
0010
0000
1000
0000
0001
0000
0010
0001
0000
0000
0001
0000
0010
0000
0100
0000
,  // measure 32
2000
0000
3100
0001
1000
0001
0100
0000
,  // measure 33
1000
0000
0010
0000
0001
0000
0010
1000
0000
0000
0010
0000
0100
0000
0001
0000
,  // measure 34
2000
0000
3010
0001
0001
0001
0100
0000
,  // measure 35
0010
0000
0001
0000
0100
0000
0100
0010
0000
0000
1000
0000
0100
0000
0001
0000
,  // measure 36
0202
0000
0000
0303
,  // measure 37
1000
0100
0010
0001
1000
0010
0100
0001
,  // measure 38
1000
0100
0010
0001
0000
0100
1000
0000
,  // measure 39
0001
0100
0010
1000
0001
0010
0100
1000
,  // measure 40
0001
0100
0010
1000
0000
0100
0001
0000
,  // measure 41
1000
0000
0011
0000
0000
1001
0000
0000
,  // measure 42
1010
0000
0000
0110
0000
0000
1100
0000
,  // measure 43
0001
0100
0010
1000
0001
0010
0100
1000
,  // measure 44
0000
0000
0000
0000
,  // measure 45
1000
0010
0100
0001
1000
0100
0010
0001
,  // measure 46
1000
0010
0100
0001
0000
0010
1000
0000
,  // measure 47
0001
0010
0100
1000
0001
0100
0010
1000
,  // measure 48
0001
0010
0100
1000
0000
0010
0001
0000
,  // measure 49
1000
0000
0101
0000
0000
1001
0000
0000
,  // measure 50
1100
0000
0000
0110
0000
0000
1010
0000
,  // measure 51
0100
0010
1000
0010
0001
0100
1000
0100
,  // measure 52
0010
0010
1000
1000
0001
0001
0100
0100
,  // measure 53
1010
0000
0001
0000
0010
0000
0100
1000
0000
1000
0100
0000
0010
0000
0001
0000
,  // measure 54
0200
0000
0310
1000
1000
0010
0001
0010
,  // measure 55
0100
0000
0001
0000
1000
0000
0001
0010
0000
1000
0100
0000
0010
0000
0100
0000
,  // measure 56
2000
0000
3001
0010
0100
0100
0010
0001
,  // measure 57
0100
0000
0000
0000
0110
0000
1000
0100
0000
0000
0110
0000
0001
0000
0000
0000
,  // measure 58
0101
0000
0010
1100
0010
0010
1001
0000
,  // measure 59
0100
0000
0010
0000
0001
0000
0100
0010
0000
0010
0100
0000
0001
0000
1000
0000
,  // measure 60
1100
0000
0000
0101
0000
0000
0011
0000
0000
1010
0000
0000
1000
0000
0100
0000
,  // measure 61
0101
0000
1000
0000
0100
0000
0010
0001
0000
0001
0010
0000
0100
0000
1000
0000
,  // measure 62
0020
0000
0130
0001
0001
0100
1000
0100
,  // measure 63
0010
0000
1000
0000
0001
0000
1000
0100
0000
0001
0010
0000
0100
0000
0010
0000
,  // measure 64
0002
0000
1003
0100
0010
0010
0100
1000
,  // measure 65
0010
0000
0000
0000
0110
0000
0001
0010
0000
0000
0110
0000
1000
0000
0000
0000
,  // measure 66
1010
0000
0100
0011
0100
0100
1001
0000
,  // measure 67
1000
0000
0100
0000
0010
0000
0001
0100
0001
0000
0110
0000
0000
0000
1001
0000
;

//---------------dance-single - ----------------
#NOTES:
     dance-single:
     :
     Challenge:
     16:
     0.742464,0.920867,0.313087,0.146107,0.281778,498.000000,468.000000,30.000000,14.000000,0.000000,0.000000,0.742464,0.920867,0.313087,0.146107,0.281778,498.000000,468.000000,30.000000,14.000000,0.000000,0.000000:
// measure 0
0000
0000
0000
0000
,  // measure 1
0000
0000
0000
0000
,  // measure 2
0000
0000
0000
0000
,  // measure 3
0000
0000
0000
0000
,  // measure 4
0000
0000
0000
0000
,  // measure 5
0000
0000
0000
0000
,  // measure 6
0000
0000
0000
0000
,  // measure 7
0000
0000
0000
0000
,  // measure 8
0000
0000
0000
0000
,  // measure 9
0100
0000
0010
0000
1000
0000
0001
0010
0001
0010
0001
0000
0100
0000
0010
0000
,  // measure 10
1000
0010
0001
0010
0100
0001
0010
0100
,  // measure 11
1000
0000
0100
0000
0010
0000
0001
0100
0001
0100
0001
0000
1000
0000
0100
0000
,  // measure 12
0010
1000
1000
0010
0001
0001
1000
1000
,  // measure 13
0010
0000
0100
0000
0001
0000
1000
0100
1000
0100
1000
0000
0010
0000
0100
0000
,  // measure 14
0001
0100
1000
0100
0010
1000
0100
0010
,  // measure 15
0001
0000
0010
0000
0100
0000
1000
0010
1000
0010
1000
0000
0001
0000
0010
0000
,  // measure 16
0100
0001
0001
0100
1000
1000
0001
0001
,  // measure 17
0200
0010
1000
0001
,  // measure 18
0320
0100
1000
0001
,  // measure 19
0130
1000
0100
0001
0010
1000
0010
0001
,  // measure 20
1000
0100
1000
0100
0010
0001
0010
0001
1000
0010
0000
0100
0000
1000
0001
0000
,  // measure 21
1001
0000
0100
0000
0001
0000
0100
1000
0000
1000
0100
0000
0010
0000
0001
0000
,  // measure 22
0200
0000
0310
1000
0001
0100
0010
1000
,  // measure 23
0001
0000
0010
0000
0100
0000
0010
0001
0000
0100
1000
0000
0100
0000
0010
0000
,  // measure 24
0002
0000
1003
0010
0100
0100
0010
1000
,  // measure 25
0001
0000
0010
0000
1000
0000
0010
0100
0000
0100
0010
0000
0001
0000
1000
0000
,  // measure 26
0020
0000
0130
0001
0100
0010
1000
0100
,  // measure 27
0010
0000
0001
0000
1000
0000
0100
0001
0000
0001
0100
0000
1000
0000
0010
0000
,  // measure 28
0200
0000
0000
0000
1000
0000
1000
0000
0000
0000
0010
0000
0010
0000
0310
1000
,  // measure 29
0001
0000
0010
0000
1000
0000
0010
0001
0000
0001
0010
0000
0100
0000
1000
0000
,  // measure 30
0020
0000
0130
0001
1000
0010
0100
0001
,  // measure 31
1000
0000
0100
0000
0010
0000
0100
1000
0000
0010
0001
0000
0010
0000
0100
0000
,  // measure 32
2000
0000
3001
0100
0010
0010
0100
0001
,  // measure 33
1000
0000
0100
0000
0001
0000
0100
0010
0000
0010
0100
0000
1000
0000
0001
0000
,  // measure 34
0200
0000
0310
1000
0010
0100
0001
0010
,  // measure 35
0100
0000
1000
0000
0001
0000
0010
1000
0000
1000
0010
0000
0001
0000
0100
0000
,  // measure 36
0020
0000
0000
0000
0001
0000
0001
0000
0000
0000
0100
0000
0100
0000
0130
0001
,  // measure 37
1000
0100
0010
0001
0100
0010
1000
0100
,  // measure 38
0010
0001
0100
0010
0000
1000
0100
0010
,  // measure 39
0001
0010
0100
1000
0010
0100
0001
0010
,  // measure 40
0100
1000
0010
0100
0000
0001
0010
0100
,  // measure 41
1000
0000
0101
0010
0000
1100
0010
0000
,  // measure 42
1001
0000
1000
0010
0001
0100
0110
0000
,  // measure 43
1000
0100
0001
0010
0001
0100
1000
0010
,  // measure 44
0000
0000
0000
0000
,  // measure 45
0001
0100
0010
1000
0100
0010
0001
0100
,  // measure 46
0010
1000
0100
0010
0000
0001
0100
0010
,  // measure 47
1000
0010
0100
0001
0010
0100
1000
0010
,  // measure 48
0100
0001
0010
0100
0000
1000
0010
0100
,  // measure 49
0001
0000
1010
0100
0000
0011
0100
0000
,  // measure 50
1001
0000
0001
0100
1000
0010
0110
0000
,  // measure 51
0001
0100
1000
0010
1000
0100
0001
0010
,  // measure 52
0001
0100
0001
0100
0010
1000
0010
1000
0100
0010
0001
0100
0010
1000
0001
0000
,  // measure 53
1001
0000
1000
0000
0100
0000
0001
0100
0000
1000
0010
0000
0001
0000
0010
0000
,  // measure 54
2000
0100
3100
0010
1000
0100
1000
0010
,  // measure 55
0001
0000
0100
0000
0010
0000
0100
0001
0000
0010
1000
0000
0100
0000
0010
0000
,  // measure 56
0002
0100
0103
0010
1000
0010
0001
1000
,  // measure 57
0100
0000
0001
0000
1010
0000
0100
0010
0100
0000
0110
0000
0100
0000
0010
0000
,  // measure 58
0110
0100
1001
0001
0100
1000
0010
0001
,  // measure 59
0101
0000
0100
0000
0010
0000
0100
0001
0010
0000
1000
0000
0100
0000
0001
0000
,  // measure 60
0101
0000
0000
0110
0000
0000
1100
0000
0000
0110
0000
0000
1001
0000
1001
0000
,  // measure 61
1001
0000
0001
0000
0010
0000
1000
0010
0000
0001
0100
0000
1000
0000
0100
0000
,  // measure 62
0002
0010
0013
0100
0001
0010
0001
0100
,  // measure 63
1000
0000
0010
0000
0100
0000
0010
1000
0000
0100
0001
0000
0010
0000
0100
0000
,  // measure 64
2000
0010
3010
0100
0001
0100
1000
0001
,  // measure 65
0010
0000
1000
0000
0101
0000
0010
0100
0010
0000
0110
0000
0010
0000
0100
0000
,  // measure 66
0110
0010
1001
1000
0010
0001
0100
1000
,  // measure 67
1100
0000
0010
0000
0001
0000
0100
1000
0100
0000
0110
0000
1001
0000
0110
0000
;
