#VERSION:0.83;
#TITLE:Ziqqurat;
#SUBTITLE:;
#ARTIST:雄之助 feat. 初音ミク;
#TITLETRANSLIT:;
#SUBTITLETRANSLIT:;
#ARTISTTRANSLIT:Yunosuke feat. Hatsune Miku;
#GENRE:J-Music;
#ORIGIN:;
#CREDIT:;
#BANNER:Ziqqurat.png;
#BACKGROUND:Ziqqurat-bg.png;
#PREVIEWVID:;
#JACKET:Ziqqurat-jacket.png;
#CDIMAGE:;
#DISCIMAGE:;
#LYRICSPATH:;
#CDTITLE:../cdtitle.png;
#MUSIC:Ziqqurat.ogg;
#OFFSET:1.095000;
#SAMPLESTART:50.437000;
#SAMPLELENGTH:15.000000;
#SELECTABLE:YES;
#BPMS:0.000=163.000,
44.000=81.500,
60.000=163.000,
84.000=81.500,
88.000=163.000;
#STOPS:;
#DELAYS:;
#WARPS:;
#TIMESIGNATURES:0.000=4=4;
#TICKCOUNTS:0.000=4;
#COMBOS:0.000=1;
#SPEEDS:0.000=1.000=0.000=0;
#SCROLLS:0.000=1.000;
#FAKES:;
#LABELS:0.000=Song Start;
#BGCHANGES:4.000=Ziqqurat.avi=1.000=0=0=0=StretchNoLoop====,
99999=-nosongbg-=1.000=0=0=0 // don't automatically add -songbackground-
;
#KEYSOUNDS:;
#ATTACKS:
;

//---------------dance-single - ----------------
#NOTEDATA:;
#CHARTNAME:;
#STEPSTYPE:dance-single;
#DESCRIPTION:;
#CHARTSTYLE:;
#DIFFICULTY:Challenge;
#METER:13;
#RADARVALUES:0.580261,0.728612,0.269053,0.251695,0.156224,468.000000,437.000000,31.000000,29.000000,0.000000,0.000000,0.000000,0.000000,0.000000,0.580261,0.728612,0.269053,0.251695,0.156224,468.000000,437.000000,31.000000,29.000000,0.000000,0.000000,0.000000,0.000000,0.000000;
#CREDIT:led_light;
#NOTES:
0000
0000
0000
0000
,
0000
0000
0000
0000
,
0000
0000
0000
0000
,
0000
0000
0000
0000
,
0000
0000
0000
0000
,
0000
0000
0000
0000
,
0000
0000
0000
0000
,
0110
0000
0000
1010
0000
0011
0000
2001
,
0000
0100
0000
0100
,
3002
0100
0000
0100
,
0003
0010
0100
1001
,
1020
0000
0000
0000
0000
0000
0000
0000
0130
0000
0000
0000
0000
0000
0000
0000
0002
0000
0000
0000
0000
0000
0000
0000
1003
0000
0000
1000
0000
0000
0100
0000
,
0020
0000
0000
0000
0000
0000
0000
0000
0031
0000
0000
0000
0000
0000
0000
0000
2000
0000
0000
0000
0000
0000
0000
0000
3001
0000
0000
0001
0000
0000
0100
0000
,
0020
0130
0002
0013
,
0200
2300
3002
2003
,
3010
0000
0000
0100
0010
0000
1000
0000
0100
0000
1000
0000
0100
0000
1000
0000
,
0001
0000
1000
0100
0010
0001
0010
0001
,
1000
0000
0100
1000
0000
0000
0001
0000
0100
0000
0001
0000
1000
0000
0010
0000
,
0001
0010
1000
0001
0010
0100
2000
0000
,
3010
0000
0000
0010
1000
0000
0001
0000
0010
0000
0100
0000
1000
0000
0100
0000
,
0010
0100
0010
0001
1000
0010
0100
0001
,
2000
0000
0000
0000
0000
0000
0100
0000
0000
0000
0000
0000
3020
0000
0000
0100
0000
0000
1030
0100
0010
0001
0000
0000
,
1001
0000
0001
0100
1000
0100
0001
0000
,
1000
0010
1000
0010
0100
0001
0010
0100
,
1000
0000
0001
0010
1000
0010
0001
0000
,
1000
0100
1000
0100
0010
0001
0100
0010
,
1000
0010
1000
0010
0100
0010
0100
0010
,
0100
0001
0100
0001
0010
0100
0010
0100
,
1000
1000
1000
1000
0001
0001
0001
0001
,
1000
0100
0000
0100
1000
0001
0100
0010
1000
0000
0000
0001
0000
0000
0010
0000
,
2001
0000
3010
0000
1000
0100
0001
0100
,
1000
0000
0001
0000
0100
0000
0010
0000
1000
0000
0100
1000
0000
0100
1000
0000
,
0001
0000
0010
0000
0100
1000
0100
0000
1000
0000
0010
0000
0100
0001
0100
0000
,
0010
0000
1000
0001
0000
1000
0001
0000
0010
0000
0100
0000
1000
0000
0001
0000
,
2002
0000
3003
0000
0010
1000
0100
1000
,
0001
0100
0001
1000
0010
0100
0001
0010
,
0100
0010
0100
0010
0100
1000
0100
1000
,
0001
0010
0100
1000
0001
0100
0010
1000
,
2001
0000
3100
0000
1000
0010
0001
0010
,
1000
0000
0001
0000
0010
0000
0100
0000
1000
0000
0010
1000
0000
0010
1000
0000
,
0001
0000
0100
0000
0010
1000
0010
0000
1000
0000
0100
0000
0010
0001
0010
0000
,
0100
0000
1000
0001
0000
1000
0001
0000
0100
0000
0010
0000
1000
0000
0001
0000
,
2002
0000
3003
0000
0100
1000
0010
1000
,
0001
0010
0001
1000
0100
0010
0001
0100
,
0010
0100
0010
0100
0010
1000
0010
1000
,
0001
0100
0010
1000
0001
0010
0100
1000
,
0001
0010
0001
0010
1000
0010
1000
0010
,
0001
0010
1000
0010
0001
0010
0100
1000
,
0001
0100
0001
0100
1000
0100
1000
0100
,
0001
0100
1000
0100
0001
0100
0010
1000
,
0001
0000
1100
0000
1000
0001
0010
0100
,
1000
0010
0100
0010
0001
0010
0100
0010
,
1000
0000
0001
0010
0100
0000
1000
0000
0001
0000
1000
0100
0010
0000
0001
0000
,
1000
0000
0010
0100
0001
0000
1000
0000
0001
0000
0100
0010
1000
0000
0001
0000
,
1000
0100
1000
0100
0001
0100
0001
0100
,
1000
0100
0001
0100
1000
0100
0010
0001
,
1000
0010
1000
0010
0001
0010
0001
0010
,
1000
0010
0001
0010
1000
0010
0100
0001
,
1000
0000
0011
0000
0001
1000
0100
0010
,
0001
0100
0010
0100
1000
0100
0010
0100
,
0001
0000
1100
0000
1000
0001
0010
0100
,
1000
0010
0001
0010
1000
0001
0010
0000
,
0110
0000
0000
0011
0000
1100
0000
0120
,
0000
0000
0031
1000
0100
0010
0001
0000
0011
0000
0000
1010
0000
0000
0210
0000
,
0000
0000
0301
1000
0001
0000
1000
0000
1100
0000
0000
0011
0000
0000
2100
0000
,
0000
0000
3001
0100
0010
0000
1010
0000
0000
0000
2200
0000
0000
0000
3300
0000
,
0110
0000
0000
1010
0000
0011
0000
2001
,
0000
0100
0000
0100
,
3002
0100
0000
0100
,
0003
0010
0100
1001
,
0200
0000
0000
0000
,
0000
0000
0010
0000
,
0000
0000
0000
0000
,
0300
0000
0000
0000
;

//---------------dance-single - ----------------
#NOTEDATA:;
#CHARTNAME:;
#STEPSTYPE:dance-single;
#DESCRIPTION:;
#CHARTSTYLE:;
#DIFFICULTY:Hard;
#METER:11;
#RADARVALUES:0.419078,0.538540,0.190941,0.633576,0.039056,338.000000,316.000000,22.000000,73.000000,0.000000,0.000000,0.000000,0.000000,0.000000,0.419078,0.538540,0.190941,0.633576,0.039056,338.000000,316.000000,22.000000,73.000000,0.000000,0.000000,0.000000,0.000000,0.000000;
#CREDIT:led_light;
#NOTES:
0000
0000
0000
0000
,
0000
0000
0000
0000
,
0000
0000
0000
0000
,
0000
0000
0000
0000
,
0000
0000
0000
0000
,
0000
0000
0000
0000
,
0000
0000
0000
0000
,
0101
0000
0000
1010
0000
0001
0000
2000
,
0000
0100
0000
0100
,
3002
0100
0000
0100
,
0003
1000
0001
0110
,
2000
3100
0002
0103
,
2000
3010
0020
0130
,
0002
0013
2000
3010
,
0002
2003
3020
0230
,
0301
0000
0010
0100
0000
1000
0000
1000
,
0001
0000
0001
0100
0010
1000
0001
0000
,
1000
0000
0000
1000
0000
0000
0100
0000
1000
0000
0001
0000
0200
0000
0000
0000
,
0320
2030
3200
2300
,
3002
0000
0013
0001
0100
0001
0100
0010
,
1000
0000
0100
0010
0100
1000
0100
1000
,
0002
0000
0010
0000
2003
0000
0100
3000
,
1001
0000
0001
0010
0100
0010
0001
0000
,
1000
0100
1000
0001
0100
0010
1000
0000
,
0001
0000
1000
0100
0010
0100
1000
0000
,
0001
0010
0001
1000
0010
0100
0001
0000
,
1000
0010
1000
0000
0001
0010
0001
0000
,
1000
0100
1000
0000
0001
0100
0001
0000
,
1000
0010
1000
0010
0100
0010
0100
0010
,
0100
0001
0000
0000
1000
0000
0100
0000
0010
0000
0000
0010
0000
0000
0001
0000
,
2002
0000
3003
0000
1000
0001
0010
0001
,
0100
0000
0010
0000
2000
0000
0000
0000
3100
0000
0000
0100
0000
0000
0010
0000
,
0002
0103
0020
0130
,
1000
0000
0000
1000
0000
0000
0100
0000
0001
0000
0000
0000
0101
0000
0000
0000
,
2100
0000
3001
0000
0100
0001
1000
0010
,
0100
0001
2000
0000
3100
0000
1000
0001
,
0200
0000
0310
0000
0100
0001
0100
0001
,
1000
0000
0001
0010
1000
0010
0001
0000
,
2002
0000
3003
0000
0001
1000
0100
1000
,
0010
0000
0100
0000
0002
0000
0000
0000
0013
0000
0000
0010
0000
0000
0100
0000
,
2000
3010
0200
0310
,
0001
0000
0000
0001
0000
0000
0010
0000
1000
0000
0000
0000
1010
0000
0000
0000
,
0012
0000
1003
0000
0010
1000
0001
0100
,
0010
1000
0002
0000
0013
0000
0001
1000
,
0020
0000
0130
0000
0010
1000
0010
1000
,
0001
0000
1000
0100
0001
0100
1000
0000
,
0002
0023
0230
2300
,
3001
0000
1000
0100
0010
0001
0010
0001
,
2000
3020
0032
0203
,
2300
3020
0230
0302
,
1003
0000
1100
0000
0001
0100
0001
0000
,
1000
0010
1000
0010
0100
0001
1000
0000
,
0002
0103
0200
1300
,
2000
3010
0020
0031
,
2000
3020
0230
0302
,
1003
0000
0001
0100
0010
1000
0010
1000
,
0002
0023
2030
3200
,
0302
0023
0230
2300
,
3001
0000
0101
0000
1000
0100
1000
0000
,
0001
0010
0001
0010
0100
1000
0001
0000
,
1000
0000
1100
0000
0001
0100
0001
0000
,
1000
0010
1000
0010
0100
0001
1000
0000
,
1100
0000
0000
0011
0000
0100
0000
2002
,
0000
0000
3003
0000
0000
0000
0000
0000
1010
0000
0000
0001
0000
0000
0200
0000
,
0000
0000
0300
0000
0000
0000
0000
0000
1100
0000
0000
0001
0000
0000
0020
0000
,
0000
0030
0000
0100
0000
2002
0000
3003
,
0101
0000
0000
1010
0000
0001
0000
2000
,
0000
0100
0000
0100
,
3002
0100
0000
0100
,
0003
1000
0001
0110
,
2000
0000
0000
0000
,
0000
0000
0001
0000
,
0000
0000
0000
0000
,
3000
0000
0000
0000
;

//---------------dance-single - ----------------
#NOTEDATA:;
#CHARTNAME:;
#STEPSTYPE:dance-single;
#DESCRIPTION:;
#CHARTSTYLE:;
#DIFFICULTY:Medium;
#METER:8;
#RADARVALUES:0.324847,0.380146,0.147545,0.772442,0.008679,262.000000,245.000000,17.000000,89.000000,0.000000,0.000000,0.000000,0.000000,0.000000,0.324847,0.380146,0.147545,0.772442,0.008679,262.000000,245.000000,17.000000,89.000000,0.000000,0.000000,0.000000,0.000000,0.000000;
#CREDIT:led_light;
#NOTES:
0000
0000
0000
0000
,
0000
0000
0000
0000
,
0000
0000
0000
0000
,
0000
0000
0000
0000
,
0000
0000
0000
0000
,
0000
0000
0000
0000
,
0000
0000
0000
0000
,
0110
0000
0000
1000
0000
1000
0000
0002
,
0000
0010
0000
0010
,
2003
0100
0000
0100
,
3000
1000
0001
0110
,
2000
3001
0002
0103
,
0002
0013
0200
1300
,
0002
1003
2000
3010
,
0200
0302
2003
3200
,
1300
0000
0001
0000
1000
0100
0010
0000
,
0001
0000
1000
0001
,
0100
0000
0100
0000
0010
0100
0010
0000
,
2000
3002
0023
0230
,
1300
1000
0001
0001
,
1000
0000
1000
0000
0001
0100
0010
0000
,
2000
0000
0100
0000
3002
0000
0100
0003
,
1001
0000
0000
0000
0001
0100
1000
0000
,
0100
0100
0001
1000
,
0001
0000
0000
0000
1000
0100
0001
0000
,
0100
0100
1000
0001
,
1000
1000
0001
0001
,
0100
0100
0010
0010
,
1000
0100
1000
0000
0001
0010
0001
0000
,
1000
1000
0101
0000
,
0220
0000
0330
0000
0100
0001
1000
0000
,
0100
1000
0010
1100
,
0002
1003
0020
0130
,
0001
0001
0010
0001
,
2020
0000
3030
0000
1000
0100
1000
0000
,
0001
0200
0300
0010
,
2000
0000
3000
0000
0001
0100
0001
0000
,
2000
0000
3000
0000
0100
0010
0100
0000
,
0220
0000
0330
0000
0100
1000
0001
0000
,
0100
0001
0010
0101
,
2000
3001
0020
0130
,
1000
1000
0010
1000
,
0022
0000
0033
0000
0001
0100
0001
0000
,
1000
0200
0300
0010
,
0002
0000
0003
0000
1000
0100
1000
0000
,
0002
0000
0003
0000
0100
0010
0100
0000
,
0002
0023
0230
2300
,
3001
0000
1000
0000
0100
0010
0001
0000
,
2000
3020
0230
0320
,
2030
3002
0023
0230
,
0310
1001
0002
0203
,
0302
2003
3020
0230
,
0302
0010
2003
0100
,
3002
0100
2003
3100
,
2000
3020
0230
0302
,
1003
0000
0001
0000
0100
0010
1000
0000
,
0002
0023
0230
0320
,
0032
2003
3020
0230
,
0310
1001
2000
3200
,
2300
3002
0023
0230
,
1300
1001
0002
0203
,
0320
2030
3002
0013
,
0011
0000
0000
0100
0000
0100
0000
2020
,
0000
0000
3030
0000
0000
0000
0000
0000
1000
0000
0000
0001
0000
0000
0200
0000
,
0000
0000
0300
0000
0000
0000
0000
0000
0001
0000
0000
1000
0000
0000
0200
0000
,
0000
0300
0000
1000
0000
0020
0000
0030
,
0110
0000
0000
1000
0000
1000
0000
0002
,
0000
0010
0000
0010
,
2003
0100
0000
0100
,
3000
1000
0001
0110
,
2000
0000
0000
0000
,
0000
0000
0001
0000
,
0000
0000
0000
0000
,
3000
0000
0000
0000
;

//---------------dance-single - ----------------
#NOTEDATA:;
#CHARTNAME:;
#STEPSTYPE:dance-single;
#DESCRIPTION:;
#CHARTSTYLE:;
#DIFFICULTY:Easy;
#METER:6;
#RADARVALUES:0.264093,0.316788,0.156224,0.329807,0.000000,213.000000,195.000000,18.000000,38.000000,0.000000,0.000000,0.000000,0.000000,0.000000,0.264093,0.316788,0.156224,0.329807,0.000000,213.000000,195.000000,18.000000,38.000000,0.000000,0.000000,0.000000,0.000000,0.000000;
#CREDIT:led_light;
#NOTES:
0000
0000
0000
0000
,
0000
0000
0000
0000
,
0000
0000
0000
0000
,
0000
0000
0000
0000
,
0000
0000
0000
0000
,
0000
0000
0000
0000
,
0000
0000
0000
0000
,
1001
0000
0000
0001
0000
0001
0000
0002
,
0000
0000
0000
0000
,
2003
0000
0000
0000
,
3000
0010
0100
0110
,
0002
0003
2000
3000
,
0200
0300
2000
3000
,
0002
0003
0020
0030
,
0200
0300
2000
3000
,
0010
0100
0010
0100
,
0001
0000
1000
1000
,
0001
0010
1000
0010
,
0001
1000
0001
0000
,
1000
1000
0100
0100
,
1000
0000
0001
1000
,
0020
0000
0000
0000
0200
0000
0000
0330
,
1010
0000
1000
1000
,
0000
0001
0010
0001
,
0101
0000
0001
0001
,
0000
1000
0100
1000
,
0010
1000
0010
1000
,
0100
0010
0100
0010
,
0001
0001
1000
1000
,
0001
1000
1001
0000
,
0220
0330
0001
0010
,
1000
0010
0001
0101
,
0020
1030
0002
0013
,
0100
0100
1000
0001
,
0220
0330
0100
0100
,
0001
2000
3000
0100
,
2000
3000
0010
0100
,
0010
0000
1000
0100
,
0220
0330
1000
0010
,
0001
0010
1000
1100
,
0020
0031
2000
3010
,
0100
0100
0001
1000
,
0220
0330
0100
0100
,
1000
0002
0003
0100
,
0002
0003
0010
0100
,
0010
0000
0001
0100
,
0010
1000
0100
1000
,
0010
0000
1000
1001
,
0001
0010
1000
0100
,
1000
0010
0001
0100
,
0110
0000
0001
0001
,
0010
1000
0010
0001
,
2000
0000
3002
0000
,
0203
0000
0320
0030
,
0100
0001
0010
0001
,
0100
0000
0001
1001
,
1000
0100
0001
0010
,
0001
0100
1000
0010
,
0110
0000
1000
1000
,
0100
0001
0100
1000
,
0001
0000
1000
0001
,
0100
0010
1000
0001
,
0110
0000
0000
0100
0000
0100
0000
0200
,
0000
0300
0000
0000
1000
0000
0000
0002
,
0000
0003
0000
0000
0001
0000
0000
0200
,
0000
0300
0000
0010
0000
1000
0000
0000
,
1001
0000
0000
0001
0000
0001
0000
0002
,
0000
0000
0000
0000
,
2003
0000
0000
0000
,
3000
0010
0100
0110
,
0002
0000
0000
0000
,
0000
0000
1000
0000
,
0000
0000
0000
0000
,
0003
0000
0000
0000
;

//---------------dance-single - ----------------
#NOTEDATA:;
#CHARTNAME:;
#STEPSTYPE:dance-single;
#DESCRIPTION:;
#CHARTSTYLE:;
#DIFFICULTY:Beginner;
#METER:3;
#RADARVALUES:0.119028,0.186167,0.078112,0.086791,0.000000,96.000000,87.000000,9.000000,10.000000,0.000000,0.000000,0.000000,0.000000,0.000000,0.119028,0.186167,0.078112,0.086791,0.000000,96.000000,87.000000,9.000000,10.000000,0.000000,0.000000,0.000000,0.000000,0.000000;
#CREDIT:led_light;
#NOTES:
// measure 0
0000
0000
0000
0000
,  // measure 1
0000
0000
0000
0000
,  // measure 2
0000
0000
0000
0000
,  // measure 3
0000
0000
0000
0000
,  // measure 4
0000
0000
0000
0000
,  // measure 5
0000
0000
0000
0000
,  // measure 6
0000
0000
0000
0000
,  // measure 7
1001
0000
0000
0000
,  // measure 8
2000
0000
0000
0000
,  // measure 9
0000
0000
0000
0000
,  // measure 10
3000
0000
0000
0000
,  // measure 11
0002
0000
0003
0000
,  // measure 12
0200
0000
0300
0000
,  // measure 13
2000
0000
3000
0000
,  // measure 14
0020
0000
0030
0000
,  // measure 15
0010
0000
0001
0000
,  // measure 16
0010
0000
0000
0000
,  // measure 17
0001
0000
1000
0000
,  // measure 18
0001
0000
0000
0000
,  // measure 19
1000
0000
0100
0000
,  // measure 20
1000
0000
0001
0000
,  // measure 21
2000
0000
0000
3000
,  // measure 22
1001
0000
0000
0000
,  // measure 23
0001
0000
0001
0000
,  // measure 24
1000
0000
0000
0000
,  // measure 25
1000
0000
1000
0000
,  // measure 26
0010
0000
0010
0000
,  // measure 27
1000
0000
1000
0000
,  // measure 28
0100
0000
0100
0000
,  // measure 29
0010
0000
0000
0000
,  // measure 30
0110
0000
0010
0000
,  // measure 31
0100
0000
0000
0000
,  // measure 32
1000
0000
0001
0000
,  // measure 33
1000
0000
1000
0000
,  // measure 34
0110
0000
0000
0000
,  // measure 35
1000
0000
0000
0000
,  // measure 36
1000
0000
0100
0000
,  // measure 37
0010
0000
0001
0000
,  // measure 38
1001
0000
0001
0000
,  // measure 39
1000
0000
0000
0000
,  // measure 40
0010
0000
0100
0000
,  // measure 41
0010
0000
0010
0000
,  // measure 42
1001
0000
0000
0000
,  // measure 43
0010
0000
0000
0000
,  // measure 44
0010
0000
1000
0000
,  // measure 45
0001
0000
0100
0000
,  // measure 46
1000
0000
0100
0000
,  // measure 47
1000
0000
0000
0000
,  // measure 48
0001
0000
0010
0000
,  // measure 49
0010
0000
0001
0000
,  // measure 50
1000
0000
0000
0000
,  // measure 51
0100
0000
0010
0000
,  // measure 52
0002
0000
0003
0000
,  // measure 53
2000
0000
3000
0000
,  // measure 54
0001
0000
0010
0000
,  // measure 55
0001
0000
0000
0000
,  // measure 56
1000
0000
0100
0000
,  // measure 57
0100
0000
1000
0000
,  // measure 58
0001
0000
0000
0000
,  // measure 59
1000
0000
0010
0000
,  // measure 60
0100
0000
0000
0000
,  // measure 61
0001
0000
1000
0000
,  // measure 62
1001
0000
0000
0000
,  // measure 63
0000
0000
0000
0000
,  // measure 64
0110
0000
0000
0000
,  // measure 65
0100
0000
0000
0000
,  // measure 66
1001
0000
0000
0000
,  // measure 67
2000
0000
0000
0000
,  // measure 68
0000
0000
0000
0000
,  // measure 69
3000
0000
0000
0000
,  // measure 70
0020
0000
0000
0000
,  // measure 71
0000
0000
0030
0000
;

//---------------dance-double - ----------------
#NOTEDATA:;
#CHARTNAME:;
#STEPSTYPE:dance-double;
#DESCRIPTION:;
#CHARTSTYLE:;
#DIFFICULTY:Easy;
#METER:6;
#RADARVALUES:0.252934,0.316788,0.112829,0.329807,0.000000,204.000000,191.000000,13.000000,38.000000,0.000000,0.000000,0.000000,0.000000,0.000000,0.252934,0.316788,0.112829,0.329807,0.000000,204.000000,191.000000,13.000000,38.000000,0.000000,0.000000,0.000000,0.000000,0.000000;
#CREDIT:led_light;
#NOTES:
00000000
00000000
00000000
00000000
,
00000000
00000000
00000000
00000000
,
00000000
00000000
00000000
00000000
,
00000000
00000000
00000000
00000000
,
00000000
00000000
00000000
00000000
,
00000000
00000000
00000000
00000000
,
00000000
00000000
00000000
00000000
,
00001001
00000000
00000000
00000001
00000000
00000001
00000000
00000002
,
00000000
00000000
00000000
00000000
,
00002003
00000000
00000000
00000000
,
00003000
00000100
00010000
00011000
,
00002000
00003000
00020000
00030000
,
02000000
03000000
20000000
30000000
,
00200000
00300000
02000000
03000000
,
00002000
00003000
00020000
00030000
,
00000100
00001000
00000010
00001000
,
00000100
00000000
00010000
00010000
,
00000100
00000010
00000100
00000010
,
00000001
00001000
00000001
00000000
,
00000100
00000100
00001000
00001000
,
00010000
00000000
00100000
10000000
,
00020000
00000000
00000000
00000000
00200000
00000000
00000000
00330000
,
01100000
00000000
00010000
00010000
,
00000000
00100000
00001000
00010000
,
00011000
00000000
00001000
00001000
,
00000000
00000010
00000100
00001000
,
00000001
00000010
00000001
00000010
,
00001000
00010000
00001000
00010000
,
00100000
01000000
00100000
01000000
,
00001000
00010000
00001000
00000000
,
00022000
00033000
00001000
00010000
,
01000000
00010000
00001000
00010000
,
00002000
00003000
00000020
00000030
,
00000001
00001000
00000010
00000100
,
00000220
00000330
00001000
00000001
,
00001000
00000200
00000300
00000010
,
00002000
00003000
00010000
00010000
,
00001000
00000000
00100000
00001000
,
00022000
00033000
00010000
00001000
,
00000010
00001000
00010000
00001000
,
00020000
00030000
02000000
03000000
,
10000000
00010000
01000000
00100000
,
02200000
03300000
00010000
10000000
,
00010000
00200000
00300000
01000000
,
00020000
00030000
00001000
00001000
,
00010000
00000000
00000100
00010000
,
00000100
00001000
00000100
00001000
,
00000001
00000000
00001000
00000100
,
00001000
00000010
00000100
00000010
,
00000001
00000010
00001000
00000010
,
00011000
00000000
00001000
00001000
,
00100000
00010000
10000000
00010000
,
02000000
00000000
03200000
00000000
,
20300000
00000000
30020000
00030000
,
00100000
00010000
00100000
00010000
,
10000000
00000000
00010000
00100000
,
00010000
01000000
00100000
01000000
,
10000000
01000000
00010000
01000000
,
00011000
00000000
00010000
00010000
,
00000100
00001000
00000001
00001000
,
00000010
00000000
00000100
00000001
,
00000100
00000010
00010000
00001000
,
00011000
00000000
00000000
00001000
00000000
00001000
00000000
00002000
,
00000000
00003000
00000000
00000000
00100000
00000000
00000000
00200000
,
00000000
00300000
00000000
00000000
00000010
00000000
00000000
00000020
,
00000000
00000030
00000000
00000100
00000000
00000100
00000000
00000000
,
00001001
00000000
00000000
00000001
00000000
00000001
00000000
00000002
,
00000000
00000000
00000000
00000000
,
00002003
00000000
00000000
00000000
,
00003000
00000100
00010000
00011000
,
00002000
00000000
00000000
00000000
,
00000000
00000000
00010000
00000000
,
00000000
00000000
00000000
00000000
,
00003000
00000000
00000000
00000000
;

//---------------dance-double - ----------------
#NOTEDATA:;
#CHARTNAME:;
#STEPSTYPE:dance-double;
#DESCRIPTION:;
#CHARTSTYLE:;
#DIFFICULTY:Medium;
#METER:8;
#RADARVALUES:0.327327,0.380146,0.147545,0.737726,0.008679,264.000000,247.000000,17.000000,85.000000,0.000000,0.000000,0.000000,0.000000,0.000000,0.327327,0.380146,0.147545,0.737726,0.008679,264.000000,247.000000,17.000000,85.000000,0.000000,0.000000,0.000000,0.000000,0.000000;
#CREDIT:led_light;
#NOTES:
00000000
00000000
00000000
00000000
,
00000000
00000000
00000000
00000000
,
00000000
00000000
00000000
00000000
,
00000000
00000000
00000000
00000000
,
00000000
00000000
00000000
00000000
,
00000000
00000000
00000000
00000000
,
00000000
00000000
00000000
00000000
,
00011000
00000000
00000000
00001000
00000000
00001000
00000000
00200000
,
00000000
00010000
00000000
00010000
,
00302000
00010000
00000000
00010000
,
00003000
00100000
00010000
01100000
,
20000000
30100000
00200000
01300000
,
00020000
00130000
00002000
00003010
,
00000020
00000031
00000002
00001003
,
00000200
00002300
00003020
00000230
,
00001300
00000000
00010000
00000000
01000000
00100000
01000000
00000000
,
10000000
00000000
00100000
10000000
,
01000000
00000000
10000000
00000000
00010000
01000000
00100000
00000000
,
02000000
03002000
00023000
00030020
,
00001030
00000100
00001000
00000100
,
00010000
00000000
00001000
00000000
00010000
01000000
10000000
00000000
,
00020000
00000000
00100000
00000000
20030000
00000000
00100000
30000000
,
01100000
00000000
00000000
00000000
00010000
01000000
10000000
00000000
,
01000000
01000000
00010000
00001000
,
00000010
00000000
00000000
00000000
00001000
00000100
00000001
00000000
,
00000100
00000100
00001000
00010000
,
00100000
00100000
00001000
00001000
,
00010000
00010000
00000010
00000010
,
00001000
00000010
00001000
00000000
00000001
00000100
00000001
00000000
,
00001000
00001000
00010100
00000000
,
00022000
00000000
00033000
00000000
00001000
00100000
00010000
00000000
,
01000000
00100000
10000000
00010000
,
12000000
03010000
00020000
00031000
,
00001000
00000010
00000001
00001000
,
00002200
00000000
00003300
00000000
00001000
00000001
00000100
00000000
,
00000010
00001000
00000100
00000010
,
00000020
00000000
00000030
00000000
00000001
00000010
00000001
00000000
,
00001000
00000000
00000000
00000000
00000010
00000100
00001000
00000000
,
00022000
00000000
00033000
00000000
00010000
00000100
00001000
00000000
,
00000010
00000100
00000001
00001000
,
00000021
00001030
00002000
00013000
,
00010000
01000000
10000000
00010000
,
00220000
00000000
00330000
00000000
00010000
10000000
00100000
00000000
,
01000000
00010000
00100000
01000000
,
02000000
00000000
03000000
00000000
10000000
01000000
10000000
00000000
,
00010000
00000000
00000000
00000000
01000000
00100000
00010000
00000000
,
00002000
00003020
00000230
00000320
,
00000031
00000000
00001000
00000000
00000001
00000010
00000100
00000000
,
00002000
00003002
00000203
00002300
,
00023000
00230000
02300000
03200000
,
10300000
10010000
00020000
00230000
,
00302000
00023000
02030000
03020000
,
00032000
00000100
00003200
00000010
,
00000320
00010000
00020030
00031000
,
00020000
02030000
03200000
02300000
,
13000000
00000000
00010000
00000000
10000000
01000000
00100000
00000000
,
00020000
20030000
30200000
00320000
,
00032000
00003200
00000320
00000230
,
00000301
00001001
00002000
00003200
,
00020300
00032000
00003020
00002030
,
00013000
00011000
00002000
00023000
,
00230000
02300000
03002000
00013000
,
00011000
00000000
00000000
00100000
00000000
00100000
00000000
22000000
,
00000000
00000000
33000000
00000000
00000000
00000000
00000000
00000000
00100000
00000000
00000000
00001000
00000000
00000000
00020000
00000000
,
00000000
00000000
00030000
00000000
00000000
00000000
00000000
00000000
00000100
00000000
00000000
00010000
00000000
00000000
00002000
00000000
,
00000000
00003000
00000000
00010000
00000000
00020000
00000000
00030000
,
00011000
00000000
00000000
00001000
00000000
00001000
00000000
00200000
,
00000000
00010000
00000000
00010000
,
00302000
00010000
00000000
00010000
,
00003000
00100000
00010000
01100000
,
20000000
00000000
00000000
00000000
,
00000000
00000000
00010000
00000000
,
00000000
00000000
00000000
00000000
,
30000000
00000000
00000000
00000000
;

//---------------dance-double - ----------------
#NOTEDATA:;
#CHARTNAME:;
#STEPSTYPE:dance-double;
#DESCRIPTION:;
#CHARTSTYLE:;
#DIFFICULTY:Hard;
#METER:11;
#RADARVALUES:0.405439,0.506861,0.147545,0.668293,0.034716,327.000000,310.000000,17.000000,77.000000,0.000000,0.000000,0.000000,0.000000,0.000000,0.405439,0.506861,0.147545,0.668293,0.034716,327.000000,310.000000,17.000000,77.000000,0.000000,0.000000,0.000000,0.000000,0.000000;
#CREDIT:led_light;
#NOTES:
00000000
00000000
00000000
00000000
,
00000000
00000000
00000000
00000000
,
00000000
00000000
00000000
00000000
,
00000000
00000000
00000000
00000000
,
00000000
00000000
00000000
00000000
,
00000000
00000000
00000000
00000000
,
00000000
00000000
00000000
00000000
,
00000110
00000000
00000000
00001010
00000000
00000001
00000000
00002000
,
00000000
00000100
00000000
00000100
,
00023000
00100000
00000000
00100000
,
00030000
01000000
10000000
01100000
,
20000000
30010000
00020000
01030000
,
00200000
00310000
00002000
00003010
,
00000002
00000103
00002000
00003100
,
00000002
00000203
00000320
00002030
,
00003100
00000000
00000010
00000100
00001000
00000100
00000010
00000001
,
00001000
00000000
00000001
00000100
00000010
00010000
00001000
00000000
,
01000000
00000000
00000000
01000000
00000000
00000000
00001000
00000000
00010000
00000000
01000000
00000000
20000000
00000000
00000000
00000000
,
32000000
03200000
00320000
20030000
,
30100000
00000000
10000000
01000000
00100000
00010000
00100000
00001000
,
00010000
00000000
00000010
00001000
00000010
00000100
00000001
00001000
,
00000200
00000000
00000010
00000000
00020300
00000000
00001000
00030000
,
00011000
00000000
00000000
00000100
00001000
00000001
00000010
00000000
,
00000001
00000010
00000001
00000010
00001000
00000000
00010000
00000000
,
00001000
00000000
00000000
00100000
00010000
10000000
01000000
00000000
,
10000000
01000000
10000000
01000000
00010000
00000000
00001000
00000000
,
00000010
00000001
00000010
00000000
00000100
00001000
00000100
00000000
,
00010000
00001000
00100000
00000000
00010000
01000000
00100000
00000000
,
10000000
00010000
10000000
00010000
00100000
00001000
00100000
00001000
,
00010000
00000000
00000000
00000000
00001000
00000000
00010000
00000000
00100000
00000000
00000000
00100000
00000000
00000000
10000000
00000000
,
20020000
00000000
30030000
00000000
00010000
01000000
00100000
10000000
,
00010000
00000000
00100000
00000000
00020000
00000000
00000000
00000000
10030000
00000000
00000000
10000000
00000000
00000000
01000000
00000000
,
00020000
00031000
00002000
00003100
,
00000001
00000000
00000000
00000001
00000000
00000000
00000100
00000000
00000010
00000000
00000000
00000000
00001000
00000000
00000000
00000000
,
00002002
00000000
00003003
00000000
00000001
00000100
00000001
00000010
,
00000100
00000010
00000002
00000000
00001003
00000000
00000001
00001000
,
00000200
00000000
00000310
00000000
00001000
00010000
00000100
00001000
,
00000100
00000000
00001000
00000010
00000001
00000010
00001000
00000000
,
00002002
00000000
00003003
00000000
00001000
00000010
00000100
00000001
,
00001000
00000000
00000100
00000000
00002000
00000000
00000000
00000000
00003001
00000000
00000000
00000001
00000000
00000000
00000010
00000000
,
00002000
00013000
00020000
00130000
,
10000000
00000000
00000000
10000000
00000000
00000000
00100000
00000000
01000000
00000000
00000000
00000000
00010000
00000000
00000000
00000000
,
20020000
00000000
30030000
00000000
10000000
00100000
10000000
01000000
,
00100000
01000000
20000000
00000000
30010000
00000000
10000000
00010000
,
00200000
00000000
01300000
00000000
00010000
00001000
00100000
00010000
,
00100000
00000000
00010000
01000000
10000000
01000000
00010000
00000000
,
20000000
30200000
02300000
03020000
,
00031000
00000000
00000000
00000010
00000100
00000001
00001000
00000000
,
00000002
00000023
00000230
00020300
,
00032000
00023000
02030000
23000000
,
30010000
00000000
10010000
00000000
10000000
01000000
20000000
00000000
,
30010000
01000000
00100000
01000000
00010000
00100000
00001000
00000000
,
00020000
00000000
00030100
00001000
00000020
00000000
00000130
00000001
,
00002000
00000000
00003100
00000010
00000002
00000000
00001003
00000000
,
00000002
00000203
00000320
00002030
,
00013000
00000000
00000000
01000000
00100000
10000000
00010000
00000000
,
20000000
32000000
03200000
00302000
,
00023000
00032000
00003020
00000032
,
00001003
00000000
00001001
00000000
00000001
00000010
00000002
00000000
,
00001003
00000010
00000100
00000010
00001000
00000100
00020000
00000000
,
00031000
00000000
00011000
00000000
00001000
00100000
00020000
00000000
,
01030000
00100000
10000000
01000000
00100000
00010000
10000000
00000000
,
11000000
00000000
00000000
01010000
00000000
00001000
00000000
00022000
,
00000000
00000000
00033000
00000000
00000000
00000000
00000000
00000000
00000010
00000000
00000000
00001000
00000000
00000000
00000200
00000000
,
00000000
00000000
00000300
00000000
00000000
00000000
00000000
00000000
00001000
00000000
00000000
00000001
00000000
00000000
00000200
00000000
,
00000000
00000300
00000000
00001000
00000000
00000200
00000000
00000300
,
00000110
00000000
00000000
00001010
00000000
00000001
00000000
00002000
,
00000000
00000100
00000000
00000100
,
00023000
00100000
00000000
00100000
,
00030000
01000000
10000000
01100000
,
20000000
00000000
00000000
00000000
,
00000000
00000000
00010000
00000000
,
00000000
00000000
00000000
00000000
,
30000000
00000000
00000000
00000000
;

//---------------dance-double - ----------------
#NOTEDATA:;
#CHARTNAME:;
#STEPSTYPE:dance-double;
#DESCRIPTION:;
#CHARTSTYLE:;
#DIFFICULTY:Challenge;
#METER:14;
#RADARVALUES:0.603819,0.728612,0.269053,0.251695,0.216978,487.000000,456.000000,31.000000,29.000000,0.000000,0.000000,0.000000,0.000000,0.000000,0.603819,0.728612,0.269053,0.251695,0.216978,487.000000,456.000000,31.000000,29.000000,0.000000,0.000000,0.000000,0.000000,0.000000;
#CREDIT:led_light;
#NOTES:
00000000
00000000
00000000
00000000
,
00000000
00000000
00000000
00000000
,
00000000
00000000
00000000
00000000
,
00000000
00000000
00000000
00000000
,
00000000
00000000
00000000
00000000
,
00000000
00000000
00000000
00000000
,
00000000
00000000
00000000
00000000
,
00010100
00000000
00000000
00101000
00000000
00011000
00000000
10020000
,
00000000
01000000
00000000
01000000
,
00032000
00000010
00000000
00000010
,
00003000
00010000
00001000
00000110
,
00000012
00000000
00000000
00000000
00000000
00000000
00000000
00000000
00001003
00000000
00000000
00000000
00000001
00000000
00000000
00000000
00000200
00000000
00000000
00000000
00000000
00000000
00000000
00000000
00000310
00000000
00000000
00000010
00000000
00000000
00010000
00000000
,
00002000
00000000
00000000
00000000
00000000
00000000
00000000
00000000
01003000
00000000
00000000
00000000
00001000
00000000
00000000
00000000
00000200
00000000
00000000
00000000
00001300
00000000
00000000
00000000
00010000
00000000
00000000
00010000
00000000
00000000
01000000
00000000
,
20000000
00000000
00000000
00000000
31000000
00000000
00000000
01000000
00200000
00000000
00000000
00000000
00310000
00000000
00000000
00000000
,
20000000
31000000
00020000
01030000
20000000
30100000
00020000
00031000
,
00010000
00000000
00000100
00001000
00000000
00000100
00001000
00000000
00000001
00000000
00001000
00000000
00000010
00000000
00000100
00000000
,
00000001
00000000
00000100
00000010
00001000
00000100
00001000
00000100
,
00010000
00000000
00001000
00010000
00000000
00001000
00010000
00000000
00001000
00000000
00100000
00000000
00010000
00000000
10000000
00000000
,
01000000
00010000
00001000
00010000
01000000
10000000
00020000
00000000
,
00130000
00000000
00000000
00010000
10000000
00000000
01000000
00000000
10000000
00000000
00100000
00000000
10000000
00000000
00100000
00000000
,
01000000
00001000
00010000
00000100
00000010
00000100
00001000
00000100
,
00020000
00000000
00000000
00000000
00000000
00000000
00000000
00000000
00000000
00000000
00000000
00000000
01000000
00000000
00000000
00000000
00000000
00000000
00000000
00000000
00000000
00000000
00000000
00000000
00032000
00000000
00000000
00000000
00000000
00000000
00003100
00000000
00000000
00010000
00000000
00000000
01000000
00000000
00010000
00000000
00100000
00000000
00001000
00000000
00000000
00000000
00000000
00000000
,
00011000
00000000
00010000
01000000
10000000
01000000
00010000
00000000
,
00001000
00000010
00001000
00000010
00000001
00001000
00000001
00000100
,
00001000
00000000
00001000
00000100
00000001
00000100
00001000
00000000
,
00010000
00100000
00010000
00100000
10000000
00010000
10000000
01000000
,
00100000
00010000
00100000
00010000
10000000
00100000
10000000
00100000
,
01000000
00001000
01000000
00001000
00010000
00001000
00010000
00001000
,
00000010
00000100
00000010
00000100
00001000
00000001
00001000
00000001
,
00000100
00000010
00000000
00000010
00001000
00000100
00010000
00001000
00100000
00000000
00000000
00010000
00000000
00000000
10000000
00000000
,
20010000
00000000
30100000
00000000
10000000
01000000
00010000
01000000
,
10000000
00000000
00010000
00000000
01000000
00000000
00100000
00000000
01000000
00000000
00001000
00010000
00000000
00001000
00010000
00000000
,
00000100
00000000
00001000
00000000
00000010
00000100
00000010
00000000
00000100
00000000
00000001
00000000
00001000
00000100
00001000
00000000
,
00000001
00000000
00001000
00000010
00000000
00001000
00000010
00000000
00000100
00000000
00001000
00000000
00010000
00000000
00001000
00000000
,
00021000
00000000
00030100
00000000
00010000
01000000
10000000
01000000
,
00100000
01000000
00100000
00010000
01000000
00001000
00010000
00000100
,
00001000
00000000
00000010
00000100
00001000
00000000
00000100
00000000
00000010
00000000
00001000
00000100
00000010
00000000
00000100
00000000
,
00001000
00000000
00000001
00001000
00000010
00000100
00000010
00000100
00000001
00000000
00000100
00000000
00000010
00000000
00001000
00000000
,
00002001
00000000
00003100
00000000
00001000
00000010
00000001
00000010
,
00001000
00000000
00000100
00000000
00000010
00000000
00000100
00000000
00010000
00000000
00001000
00010000
00000000
00001000
00010000
00000000
,
00001000
00000000
01000000
00000000
00100000
10000000
00100000
00000000
01000000
00000000
00010000
00000000
10000000
01000000
10000000
00000000
,
00010000
00000000
01000000
00100000
00000000
01000000
00100000
00000000
01000000
00000000
00001000
00000000
00010000
00000000
00001000
00000000
,
00021000
00000000
00030100
00000000
00010000
00001000
00000100
00000001
,
00000100
00000010
00000100
00000010
00001000
00000100
00010000
00001000
,
00100000
00000000
00010000
00100000
01000000
00000000
00100000
00000000
00010000
00000000
01000000
00100000
00010000
00000000
00100000
00000000
,
01000000
00000000
00010000
10000000
01000000
00100000
01000000
00100000
00010000
00000000
00100000
00000000
01000000
00000000
10000000
00000000
,
00010000
01000000
00010000
01000000
00100000
01000000
10000000
01000000
,
00010000
00000000
10000000
01000000
00010000
00001000
00000010
00000001
,
00000010
00000100
00001000
00000001
00001000
00000010
00000100
00000010
,
00001000
00000100
00010000
00000010
00001000
00000100
00020000
00000000
,
00031000
00000000
00011000
00000000
00100000
00001000
00010000
00001000
,
01000000
00001000
00010000
00000100
00001000
00000100
00010000
00001000
,
01000000
00000000
00100000
01000000
00100000
00000000
00010000
00000000
00001000
00000000
00000100
00000010
00000100
00000000
00001000
00000000
,
00010000
00000000
01000000
00100000
01000000
00000000
00010000
00000000
00001000
00000000
00000010
00000100
00000010
00000000
00000001
00000000
,
00001000
00000010
00001000
00000010
00000001
00000010
00000100
00000010
,
00001000
00000000
00000001
00000010
00001000
00010000
01000000
10000000
,
01000000
00100000
00010000
10000000
00010000
01000000
00100000
01000000
,
00010000
00100000
00001000
01000000
00010000
00100000
00002000
00000000
,
00013000
00000000
00011000
00000000
00000100
00010000
00001000
00010000
,
00100000
01000000
00100000
00010000
00001000
00000010
00000100
00001000
,
00000001
00000000
00000110
00000000
00001000
00010000
00001000
00100000
,
00010000
01000000
00100000
10000000
01000000
00100000
00010000
00000000
,
00011000
00000000
00000000
00001100
00000000
00000011
00000000
00002001
,
00000000
00000000
00003001
00000100
00000010
00001000
00000010
00000000
00011000
00000000
00000000
00110000
00000000
00000000
01200000
00000000
,
00000000
00000000
00310000
10000000
00010000
00000000
10000000
00000000
10100000
00000000
00000000
01010000
00000000
00000000
00021000
00000000
,
00000000
00000000
00031000
00010000
00001000
00000000
01001000
00000000
00000000
00000000
00022000
00000000
00000000
00000000
00033000
00000000
,
00010100
00000000
00000000
00101000
00000000
00011000
00000000
10020000
,
00000000
01000000
00000000
01000000
,
00032000
00000010
00000000
00000010
,
00003000
00010000
00001000
00000110
,
00000002
00000000
00000000
00000000
,
00000000
00000000
00001000
00000000
,
00000000
00000000
00000000
00000000
,
00000003
00000000
00000000
00000000
;
