#VERSION:0.83;
#TITLE:夢の空、約束の場所;
#SUBTITLE:;
#ARTIST:Illusion Sonic;
#TITLETRANSLIT:Yume no sora, yakusoku no basho;
#SUBTITLETRANSLIT:;
#ARTISTTRANSLIT:;
#GENRE:BEMANI;
#ORIGIN:;
#CREDIT:;
#BANNER:Yume no sora, yakusoku no basho.png;
#BACKGROUND:Yume no sora, yakusoku no basho-bg.png;
#PREVIEWVID:;
#JACKET:Yume no sora, yakusoku no basho-jacket.png;
#CDIMAGE:;
#DISCIMAGE:;
#LYRICSPATH:;
#CDTITLE:../cdtitle.png;
#MUSIC:Yume no sora, yakusoku no basho.ogg;
#OFFSET:0.450000;
#SAMPLESTART:71.771004;
#SAMPLELENGTH:15.000000;
#SELECTABLE:YES;
#BPMS:0.000=135.000;
#STOPS:;
#DELAYS:;
#WARPS:;
#TIMESIGNATURES:0.000=4=4;
#TICKCOUNTS:0.000=4;
#COMBOS:0.000=1;
#SPEEDS:0.000=1.000=0.000=0;
#SCROLLS:0.000=1.000;
#FAKES:;
#LABELS:0.000=Song Start;
#BGCHANGES:-99.000=../bg.avi=1.000=0=0=1=====,
99999=-nosongbg-=1.000=0=0=0 // don't automatically add -songbackground-
;
#KEYSOUNDS:;
#ATTACKS:
;

//---------------dance-single - ----------------
#NOTEDATA:;
#CHARTNAME:;
#STEPSTYPE:dance-single;
#DESCRIPTION:;
#CHARTSTYLE:;
#DIFFICULTY:Beginner;
#METER:1;
#RADARVALUES:0.055100,0.078517,0.000000,0.000000,0.000000,42.000000,42.000000,0.000000,0.000000,0.000000,0.000000,0.000000,0.000000,0.000000,0.055100,0.078517,0.000000,0.000000,0.000000,42.000000,42.000000,0.000000,0.000000,0.000000,0.000000,0.000000,0.000000,0.000000;
#CREDIT:led_light;
#NOTES:
0000
0000
0000
0000
,
0000
0000
0000
0000
,
0000
0000
0000
0000
,
0000
0000
0000
0000
,
0000
0000
0000
0000
,
0000
0000
0000
0000
,
0000
0000
0000
0000
,
0010
0000
0000
0000
,
0000
0000
0000
0000
,
0001
0000
0000
0000
,
0000
0000
0000
0000
,
0001
0000
0000
0000
,
0000
0000
0000
0000
,
1000
0000
0000
0000
,
0000
0000
0000
0000
,
1000
0000
0000
0000
,
0000
0000
0000
0000
,
0001
0000
0000
0000
,
0001
0000
0000
0000
,
0100
0000
0000
0000
,
0000
0000
0000
0000
,
1000
0000
0000
0000
,
1000
0000
0000
0000
,
0100
0000
0000
0000
,
0000
0000
0000
0000
,
0010
0000
0000
0000
,
0010
0000
0000
0000
,
0001
0000
0000
0000
,
0001
0000
0000
0000
,
0100
0000
0000
0000
,
0100
0000
0000
0000
,
1000
0000
0000
0000
,
1000
0000
0000
0000
,
0010
0000
0000
0000
,
1000
0000
0000
0000
,
0001
0000
0000
0000
,
0000
0000
0000
0000
,
0010
0000
0000
0000
,
0001
0000
0000
0000
,
1000
0000
0000
0000
,
0000
0000
0000
0000
,
0100
0000
0000
0000
,
0100
0000
0000
0000
,
0010
0000
0000
0000
,
0010
0000
0000
0000
,
1000
0000
0000
0000
,
1000
0000
0000
0000
,
0001
0000
0000
0000
,
0001
0000
0000
0000
,
0010
0000
0000
0000
,
0010
0000
0000
0000
,
0100
0000
0000
0000
,
0100
0000
0000
0000
,
0001
0000
0000
0000
,
0001
0000
0000
0000
,
1000
0000
0000
0000
,
1000
0000
0000
0000
,
0100
0000
0000
0000
;

//---------------dance-single - ----------------
#NOTEDATA:;
#CHARTNAME:;
#STEPSTYPE:dance-single;
#DESCRIPTION:;
#CHARTSTYLE:;
#DIFFICULTY:Easy;
#METER:3;
#RADARVALUES:0.111512,0.183207,0.000000,0.174483,0.000000,85.000000,85.000000,0.000000,19.000000,0.000000,0.000000,0.000000,0.000000,0.000000,0.111512,0.183207,0.000000,0.174483,0.000000,85.000000,85.000000,0.000000,19.000000,0.000000,0.000000,0.000000,0.000000,0.000000;
#CREDIT:led_light;
#NOTES:
0000
0000
0000
0000
,
0000
0000
0000
0000
,
0000
0000
0000
0000
,
0000
0000
0000
0000
,
0000
0000
0000
0000
,
0000
0000
0000
0000
,
0000
0000
0000
0000
,
0010
0000
0100
0000
,
0020
0000
0000
0030
,
1000
0000
1000
0000
,
0100
0000
0000
0000
,
0001
0000
0001
0000
,
0100
0000
0000
0000
,
1000
0000
1000
0000
,
0010
0000
0000
0000
,
0001
0000
0001
0000
,
0010
0000
0000
0000
,
0200
0000
0000
0300
,
2000
0000
0000
3000
,
0002
0000
0000
0000
,
0000
0000
0003
0000
,
0020
0000
0000
0030
,
0002
0000
0000
0003
,
2000
0000
0000
0000
,
0000
0000
3000
0000
,
0020
0000
0000
0030
,
2000
0000
0000
3000
,
0002
0000
0000
0000
,
0000
0000
0003
0000
,
0200
0000
0000
0300
,
0002
0000
0000
0003
,
2000
0000
0000
0000
,
0000
0000
3000
0000
,
0001
0000
1000
0010
,
0001
0000
1000
0100
,
0002
0000
1000
0003
,
2000
0000
0001
3000
,
0001
0000
1000
0100
,
0001
0000
1000
0010
,
0002
0000
1000
0003
,
2000
0000
0000
3000
,
0001
0000
0100
0100
,
0100
0000
0010
0000
,
1000
0000
0010
0010
,
0010
0000
0100
0000
,
0001
0000
1000
0100
,
0010
0000
0010
0000
,
0001
0000
1000
0001
,
0200
0000
0300
0001
,
1000
0000
0100
0100
,
0100
0000
0010
0000
,
0001
0000
0010
0010
,
0010
0000
0100
0000
,
1000
0000
0001
0100
,
0010
0000
0010
0000
,
1000
0000
0001
1000
,
0200
0000
0000
0000
,
0300
0000
0000
0000
;

//---------------dance-single - ----------------
#NOTEDATA:;
#CHARTNAME:;
#STEPSTYPE:dance-single;
#DESCRIPTION:;
#CHARTSTYLE:;
#DIFFICULTY:Medium;
#METER:6;
#RADARVALUES:0.205969,0.209380,0.000000,0.376516,0.000000,157.000000,157.000000,0.000000,41.000000,0.000000,0.000000,0.000000,0.000000,0.000000,0.205969,0.209380,0.000000,0.376516,0.000000,157.000000,157.000000,0.000000,41.000000,0.000000,0.000000,0.000000,0.000000,0.000000;
#CREDIT:led_light;
#NOTES:
0000
0000
0000
0000
,
0000
0000
0000
0000
,
0000
0000
0000
0000
,
0000
0000
0000
0000
,
0000
0000
0000
0000
,
0000
0000
0000
0000
,
0000
0000
0000
0000
,
1000
0001
1000
0001
,
0200
0010
0000
0310
,
0100
0001
0010
0100
,
1000
0000
1000
0001
,
1000
0010
0001
0100
,
1000
0000
1000
0001
,
1000
0100
0010
0001
,
0100
0000
0010
0010
,
0100
0001
0010
0100
,
2000
0000
0001
3001
,
0200
0000
0001
0301
,
0020
0000
0100
0130
,
2000
0000
0001
0001
,
0001
3000
1000
1000
,
0020
0000
0100
0100
,
0230
0300
0020
0000
,
0230
0000
0010
0010
,
0010
0300
1000
1000
,
0020
0000
1000
1030
,
0200
0000
0010
0310
,
0002
0000
1000
1000
,
1000
0003
0001
1000
,
0020
0000
0100
0130
,
0002
0000
0023
0032
,
2000
0000
0000
0000
,
0000
0000
3003
0001
,
0200
0000
0320
0032
,
0023
0000
2030
3200
,
0320
0000
0100
0100
,
0200
0000
0330
1000
,
0020
0000
0230
2300
,
3200
0000
0302
0023
,
0230
0000
0010
0010
,
0020
0000
0330
0100
,
1000
0010
0001
0010
,
2000
0100
0000
3100
,
0001
0100
1000
0100
,
0002
0010
0000
0013
,
0100
1000
0010
1000
,
0200
0010
0000
0310
,
0001
0100
1000
0010
,
0002
1000
0000
1003
,
0001
0010
1000
0010
,
0002
0100
0000
0103
,
1000
0100
0001
0100
,
2000
0010
0000
3010
,
0100
0001
0010
0001
,
0200
0010
0000
0310
,
1000
0100
0001
0010
,
2000
0001
0000
3001
,
0100
0000
0000
0000
;

//---------------dance-single - ----------------
#NOTEDATA:;
#CHARTNAME:;
#STEPSTYPE:dance-single;
#DESCRIPTION:;
#CHARTSTYLE:;
#DIFFICULTY:Hard;
#METER:10;
#RADARVALUES:0.348966,0.418760,0.101017,0.551000,0.045917,266.000000,255.000000,11.000000,60.000000,0.000000,0.000000,0.000000,0.000000,0.000000,0.348966,0.418760,0.101017,0.551000,0.045917,266.000000,255.000000,11.000000,60.000000,0.000000,0.000000,0.000000,0.000000,0.000000;
#CREDIT:led_light;
#NOTES:
// measure 0
0000
0000
0000
0000
,  // measure 1
0000
0000
0000
0000
,  // measure 2
0000
0000
0000
0000
,  // measure 3
0000
0000
0000
0000
,  // measure 4
0000
0000
0000
0000
,  // measure 5
0000
0000
0000
0000
,  // measure 6
0000
0000
0000
0000
,  // measure 7
0010
0000
1000
0000
0001
0000
0010
0100
,  // measure 8
0020
0000
0001
0000
0130
1000
0100
1000
,  // measure 9
0001
0000
1000
0000
0001
0000
0010
0100
,  // measure 10
1000
0000
1000
0010
0100
0010
0100
0010
,  // measure 11
0001
0000
0010
0000
0100
0000
1000
0100
,  // measure 12
0001
0000
0001
0100
0001
1000
0010
1000
,  // measure 13
0010
0000
0100
0000
0001
0000
1000
0100
,  // measure 14
0001
0110
0010
0011
,  // measure 15
1000
0000
0001
0000
0100
0001
1000
0001
,  // measure 16
2000
0000
3020
0230
,  // measure 17
0302
0010
0023
2030
,  // measure 18
3002
0100
0203
2300
,  // measure 19
3020
0001
0100
1000
,  // measure 20
0100
0001
0230
0302
,  // measure 21
0023
0100
0230
2300
,  // measure 22
3002
0100
2003
0010
,  // measure 23
3002
0010
1000
0100
,  // measure 24
0100
1000
0023
0230
,  // measure 25
2300
0010
3020
0032
,  // measure 26
2003
0100
3200
0302
,  // measure 27
2003
0010
3002
0100
,  // measure 28
2003
0100
3002
0023
,  // measure 29
2030
0100
3200
0302
,  // measure 30
2003
0000
3010
2000
0001
0000
3002
0000
,  // measure 31
0203
0001
0010
1000
,  // measure 32
0020
0000
0000
0330
,  // measure 33
2001
0100
0001
0010
,  // measure 34
3002
0000
0013
0200
1000
0000
2300
0000
,  // measure 35
3002
0000
1000
0000
0010
0000
1003
0200
,  // measure 36
0001
0010
1300
0001
,  // measure 37
1002
0100
1000
0010
,  // measure 38
2003
0000
3010
0200
0001
0000
0302
0000
,  // measure 39
2003
0100
0001
0010
,  // measure 40
0002
0000
0000
0000
3003
0001
0100
1000
,  // measure 41
0100
0000
0000
0000
0110
0000
0000
0000
0100
0000
0000
0001
1000
0000
0001
0000
,  // measure 42
0020
0000
1000
0000
0031
1000
0010
0001
,  // measure 43
0010
0000
0000
0000
0110
0000
0000
0000
0010
0000
0000
1000
0001
0000
0010
0000
,  // measure 44
0002
0000
1003
0001
1000
0001
0100
0010
,  // measure 45
1000
0000
0000
0000
1001
0000
0000
0000
0100
0000
0000
0100
0010
0000
0001
0000
,  // measure 46
2000
0000
3001
1000
0100
1000
0100
1000
,  // measure 47
0001
0000
0000
1000
0010
0000
0100
0000
0001
0000
0000
0001
0010
0000
0100
0000
,  // measure 48
2000
0000
0001
0000
3001
1000
0100
0001
,  // measure 49
0100
0000
0000
0000
0110
0000
0000
0000
0100
0000
0000
1000
0001
0000
1000
0000
,  // measure 50
0020
0000
0001
0000
1030
0001
0010
1000
,  // measure 51
0010
0000
0000
0000
0110
0000
0000
0000
0010
0000
0000
0001
1000
0000
0010
0000
,  // measure 52
2000
0000
3001
1000
0001
1000
0100
0010
,  // measure 53
0001
0000
0000
0000
1001
0000
0000
0000
0100
0000
0000
0100
0010
0000
1000
0000
,  // measure 54
0002
0000
1003
0001
0100
0001
0100
0001
,  // measure 55
1000
0000
0000
0001
0010
0000
0100
0000
1000
0000
0000
1000
0010
0000
0100
0000
,  // measure 56
0002
0000
1000
0000
1003
0100
0010
0001
,  // measure 57
1001
0000
0000
0000
;

//---------------dance-double - ----------------
#NOTEDATA:;
#CHARTNAME:;
#STEPSTYPE:dance-double;
#DESCRIPTION:;
#CHARTSTYLE:;
#DIFFICULTY:Easy;
#METER:3;
#RADARVALUES:0.110200,0.183207,0.000000,0.174483,0.000000,84.000000,84.000000,0.000000,19.000000,0.000000,0.000000,0.000000,0.000000,0.000000,0.110200,0.183207,0.000000,0.174483,0.000000,84.000000,84.000000,0.000000,19.000000,0.000000,0.000000,0.000000,0.000000,0.000000;
#CREDIT:led_light;
#NOTES:
00000000
00000000
00000000
00000000
,
00000000
00000000
00000000
00000000
,
00000000
00000000
00000000
00000000
,
00000000
00000000
00000000
00000000
,
00000000
00000000
00000000
00000000
,
00000000
00000000
00000000
00000000
,
00000000
00000000
00000000
00000000
,
00010000
00000000
10000000
00000000
,
00020000
00000000
00000000
00030000
,
00100000
00000000
01000000
00000000
,
10000000
00000000
00000000
00000000
,
00100000
00000000
01000000
00000000
,
00001000
00000000
00000000
00000000
,
00010000
00000000
00000100
00000000
,
00000010
00000000
00000000
00000000
,
00000001
00000000
00000010
00000000
,
00000100
00000000
00000000
00000000
,
00000020
00000000
00000000
00000030
,
00000002
00000000
00000000
00000003
,
00000200
00000000
00000000
00000000
,
00000000
00000000
00000300
00000000
,
00000020
00000000
00000000
00000030
,
00020000
00000000
00000000
00030000
,
00002000
00000000
00000000
00000000
,
00000000
00000000
00003000
00000000
,
00200000
00000000
00000000
00300000
,
00020000
00000000
00000000
00030000
,
20000000
00000000
00000000
00000000
,
00000000
00000000
30000000
00000000
,
00020000
00000000
00000000
00030000
,
02000000
00000000
00000000
03000000
,
00002000
00000000
00000000
00000000
,
00000000
00000000
00003000
00000000
,
00000100
00000000
00000001
00000100
,
00001000
00000000
00010000
00100000
,
20000000
00000000
01000000
30000000
,
00020000
00000000
00100000
00030000
,
01000000
00000000
10000000
01000000
,
00010000
00000000
00001000
00000010
,
00000002
00000000
00000100
00000003
,
00002000
00000000
00000000
00003000
,
00000001
00000000
00000010
00000010
,
00000010
00000000
00000100
00000000
,
00000010
00000000
00001000
00001000
,
00001000
00000000
00010000
00000000
,
00100000
00000000
01000000
01000000
,
01000000
00000000
00100000
00000000
,
10000000
00000000
00010000
00100000
,
00020000
00000000
00000000
00030000
,
10000000
00000000
00100000
00100000
,
00100000
00000000
01000000
00000000
,
00100000
00000000
00010000
00010000
,
00010000
00000000
00001000
00000000
,
00000010
00000000
00000100
00000100
,
00000100
00000000
00000010
00000000
,
00000001
00000000
00001000
00000010
,
00002000
00000000
00000000
00000000
,
00003000
00000000
00000000
00000000
;

//---------------dance-double - ----------------
#NOTEDATA:;
#CHARTNAME:;
#STEPSTYPE:dance-double;
#DESCRIPTION:;
#CHARTSTYLE:;
#DIFFICULTY:Medium;
#METER:6;
#RADARVALUES:0.205969,0.209380,0.000000,0.385700,0.000000,157.000000,157.000000,0.000000,42.000000,0.000000,0.000000,0.000000,0.000000,0.000000,0.205969,0.209380,0.000000,0.385700,0.000000,157.000000,157.000000,0.000000,42.000000,0.000000,0.000000,0.000000,0.000000,0.000000;
#CREDIT:led_light;
#NOTES:
00000000
00000000
00000000
00000000
,
00000000
00000000
00000000
00000000
,
00000000
00000000
00000000
00000000
,
00000000
00000000
00000000
00000000
,
00000000
00000000
00000000
00000000
,
00000000
00000000
00000000
00000000
,
00000000
00000000
00000000
00000000
,
00010000
00001000
00000010
00000001
,
00000200
00000010
00000000
00000310
,
00000100
00000001
00000010
00001000
,
00010000
00000000
00001000
00010000
,
00001000
00100000
00010000
01000000
,
10000000
00000000
01000000
00100000
,
10000000
01000000
00100000
00001000
,
00010000
00000000
00001000
00010000
,
00000100
00001000
00000010
00000100
,
00000002
00000000
00000100
00000103
,
00002000
00000000
00010000
00013000
,
02000000
00000000
00100000
03100000
,
00020000
00000000
10000000
10000000
,
10000000
00030000
10000000
10000000
,
00200000
00000000
01000000
01300000
,
00002000
00003000
00020000
00000000
,
00030020
00000000
00000100
00000100
,
00000100
00000030
00000100
00000100
,
00000020
00000000
00001000
00001030
,
00000002
00000000
00000010
00000013
,
00002000
00000000
00010000
00013000
,
00200000
00000000
01000000
01300000
,
00020000
00000000
10000000
10030000
,
02000000
00000000
03020000
00032000
,
00020000
00000000
00000000
00000000
,
00000000
00000000
00033000
00000010
,
00000200
00000000
00000302
00000023
,
00002030
00000000
00023000
02030000
,
23000000
00000000
00010000
00010000
,
00020000
00000000
30030000
00100000
,
02000000
00000000
23000000
30200000
,
00320000
00000000
00032000
00003200
,
00000302
00000000
00001000
00001000
,
00002000
00000000
00003003
00000010
,
00000100
00000001
00000010
00001000
,
00000020
00000100
00000000
00000130
,
00010000
00001000
01000000
00010000
,
20000000
00100000
00000000
30100000
,
01000000
00010000
00100000
10000000
,
00200000
00010000
00000000
00310000
,
10000000
00100000
00010000
01000000
,
20000000
00010000
00000000
30010000
,
00100000
10000000
01000000
00010000
,
02000000
00100000
00000000
03100000
,
00001000
00010000
00000010
00001000
,
00000002
00000100
00000000
00000103
,
00000010
00001000
00000100
00000001
,
00000200
00001000
00000000
00001300
,
00000001
00000100
00001000
00000010
,
00000002
00001000
00000000
00001003
,
00000001
00000000
00000000
00000000
;

//---------------dance-double - ----------------
#NOTEDATA:;
#CHARTNAME:;
#STEPSTYPE:dance-double;
#DESCRIPTION:;
#CHARTSTYLE:;
#DIFFICULTY:Hard;
#METER:10;
#RADARVALUES:0.348966,0.418760,0.101017,0.541816,0.045917,266.000000,255.000000,11.000000,59.000000,0.000000,0.000000,0.000000,0.000000,0.000000,0.348966,0.418760,0.101017,0.541816,0.045917,266.000000,255.000000,11.000000,59.000000,0.000000,0.000000,0.000000,0.000000,0.000000;
#CREDIT:led_light;
#NOTES:
00000000
00000000
00000000
00000000
,
00000000
00000000
00000000
00000000
,
00000000
00000000
00000000
00000000
,
00000000
00000000
00000000
00000000
,
00000000
00000000
00000000
00000000
,
00000000
00000000
00000000
00000000
,
00000000
00000000
00000000
00000000
,
10000000
00000000
00100000
00000000
00010000
00000000
00001000
00000010
,
00000002
00000000
00001000
00000000
00000103
00000010
00000100
00000010
,
00001000
00000000
00000001
00000000
00000010
00000000
00001000
00010000
,
01000000
00000000
00100000
00010000
10000000
00010000
10000000
00010000
,
01000000
00000000
00100000
00000000
10000000
00000000
01000000
00100000
,
00001000
00000000
00010000
00000100
00010000
00001000
00010000
00000010
,
00001000
00000000
00000001
00000000
00000010
00000000
00001000
00010000
,
01000000
10010000
00010000
00011000
,
00001000
00000000
00000100
00000000
00000001
00001000
00000001
00001000
,
00000020
00000000
00000230
00020300
,
00032000
00100000
00203000
02300000
,
03020000
10000000
20030000
32000000
,
03020000
00001000
00000100
00001000
,
01000000
00001000
00030020
00002030
,
00003002
00000010
00000023
00000230
,
00020300
00001000
00030020
00001000
,
00020030
00100000
10000000
01000000
,
00001000
00100000
00230000
20300000
,
32000000
00100000
03200000
00302000
,
00003200
00000010
00000320
00002030
,
00003002
00000010
00000023
00000100
,
00000230
00010000
00020300
00032000
,
00003200
00000001
00000302
00000023
,
00002030
00000000
00103000
00020000
10000000
00000000
01000000
00000000
,
02030000
00010000
00100000
10000000
,
00200000
00000000
00000000
03300000
,
10020000
00100000
00001000
00100000
,
20030000
00000000
30100000
02000000
00001000
00000000
03020000
00000000
,
00032000
00000000
00000100
00000000
00010000
00000000
00003100
00000020
,
00000001
00001000
00000031
00001000
,
00002001
00000010
00010000
00000010
,
00003002
00000000
00000013
00000200
00010000
00000000
00002300
00000000
,
00023000
00100000
10000000
01000000
,
00002000
00000000
00000000
00000000
00033000
00010000
00001000
00010000
,
00100000
00000000
00000000
00000000
01100000
00000000
00000000
00000000
00010000
00000000
00000000
01000000
10000000
00000000
00010000
00000000
,
20000000
00000000
01000000
00000000
30010000
00100000
00001000
00010000
,
00000100
00000000
00000000
00000000
00001001
00000000
00000000
00000000
00000100
00000000
00000000
00000010
00001000
00000000
00000001
00000000
,
00000020
00000000
00000130
00000010
00000001
00001000
00000100
00010000
,
00001000
00000000
00000000
00000000
00011000
00000000
00000000
00000000
01000000
00000000
00000000
00010000
00100000
00000000
01000000
00000000
,
20000000
00000000
31000000
10000000
00010000
10000000
00010000
10000000
,
00100000
00000000
00000000
00010000
00001000
00000000
00000010
00000000
00000001
00000000
00000000
00000100
00001000
00000000
00010000
00000000
,
00200000
00000000
01000000
00000000
10300000
01000000
00010000
00001000
,
00000100
00000000
00000000
00000000
00000110
00000000
00000000
00000000
00001000
00000000
00000000
00000100
00000001
00000000
00001000
00000000
,
00000002
00000000
00000100
00000000
00001003
00000010
00010000
00001000
,
01000000
00000000
00000000
00000000
10010000
00000000
00000000
00000000
01000000
00000000
00000000
00100000
00010000
00000000
10000000
00000000
,
00200000
00000000
01300000
00100000
10000000
00010000
01000000
00001000
,
00010000
00000000
00000000
00000000
00011000
00000000
00000000
00000000
00000100
00000000
00000000
00001000
00000010
00000000
00000100
00000000
,
00000002
00000000
00000103
00000001
00001000
00000001
00001000
00000001
,
00000010
00000000
00000000
00001000
00010000
00000000
00100000
00000000
10000000
00000000
00000000
01000000
00010000
00000000
00001000
00000000
,
00000020
00000000
00000100
00000000
00000031
00000100
00001000
00010000
,
00011000
00000000
00000000
00000000
;
