#TITLE:Yume No Dead End;
#SUBTITLE:;
#ARTIST:Nina Kosaka;
#TITLETRANSLIT:;
#SUBTITLETRANSLIT:;
#ARTISTTRANSLIT:;
#GENRE:にじさんじ;
#CREDIT:;
#BANNER:Yume No Dead End.png;
#BACKGROUND:../bg.png;
#LYRICSPATH:;
#CDTITLE:../cdtitle.png;
#MUSIC:Yume No Dead End.ogg;
#OFFSET:1.525000;
#SAMPLESTART:70.444000;
#SAMPLELENGTH:15.000000;
#LASTBEATHINT:1.312500;
#SELECTABLE:YES;
#BPMS:0.000000=150.000000
;
#STOPS:
;
#BGCHANGES:3.750=Yume No Dead End.avi=1.000=0=0=0=StretchNoLoop====,
99999=-nosongbg-=1.000=0=0=0 // don't automatically add -songbackground-
;
#KEYSOUNDS:;
#ATTACKS:;

//---------------dance-single - ----------------
#NOTES:
     dance-single:
     :
     Beginner:
     1:
     0.061714,0.115743,0.048905,0.032604,0.000000,53.000000,47.000000,6.000000,4.000000,0.000000,0.000000,0.061714,0.115743,0.048905,0.032604,0.000000,53.000000,47.000000,6.000000,4.000000,0.000000,0.000000:
0000
0000
0000
0000
,
0000
0000
0000
0000
,
0000
0000
0000
0000
,
0000
0000
0000
0000
,
0000
0000
0000
0000
,
0000
0000
0000
0000
,
0000
0000
0000
0000
,
0000
0000
0000
0000
,
0000
0000
0000
0000
,
1001
0000
0000
0000
,
0000
0000
0000
0000
,
0110
0000
0000
0000
,
0000
0000
0000
0000
,
0001
0000
0000
0000
,
0010
0000
0000
0000
,
0001
0000
0000
0000
,
0010
0000
0000
0000
,
1000
0000
0000
0000
,
0100
0000
0000
0000
,
1000
0000
0000
0000
,
0100
0000
0000
0000
,
0001
0000
0000
0000
,
0000
0000
0000
0000
,
0100
0000
0000
0000
,
0000
0000
0000
0000
,
1000
0000
0000
0000
,
0000
0000
0000
0000
,
0100
0000
0000
0000
,
0000
0000
0000
0000
,
0001
0000
0000
0000
,
0100
0000
0000
0000
,
0001
0000
0000
0000
,
0010
0000
0000
0000
,
1000
0000
0000
0000
,
0100
0000
0000
0000
,
2000
0000
0000
0000
,
3000
0000
0000
0000
,
0020
0000
0000
0000
,
0030
0000
0000
0000
,
0100
0000
0000
0000
,
0000
0000
0000
0000
,
2000
0000
0000
0000
,
3000
0000
0000
0000
,
0001
0000
0000
0000
,
0000
0000
0000
0000
,
0100
0000
0000
0000
,
0100
0000
0000
0000
,
0010
0000
0000
0000
,
0010
0000
0000
0000
,
1000
0000
0000
0000
,
1000
0000
0000
0000
,
0001
0000
0000
0000
,
0001
0000
0000
0000
,
0010
0000
0000
0000
,
0100
0000
0000
0000
,
1000
0000
0000
0000
,
0001
0000
0000
0000
,
1000
0000
0000
0000
,
0001
0000
0000
0000
,
0100
0000
0000
0000
,
0000
0000
0000
0000
,
0100
0000
0000
0000
,
0000
0000
0000
0000
,
0110
0000
0000
0000
,
0000
0000
0000
0000
,
0110
0000
0000
0000
,
0000
0000
0000
0000
,
1001
0000
0000
0000
,
0000
0000
0000
0000
,
0110
0000
0000
0000
,
1000
0000
0002
0000
,
0003
0000
0000
0000
;

//---------------dance-single - ----------------
#NOTES:
     dance-single:
     :
     Easy:
     5:
     0.213088,0.260421,0.016302,0.195621,0.000000,183.000000,181.000000,2.000000,24.000000,0.000000,0.000000,0.213088,0.260421,0.016302,0.195621,0.000000,183.000000,181.000000,2.000000,24.000000,0.000000,0.000000:
0000
0000
0000
0000
,
0000
0000
0000
0000
,
0000
0000
0000
0000
,
0000
0000
0000
0000
,
0000
0000
0000
0000
,
0000
0000
0000
0000
,
0000
0000
0000
0000
,
0000
0000
0000
0000
,
0000
0000
0000
0000
,
0110
0000
0100
0000
,
0100
0000
0100
0000
,
1001
0000
1000
0000
,
0002
0000
0000
0003
,
1000
1000
0010
0010
,
1000
0001
0200
0300
,
0001
0010
0001
0010
,
0100
1000
0002
0003
,
1000
1000
0100
0100
,
1000
0001
0020
0030
,
0001
0100
0001
0100
,
0010
0010
0020
0030
,
2000
0000
3001
0000
,
0100
0000
0001
0000
,
0020
0000
0130
0000
,
0010
0010
0010
0000
,
0200
0000
0310
0000
,
0001
1000
0010
0000
,
2000
0000
3002
0000
,
0203
0000
0300
0000
,
0001
0000
0001
0000
,
0100
0000
0100
0000
,
1000
0000
0100
0000
,
0001
0000
0010
0000
,
0100
0000
0100
0000
,
1000
0000
0001
0000
,
2000
0000
0001
0000
,
3001
0001
1000
0001
,
2000
0000
0100
0000
,
3020
0000
0100
0000
,
1030
0000
0001
0000
,
0200
0000
0301
0000
,
2000
0000
3100
0000
,
0002
0000
0103
0000
,
2000
0000
3010
0000
,
0002
0000
0103
0000
,
1000
0010
1000
0010
,
0001
0010
1000
0001
,
0100
0010
0100
0001
,
1000
0000
0100
1000
,
0001
0010
0001
0010
,
1000
0010
0001
1000
,
0100
0010
0100
1000
,
0001
0100
0002
0003
,
1000
0100
1000
0100
,
0001
0100
1000
0001
,
0010
0100
0010
0001
,
1000
0000
0010
1000
,
0001
0100
0001
0100
,
1000
0100
0001
1000
,
0100
0100
0010
0010
,
0100
0010
0100
0100
,
1000
1000
0001
0001
,
1000
0000
0000
0000
,
1000
1000
0100
0100
,
1000
0001
0020
0030
,
0001
0100
0001
0100
,
0010
1000
0002
0003
,
1000
1000
0010
0010
,
1000
0001
0200
0300
,
0001
0010
0001
0010
,
0100
0100
0100
0020
,
0030
0000
0000
0000
;

//---------------dance-single - ----------------
#NOTES:
     dance-single:
     :
     Medium:
     7:
     0.301583,0.376164,0.211923,0.423846,0.000000,259.000000,233.000000,26.000000,52.000000,0.000000,0.000000,0.301583,0.376164,0.211923,0.423846,0.000000,259.000000,233.000000,26.000000,52.000000,0.000000,0.000000:
0000
0000
0000
0000
,
0000
0000
0000
0000
,
0000
0000
0000
0000
,
0000
0000
0000
0000
,
0000
0000
0000
0000
,
0000
0000
0000
0000
,
0000
0000
0000
0000
,
0000
0000
0000
0000
,
0000
0000
0000
0000
,
2001
0000
0001
0000
,
0001
0000
0001
3000
,
0210
0000
0010
0000
,
0310
0100
0100
0010
,
0001
0101
0001
0101
,
1000
0100
2000
3000
,
0010
1010
0010
1010
,
1000
0001
0020
0130
,
1000
1100
1000
1100
,
0001
0100
0002
0003
,
0010
0011
0010
0011
,
1000
0010
0100
0000
0002
0000
1003
0000
,
0100
0100
1000
1000
,
0100
1000
0100
0010
,
0001
0100
1000
0100
,
0001
0010
0200
0300
,
1000
1000
0010
0010
,
1000
0010
1000
0001
,
2000
3100
0002
0103
,
2000
0000
3001
1000
,
0002
0010
0003
0010
,
0100
0010
0001
1000
,
0001
0100
0010
0100
,
0001
1000
0100
1000
,
0002
0100
0003
0100
,
0010
0100
0001
1000
,
0200
0010
0000
0310
,
0100
0010
0100
0000
1000
0000
0001
0000
,
2000
0000
0100
0000
,
3010
1000
0100
1000
,
0001
0000
0100
0000
,
0010
0100
1000
0100
,
0020
0000
0130
0000
,
0002
0000
1003
0000
,
0001
0010
0001
0010
,
1000
0100
0002
0003
,
2000
0000
3100
0020
0000
0230
0000
2300
,
0000
3002
0000
0203
0000
0310
1000
0000
,
0002
0000
0103
0020
0000
1030
0000
0210
,
0000
0300
0000
0000
1000
0001
0010
0000
,
0110
0000
1000
0002
0000
0013
0000
2000
,
0000
3010
0000
0001
0010
0100
0000
2000
,
0000
3001
0100
0020
0000
0031
0000
0020
,
0000
2030
0000
3002
0000
0000
0103
0000
,
2001
0000
3010
0200
0000
0320
0000
2030
,
0000
3002
0000
0023
0000
0130
1000
0000
,
0002
0000
0013
0200
0000
1300
0001
0200
,
0000
0300
0000
0001
1000
0100
0010
0000
,
0110
0000
1000
0002
0000
0103
0000
2000
,
0000
3100
0000
0002
0000
0013
0000
0100
,
1000
0100
0000
0001
0000
0101
0000
0010
,
0000
0110
0000
1000
0000
1100
0001
0000
,
0100
0010
0000
0100
0000
0100
0000
0220
,
0000
0330
0000
0000
,
0001
0011
0001
0011
,
1000
0010
2000
3000
,
0100
1100
0100
1100
,
1000
0001
0200
0310
,
1000
1010
1000
1010
,
0001
0010
0002
0003
,
0100
0101
0100
0101
,
1000
0100
0010
0001
2000
0000
0002
0000
,
3003
0000
0000
0000
;

//---------------dance-single - ----------------
#NOTES:
     dance-single:
     :
     Hard:
     11:
     0.457614,0.519619,0.081509,0.383092,0.004075,393.000000,383.000000,10.000000,47.000000,0.000000,0.000000,0.457614,0.519619,0.081509,0.383092,0.004075,393.000000,383.000000,10.000000,47.000000,0.000000,0.000000:
// measure 0
0000
0000
0000
0000
,  // measure 1
0000
0000
0000
0000
,  // measure 2
0000
0000
0000
0000
,  // measure 3
0000
0000
0000
0000
,  // measure 4
0000
0000
0000
0000
,  // measure 5
0000
0000
0000
0000
,  // measure 6
0000
0000
0000
0000
,  // measure 7
0000
0000
0000
0000
,  // measure 8
0000
0000
0000
0000
,  // measure 9
0110
0020
0000
0000
0100
0000
0000
0000
,  // measure 10
0100
0000
0100
0030
,  // measure 11
1001
2000
0010
0000
3002
0000
0203
0000
,  // measure 12
0310
1000
0010
1000
0001
0010
0002
0000
,  // measure 13
1003
0100
1000
0100
0010
0100
0010
0100
,  // measure 14
1000
0001
0010
0100
2000
0000
3001
0000
,  // measure 15
0100
1000
0100
1000
0100
0001
0100
0001
,  // measure 16
1000
0010
0100
0001
0010
0100
2000
0000
,  // measure 17
3001
0010
0001
0010
0100
0010
0100
0010
,  // measure 18
0001
1000
0100
0010
0002
0000
1003
0000
,  // measure 19
0010
0001
0010
0001
0010
1000
0010
1000
,  // measure 20
0001
0001
0100
0100
0010
1000
0200
0000
,  // measure 21
0310
0010
0100
0100
,  // measure 22
1000
0000
0001
0000
1000
0001
0100
0000
,  // measure 23
0010
0100
0010
0100
,  // measure 24
0001
0000
0010
0000
0100
1000
0001
0000
,  // measure 25
1000
1000
0001
0001
,  // measure 26
0100
0000
0010
0000
0100
0000
0001
0020
,  // measure 27
0100
0030
1000
0200
0010
0300
0001
1000
,  // measure 28
0002
0010
1000
0103
,  // measure 29
0001
0000
1100
0000
0010
0000
0001
0200
,  // measure 30
0010
0300
0100
0001
1000
0100
1000
0000
,  // measure 31
0001
0010
0001
0010
0100
0010
0001
1000
,  // measure 32
0010
0100
0001
0100
0010
1000
0001
0000
,  // measure 33
0202
0000
0303
0000
1000
0010
1000
0100
,  // measure 34
0010
0200
0001
0300
0100
1000
0001
0100
,  // measure 35
0020
1000
0100
0001
,  // measure 36
0130
0000
0010
0100
0000
0000
0001
0000
1000
0000
0100
0000
0010
0000
0000
0000
,  // measure 37
0021
0000
0000
0000
0130
0000
1000
0001
,  // measure 38
0200
0000
0301
1000
0100
0010
0100
0000
,  // measure 39
1100
0000
0000
0000
1000
0001
0010
0001
,  // measure 40
2000
0000
3010
0100
0002
0000
0013
0100
,  // measure 41
2000
0000
3001
0020
0000
1030
0000
0020
,  // measure 42
0000
0031
0000
0200
0000
0310
1000
0000
,  // measure 43
0002
0000
0013
0200
0000
0320
0000
2030
,  // measure 44
0000
3200
0000
0302
0000
2003
3000
0000
,  // measure 45
1001
0000
0001
0010
0100
1000
0100
1000
,  // measure 46
0001
1000
0100
1000
0010
0100
0001
1000
,  // measure 47
0002
0000
1003
0100
0001
0100
1000
0001
,  // measure 48
2000
0000
3010
0100
1000
0100
0010
0010
,  // measure 49
0210
0000
0310
1000
0001
0100
0001
0100
,  // measure 50
0010
0100
0001
1000
0100
0010
0100
1000
,  // measure 51
0020
0000
0130
0001
1000
0010
0100
0010
,  // measure 52
1000
0001
1000
0001
0010
0100
1000
0000
,  // measure 53
1001
0000
0001
0100
0010
1000
0010
1000
,  // measure 54
0001
1000
0010
1000
0100
0010
0001
1000
,  // measure 55
0002
0000
1003
0010
2000
0000
3001
0100
,  // measure 56
0002
0000
1003
0100
0010
0001
0010
0000
,  // measure 57
0120
0000
0130
1000
0001
0010
0001
0010
,  // measure 58
0100
0010
0001
1000
0010
0100
0001
1000
,  // measure 59
0100
0100
0010
0100
0001
0100
0010
0100
,  // measure 60
1000
0100
0010
0001
0100
0010
1000
0000
,  // measure 61
0010
0010
0001
0010
0100
0010
1000
0002
,  // measure 62
0000
0003
0000
0000
,  // measure 63
1000
0010
1000
0010
0100
0010
0100
0010
,  // measure 64
1000
0001
0100
0010
2000
0000
3001
0000
,  // measure 65
0010
1000
0010
1000
0010
0001
0010
0001
,  // measure 66
1000
0100
0010
0001
0100
0010
2000
0000
,  // measure 67
3001
0100
0001
0100
0010
0100
0010
0100
,  // measure 68
0001
1000
0010
0100
0002
0000
1003
0000
,  // measure 69
0100
0001
0100
0001
0100
1000
0100
1000
,  // measure 70
0001
0001
0010
0010
0100
1000
0020
0000
,  // measure 71
0230
0000
0000
0000
,  // measure 72
0010
0000
0000
0000
,  // measure 73
0020
0000
0000
0000
,  // measure 74
0000
0000
0000
0000
,  // measure 75
0330
0000
0000
0000
;

//---------------dance-double - ----------------
#NOTES:
     dance-double:
     :
     Easy:
     5:
     0.209594,0.289357,0.024453,0.220074,0.000000,180.000000,177.000000,3.000000,27.000000,0.000000,0.000000,0.209594,0.289357,0.024453,0.220074,0.000000,180.000000,177.000000,3.000000,27.000000,0.000000,0.000000:
00000000
00000000
00000000
00000000
,
00000000
00000000
00000000
00000000
,
00000000
00000000
00000000
00000000
,
00000000
00000000
00000000
00000000
,
00000000
00000000
00000000
00000000
,
00000000
00000000
00000000
00000000
,
00000000
00000000
00000000
00000000
,
00000000
00000000
00000000
00000000
,
00000000
00000000
00000000
00000000
,
10010000
00000000
10000000
00000000
,
00010000
00000000
00010000
00000000
,
00011000
00000000
00001000
00000000
,
00000002
00000000
00000000
00000003
,
00001000
00000010
00001000
00000010
,
00010000
00001000
00020000
00030000
,
00000100
00010000
00000100
00010000
,
00001000
00010000
00002000
00003000
,
01000000
00001000
01000000
00001000
,
00100000
00001000
00200000
00300000
,
01000000
10000000
01000000
10000000
,
00010000
01000000
00200000
00300000
,
20000000
00000000
30010000
00000000
,
01000000
00000000
00010000
00000000
,
00200000
00000000
00301000
00000000
,
00010000
00000100
00000010
00000000
,
00000002
00000000
00001003
00000000
,
00000010
00000100
00001000
00000000
,
00020000
00000000
00032000
00000000
,
00023000
00000000
00030000
00000000
,
00001000
00000000
00001000
00000000
,
01000000
00000000
01000000
00000000
,
00010000
00000000
10000000
00000000
,
01000000
00100000
01000000
00000000
,
00010000
00000000
00010000
00000000
,
00000100
00000000
00000100
00000000
,
00002000
00000000
00000001
00000000
,
00003001
00000100
00000010
00000000
,
00000200
00000000
00001000
00000000
,
00000320
00000000
00001000
00000000
,
00010030
00000000
00000000
00000000
,
00002000
00000000
00013000
00000000
,
02000000
00000000
00010000
00000000
,
03200000
00000000
00310000
00000000
,
20000000
00000000
30100000
00000000
,
02000000
00000000
00000000
03000000
,
00010000
00100000
00010000
00100000
,
00001000
00010000
00001000
00010000
,
00000010
00001000
00000010
00000100
,
00000001
00000000
00000100
00000010
,
00001000
00000100
00001000
00000100
,
00010000
00001000
00010000
00001000
,
01000000
00010000
01000000
00100000
,
10000000
01000000
00200000
00300000
,
00010000
01000000
00010000
01000000
,
00001000
00010000
00002000
00003000
,
00010000
00000100
00010000
00000100
,
00020000
00030000
00000020
00000030
,
00001000
00000001
00001000
00000001
,
00000100
00000010
00001000
00000100
,
00010000
00010000
00001000
00001000
,
00010000
00001000
00010000
00010000
,
00001000
00010000
01000000
10000000
,
10010000
00000000
00000000
00000000
,
00010000
00100000
00010000
00100000
,
00001000
00010000
00002000
00003000
,
01000000
00001000
01000000
00001000
,
00010000
00001000
00020000
00030000
,
00000100
00010000
00000100
00010000
,
00000010
00010000
00000020
00000030
,
00000100
00000001
00000100
00000001
,
00001000
00000100
00000010
00000002
,
00000003
00000000
00000000
00000000
;

//---------------dance-double - ----------------
#NOTES:
     dance-double:
     :
     Medium:
     7:
     0.285281,0.347228,0.138565,0.228225,0.000000,245.000000,228.000000,17.000000,28.000000,0.000000,0.000000,0.285281,0.347228,0.138565,0.228225,0.000000,245.000000,228.000000,17.000000,28.000000,0.000000,0.000000:
00000000
00000000
00000000
00000000
,
00000000
00000000
00000000
00000000
,
00000000
00000000
00000000
00000000
,
00000000
00000000
00000000
00000000
,
00000000
00000000
00000000
00000000
,
00000000
00000000
00000000
00000000
,
00000000
00000000
00000000
00000000
,
00000000
00000000
00000000
00000000
,
00000000
00000000
00000000
00000000
,
00201000
00000000
00010000
00000000
,
01000000
00000000
00001000
00300000
,
00010020
00000000
00001000
00000000
,
00000130
00000100
00001000
00010000
,
00001000
00011000
00010000
00001000
,
00000100
00000001
00000020
00000030
,
00001000
00011000
00010000
00001000
,
00100000
00010000
02000000
03100000
,
00010000
00011000
00001000
00010000
,
01000000
10000000
00200000
00300000
,
00010000
00011000
00001000
00010000
,
00000100
00001000
00000100
00000000
00000020
00000000
00000031
00000000
,
00001000
00001000
00000010
00000010
,
00001000
00000100
00020000
00030000
,
00001000
00010000
00001000
00010000
,
00100000
10000000
00020000
00030000
,
01000000
01000000
00100000
00100000
,
01000000
00010000
00100000
00001000
,
00200000
00010000
00302000
00010000
,
00003200
00000000
00000310
00001000
,
00000002
00001000
00000003
00001000
,
00000100
00000010
00000100
00001000
,
00000010
00000100
00001000
00010000
,
01000000
00010000
00001000
00010000
,
00011000
00000000
00010000
01000000
,
20000000
30000000
00100000
00010000
,
00002000
00010000
00000000
00013000
,
00001000
00010000
00001000
00000000
00000010
00000000
00000001
00000000
,
00002000
00000000
00000100
00000000
,
00000001
00000000
00000010
00003000
,
00021000
00000000
01000000
00000000
,
10030000
01000000
00100000
00000000
,
00020000
00000000
00130000
00000000
,
20000000
00000000
30100000
00000000
,
00010000
00001000
00010000
00001000
,
00000100
00000001
00000020
00000030
,
00000100
00001000
00000100
00010000
,
00000010
00000000
00001000
00000000
00000010
00010000
00001000
00000000
,
01000000
00000000
00001000
00000000
00100000
00010000
10000000
00000000
,
11000000
00000000
00000000
00000000
01000000
00010000
00001000
00000000
,
00011000
00100000
00001000
00010000
,
00001000
00000000
01000000
00000000
00001000
00010000
00000010
00000000
,
00001000
00000100
00000001
00000100
,
00001000
00000000
00000001
00000000
00000100
00000010
00001000
00000000
,
00001001
00000001
00000100
00000001
,
00000010
00000000
00000010
00000000
00001000
00010000
00001000
00000000
,
00200000
00000000
00310000
10000000
02000000
00000000
13000000
00010000
,
02000000
00000000
03000000
00000000
00100000
01000000
00100000
00000000
,
10010000
10000000
01000000
10000000
,
00100000
00000000
00010000
00000000
00001000
00010000
00001000
00000000
,
00010000
00001000
00000000
00000100
00000000
00000100
00000000
00000001
,
00000000
00000001
00000000
00000010
00000000
00001000
00010000
00000000
,
00001000
00010000
00000000
01000000
00000000
10000000
00000000
20020000
,
00000000
30030000
00000000
00000000
,
00001000
00011000
00010000
00001000
,
00000100
00000001
00000020
00000030
,
00001000
00011000
00010000
00001000
,
00100000
00010000
02000000
03100000
,
00010000
00011000
00001000
00010000
,
01000000
10000000
00200000
00300000
,
00010000
00011000
00001000
00010000
,
00000100
00001000
00000100
00000000
00000010
00000000
00000002
00000000
,
00000003
00000000
00000000
00000000
;

//---------------dance-double - ----------------
#NOTES:
     dance-double:
     :
     Hard:
     12:
     0.482067,0.550185,0.105962,0.374941,0.020377,414.000000,401.000000,13.000000,46.000000,0.000000,0.000000,0.482067,0.550185,0.105962,0.374941,0.020377,414.000000,401.000000,13.000000,46.000000,0.000000,0.000000:
00000000
00000000
00000000
00000000
,
00000000
00000000
00000000
00000000
,
00000000
00000000
00000000
00000000
,
00000000
00000000
00000000
00000000
,
00000000
00000000
00000000
00000000
,
00000000
00000000
00000000
00000000
,
00000000
00000000
00000000
00000000
,
00000000
00000000
00000000
00000000
,
00000000
00000000
00000000
00000000
,
00010100
00021000
00000000
00000000
00000010
00000000
00000000
00000000
,
01000000
00000000
00001000
00030000
,
00010100
00000000
00011000
00000000
00002000
00000000
00000000
00000000
00103000
00001000
00100000
00000000
00001000
00000000
00010000
00000000
,
00000010
00001000
00000010
00001000
00000100
00000010
00000002
00000000
,
00001003
00000100
00001000
00000100
00000001
00000100
00001000
00000010
,
00010000
00000010
00001000
00000100
00000010
00001000
00020000
00000000
,
01030000
00100000
01000000
00100000
00010000
00100000
10000000
00100000
,
00010000
10000000
00010000
10000000
00100000
01000000
00020000
00000000
,
10030000
00100000
10000000
00100000
00010000
00100000
10000000
00010000
,
01000000
00100000
10000000
01000000
00100000
00001000
00020000
00000000
,
00030100
00000010
00000100
00000010
00000001
00000100
00000010
00001000
,
00000001
00000001
00000010
00000010
00000100
00001000
00000002
00000000
,
00000023
00000000
00000130
00001000
00000000
00000100
00000000
00000002
,
00000000
00000103
00000000
00002000
00000000
00003001
00000100
00000020
,
00000000
00000130
00001000
00020000
00000000
00031000
00000000
00010000
,
00000000
00100000
00000000
10000000
02000000
00000000
03010000
00000000
,
01000000
00000000
01100000
00000000
00010000
00000000
01000000
00200000
,
00000000
20300000
00000000
31000000
00000000
10000000
00010000
00200000
,
00000000
01300000
00010000
00002000
00000000
00013000
00001000
00000200
,
00000010
00000000
00001000
00000000
00000310
00001000
00000100
00000000
,
00000010
00000000
00000011
00000000
00002000
00000000
00003001
00000100
,
00001000
00010000
00001000
00010000
01000000
10000000
00010000
00000000
,
10000000
01000000
10000000
01000000
00100000
00010000
10000000
00100000
,
01000000
00100000
01000000
00010000
00100000
00001000
00010000
00000000
,
01020000
00000000
00031000
00000000
00100000
00010000
01000000
00100000
,
10000000
00010000
10000000
00010000
01000000
00100000
10000000
01000000
,
00020000
00000000
00000000
00000000
01000000
00000000
00000000
00000000
00031000
00010000
00000000
00000000
00000100
00000000
00001000
00000000
,
00000001
00000000
00000100
00000010
00000000
00000010
00000100
00000010
00000100
00000000
00000010
00000000
00001000
00000000
00000000
00000000
,
00002001
00000000
00000000
00000000
00003100
00000000
00000010
00001000
,
00020000
00000000
00031000
00010000
01000000
00000000
10000000
00000000
,
11000000
00010000
00000000
00000000
10000000
01000000
00100000
00020000
,
00000000
00130000
00001000
00020000
00000000
00030100
00000010
00000001
,
00002000
00000000
00003010
00000200
00000000
00001300
00000000
00020000
,
00000000
01030000
00000000
00200000
00000000
00310000
10000000
00000000
,
00020000
00000000
01030000
00200000
00000000
00320000
00000000
00230000
,
00000000
20300000
00000000
32000000
00000000
03010000
00001000
00000000
,
00011000
00000000
00010000
00001000
01000000
00010000
00100000
01000000
,
00010000
00001000
00100000
00010000
01000000
00100000
00010000
00001000
,
00000100
00000010
00000001
00000010
00000100
00000010
00001000
00000001
,
00000200
00000000
00000301
00000000
00000010
00001000
00010000
00000000
,
00011000
00000000
00001000
00010000
00000100
00001000
00000010
00000100
,
00001000
00010000
00000010
00001000
00000100
00000010
00001000
00010000
,
01000000
00100000
10000000
00100000
01000000
00100000
00010000
10000000
,
00100000
01000000
00100000
01000000
00010000
10000000
01000000
00000000
,
01100000
00000000
10000000
00010000
01000000
00010000
01000000
00100000
,
01000000
10000000
01000000
00100000
01000000
00010000
00100000
01000000
,
00020000
00000000
01030000
00010000
00002000
00000000
00013000
00001000
,
00000200
00000000
00000301
00000100
00000010
00001000
00000001
00000000
,
00000110
00000000
00000001
00001000
00000100
00001000
00000100
00000010
,
00000100
00000001
00000100
00000010
00000100
00001000
00000010
00000100
,
00001000
00001000
01000000
00001000
00010000
00001000
00100000
00001000
,
00010000
00000100
00010000
00001000
00010000
00000010
00001000
00000000
,
00010000
00010000
01000000
00100000
10000000
01000000
00100000
00020000
,
00000000
00030000
00000000
00000000
,
00010000
01000000
00010000
01000000
10000000
01000000
00010000
00100000
,
00001000
00100000
00010000
01000000
00100000
00010000
00002000
00000000
,
00003100
00000010
00000100
00000010
00001000
00000010
00000001
00000010
,
00001000
00000001
00001000
00000001
00000010
00000100
00002000
00000000
,
00003001
00000010
00000001
00000010
00001000
00000010
00000001
00001000
,
00000100
00000010
00000001
00000100
00000010
00010000
00002000
00000000
,
01003000
00100000
01000000
00100000
10000000
01000000
00100000
00010000
,
10000000
10000000
01000000
01000000
10000000
00100000
00020000
00000000
,
00032000
00000000
00000000
00000000
,
00010000
00000000
00000000
00000000
,
00020000
00000000
00000000
00000000
,
00000000
00000000
00000000
00000000
,
00033000
00000000
00000000
00000000
;
