#VERSION:0.83;
#TITLE:夜露死苦おっぱい!;
#SUBTITLE:;
#ARTIST:爆乳ヤンキー;
#TITLETRANSLIT:Yoroshiku Oppai!;
#SUBTITLETRANSLIT:;
#ARTISTTRANSLIT:Bakunyuu Yankee;
#GENRE:J-Music;
#ORIGIN:;
#CREDIT:;
#BANNER:Yoroshiku Oppai!.png;
#BACKGROUND:Yoroshiku Oppai!-bg.png;
#PREVIEWVID:;
#JACKET:Yoroshiku Oppai!-jacket.png;
#CDIMAGE:;
#DISCIMAGE:;
#LYRICSPATH:;
#CDTITLE:../cdtitle.png;
#MUSIC:Yoroshiku Oppai!.ogg;
#OFFSET:1.554000;
#SAMPLESTART:59.151001;
#SAMPLELENGTH:15.000000;
#SELECTABLE:YES;
#BPMS:0.000=170.000;
#STOPS:;
#DELAYS:;
#WARPS:;
#TIMESIGNATURES:0.000=4=4;
#TICKCOUNTS:0.000=4;
#COMBOS:0.000=1;
#SPEEDS:0.000=1.000=0.000=0;
#SCROLLS:0.000=1.000;
#FAKES:;
#LABELS:0.000=Song Start;
#BGCHANGES:1.125=Yoroshiku Oppai!.avi=1.000=0=0=0=StretchNoLoop====,
99999=-nosongbg-=1.000=0=0=0 // don't automatically add -songbackground-
;
#KEYSOUNDS:;
#ATTACKS:
;

//---------------dance-single - ----------------
#NOTEDATA:;
#CHARTNAME:;
#STEPSTYPE:dance-single;
#DESCRIPTION:;
#CHARTSTYLE:;
#DIFFICULTY:Hard;
#METER:12;
#RADARVALUES:0.532353,0.610990,0.302658,0.094581,0.127684,394.000000,362.000000,32.000000,10.000000,0.000000,0.000000,0.000000,0.000000,0.000000,0.532353,0.610990,0.302658,0.094581,0.127684,394.000000,362.000000,32.000000,10.000000,0.000000,0.000000,0.000000,0.000000,0.000000;
#CREDIT:led_light;
#NOTES:
0000
0000
0000
0000
,
0000
0000
0000
0000
,
0000
0000
0000
0000
,
0000
0000
0000
0000
,
0000
0000
0000
0000
,
0000
0000
0000
0000
,
0000
0000
0000
0000
,
0000
0000
0000
0000
,
0100
0000
0000
0100
0001
0000
1000
0000
0100
0000
0000
0100
0010
0000
0001
0000
,
1000
0010
0100
0010
1000
0001
0100
0010
,
1000
0000
0000
1000
0100
0000
0010
0000
0001
0000
0000
0001
0100
0000
0010
0000
,
0100
0100
0010
0010
0100
0010
1000
0001
,
1000
0000
0000
0100
1000
0000
0100
0000
0010
0000
0000
0001
0100
0000
0001
0000
,
1000
0100
0001
0100
1000
0100
0010
0001
,
0100
0100
0010
0010
0001
0010
1000
0100
,
0010
0010
0001
0001
1000
0010
0100
0001
,
0010
0000
0000
0000
,
0110
0100
0100
0100
,
1000
1000
0001
1010
,
0110
0010
0010
0010
,
1000
1000
0001
1100
,
0110
0100
0000
0100
,
1001
0010
0000
0010
,
0011
0000
1100
0000
,
0001
0100
0010
1000
0010
0100
0001
0000
,
1000
0100
1000
0100
0010
0001
1000
0001
,
0010
0100
0010
0001
0000
0001
0100
0010
,
1000
0100
0010
0000
0010
0100
1000
0000
,
0100
0010
0001
1000
0010
0000
0110
0000
,
0100
0001
0010
0001
0100
0000
1010
0000
,
0010
1000
0100
1000
0010
0000
0101
0000
,
0001
0000
0100
0010
0000
1000
0000
1001
,
0000
0001
0010
0100
0010
0001
1000
0000
,
0002
0000
0003
0100
0101
0000
0000
0000
,
0010
0000
0000
0010
0000
0000
1000
0000
1100
0000
0000
0000
0000
0000
0000
0000
,
0010
0000
0011
0000
,
1000
0100
1000
0000
0101
0001
0100
0010
,
1000
0100
0001
0100
1000
0000
0011
0000
,
0001
0010
1000
0010
0001
0000
2100
0000
,
3020
0032
0203
2300
,
3020
0000
0130
0100
0002
0000
2003
0000
,
3100
0000
0110
0000
0100
0010
0100
0000
,
1001
0000
0000
0000
,
0010
0100
0000
0010
0100
0000
1000
0100
0000
0000
1000
0000
1001
0000
0000
0000
,
0010
0001
0000
0010
0001
0000
0100
0001
0000
0000
0100
0000
0110
0000
0000
0000
,
0001
0000
1000
0100
1000
0000
0001
0000
0010
0000
0100
0000
1000
0000
0001
0000
,
0100
0010
0100
0010
1000
0001
0010
0000
,
0100
0010
0000
0100
0010
0000
0100
1000
0000
0000
0100
0000
1001
0000
0000
0000
,
0100
0001
0000
0100
0001
0000
1000
0010
0000
0000
0100
0000
0110
0000
0000
0000
,
0010
0000
1000
0010
1000
0000
0001
0000
0100
0000
0010
0000
1000
0000
0001
0000
,
0010
0100
0010
0100
1000
0100
0010
0000
,
0001
0100
0001
0100
1000
0100
0010
0100
,
0001
1000
0100
0010
0001
0000
1001
0000
,
0001
0010
0001
0010
1000
0010
0001
1000
,
0100
0010
0001
0100
0010
0000
1000
0000
,
0011
0000
1100
0000
,
0110
0000
1100
0001
,
0100
0010
0000
0011
0000
1010
0000
0001
,
0020
0000
0030
0000
,
0100
0000
0000
0100
1000
0000
0001
0000
0100
0000
0000
0100
0010
0000
1000
0000
,
0001
0010
0100
0010
0001
1000
0100
0010
,
0001
0000
0000
0001
0100
0000
0010
0000
1000
0000
0000
1000
0100
0000
0010
0000
,
0100
0100
0010
0010
0100
0010
0001
1000
,
0001
0000
0000
0100
0001
0000
0100
0000
0010
0000
0000
1000
0100
0000
1000
0000
,
0001
0100
1000
0100
0001
0100
0010
1000
,
0100
0100
0010
0010
1000
0010
0001
0100
,
0010
0010
1000
1000
0001
0010
0100
1000
,
0010
0000
0010
0000
0010
0100
0010
0000
,
1001
0000
0000
0000
;

//---------------dance-single - ----------------
#NOTEDATA:;
#CHARTNAME:;
#STEPSTYPE:dance-single;
#DESCRIPTION:;
#CHARTSTYLE:;
#DIFFICULTY:Medium;
#METER:9;
#RADARVALUES:0.401292,0.450203,0.321574,0.151329,0.018916,297.000000,263.000000,34.000000,16.000000,0.000000,0.000000,0.000000,0.000000,0.000000,0.401292,0.450203,0.321574,0.151329,0.018916,297.000000,263.000000,34.000000,16.000000,0.000000,0.000000,0.000000,0.000000,0.000000;
#CREDIT:led_light;
#NOTES:
0000
0000
0000
0000
,
0000
0000
0000
0000
,
0000
0000
0000
0000
,
0000
0000
0000
0000
,
0000
0000
0000
0000
,
0000
0000
0000
0000
,
0000
0000
0000
0000
,
0000
0000
0000
0000
,
1000
1100
0001
0101
,
1000
0010
0100
0000
0020
0000
1030
0000
,
0001
0101
1000
1100
,
0010
0100
0100
0000
1000
0010
0010
0000
,
1000
1010
0001
0011
,
1000
0100
0010
0000
0200
0000
1300
0000
,
0001
0100
0010
0000
0010
0100
0010
0000
,
1000
0100
0010
0000
0010
0100
0010
0000
,
0100
0000
0000
0000
,
1001
0001
0001
0001
,
0100
0100
0100
0010
,
0110
0100
0100
0100
,
0001
0001
0001
1000
,
1001
0100
0000
0100
,
1001
0010
0000
0010
,
0110
0000
1001
0000
,
0001
0010
0100
1000
0002
0000
1003
0000
,
0010
0000
0010
0000
0100
0001
1000
0000
,
0100
1000
0100
0010
0000
0100
1000
0000
,
0001
0000
0001
0000
1000
0010
1000
0000
,
0001
0100
0010
2000
0000
3001
1000
0000
,
0001
0010
0100
0000
1000
0000
1100
0000
,
1000
0010
0100
0000
0001
0000
0101
0000
,
0001
0000
1000
0100
0000
1000
0000
1001
,
0000
1000
0001
0000
0100
0000
0010
0000
,
0220
0330
1100
0000
,
0001
0000
0101
0000
,
0010
0000
0011
0000
,
1000
0100
1000
0000
0020
0000
0030
0000
,
1000
0100
0010
0000
0001
0000
0011
0000
,
0001
0100
0010
0000
1000
0000
1010
0000
,
0002
0023
0230
2300
,
3010
0000
1000
0100
0010
0000
0002
0000
,
1003
0000
1000
0000
0001
0100
0001
0000
,
0110
0000
0000
0000
,
0100
0000
0000
0100
0000
0000
0100
0000
0000
0000
0001
0000
1000
0000
0000
0000
,
0010
0000
0000
0010
0000
0000
0010
0000
0000
0000
1000
0000
0001
0000
0000
0000
,
0010
0100
1000
0000
0100
0000
0100
0000
,
0001
0100
1000
0001
,
1000
0000
0000
1000
0000
0000
1000
0000
0000
0000
0100
0000
0010
0000
0000
0000
,
0001
0000
0000
0001
0000
0000
0001
0000
0000
0000
0010
0000
0100
0000
0000
0000
,
1000
0001
0100
0000
0001
0000
0001
0000
,
0010
0000
0001
0100
0000
0020
1000
0030
,
0001
0100
0001
0000
1000
0000
0100
0000
,
0010
0100
0010
0000
0001
0000
1001
0000
,
1000
0010
1000
0000
0001
0000
0010
0000
,
0100
0010
0100
0000
1000
0000
0001
0000
,
0110
0000
0011
0000
,
1100
0000
0101
0010
,
1000
0001
0000
0010
0000
0100
0000
1000
,
0020
0000
0030
0000
,
1000
1100
0001
0101
,
1000
0010
0100
0000
0020
0000
1030
0000
,
0001
0101
1000
1100
,
0010
0100
0100
0000
1000
0010
0010
0000
,
1000
1010
0001
0011
,
1000
0100
0010
0000
0200
0000
1300
0000
,
0001
0100
0010
0000
0010
0100
0010
0000
,
1000
0100
0010
0000
0010
0100
0010
0000
,
0001
0000
0001
0000
1000
0010
1000
0000
,
0110
0000
0000
0000
;

//---------------dance-single - ----------------
#NOTEDATA:;
#CHARTNAME:;
#STEPSTYPE:dance-single;
#DESCRIPTION:;
#CHARTSTYLE:;
#DIFFICULTY:Easy;
#METER:6;
#RADARVALUES:0.272932,0.321574,0.151329,0.056748,0.000000,202.000000,186.000000,16.000000,6.000000,0.000000,0.000000,0.000000,0.000000,0.000000,0.272932,0.321574,0.151329,0.056748,0.000000,202.000000,186.000000,16.000000,6.000000,0.000000,0.000000,0.000000,0.000000,0.000000;
#CREDIT:led_light;
#NOTES:
0000
0000
0000
0000
,
0000
0000
0000
0000
,
0000
0000
0000
0000
,
0000
0000
0000
0000
,
0000
0000
0000
0000
,
0000
0000
0000
0000
,
0000
0000
0000
0000
,
0000
0000
0000
0000
,
1000
1000
0001
0001
,
1000
0100
1000
0000
,
0010
0010
0100
0100
,
0010
0000
0010
1001
,
0010
0010
0100
0100
,
0010
1000
1000
0000
,
0001
0001
1000
0001
,
0010
0010
0100
0010
,
0100
0000
0000
0000
,
1001
0001
0100
0001
,
0100
0010
1000
0000
,
0110
0001
1000
0001
,
1000
0100
0010
0000
,
0100
1000
0100
0000
,
0100
0001
0100
0000
,
1000
0000
0110
0000
,
1000
0001
2000
3000
,
0001
0100
0010
1000
,
0100
0010
0100
0000
,
1000
0100
0001
0100
,
1000
1000
1000
0000
,
0001
0010
1000
0000
,
1000
0010
0001
0000
,
1000
0000
0001
0000
,
1001
0000
0000
0000
,
0020
0000
1030
0000
,
2000
0000
3100
0000
,
0020
0000
0031
0000
,
0002
0000
0103
0000
,
0001
0100
1000
0000
,
1000
0100
0001
0000
,
0001
0100
0001
0010
,
0100
1000
0010
0100
,
0001
0001
1000
0001
,
0110
0000
0000
0000
,
0100
0100
0000
1010
,
0100
0100
0000
0011
,
0000
0100
1000
0010
,
1000
0100
1000
0000
,
0001
0001
0000
1100
,
0001
0001
0000
1010
,
0000
0001
0100
1000
,
0100
0001
0100
0000
,
0010
0010
1000
0100
,
0010
0001
1000
0000
,
0100
0100
1000
0001
,
0100
0010
1000
0000
,
1001
0000
1100
0000
,
0110
0000
1001
0000
,
0001
0000
0000
0010
0000
0010
0000
0100
,
2000
0000
3000
0000
,
1000
1000
0001
0001
,
1000
0100
1000
0000
,
0010
0010
0100
0100
,
0010
0000
0010
1001
,
0010
0010
0100
0100
,
0010
1000
1000
0000
,
0001
0001
1000
0001
,
0010
0010
0100
0010
,
0100
0100
0010
0100
,
1001
0000
0000
0000
;

//---------------dance-single - ----------------
#NOTEDATA:;
#CHARTNAME:;
#STEPSTYPE:dance-single;
#DESCRIPTION:;
#CHARTSTYLE:;
#DIFFICULTY:Beginner;
#METER:4;
#RADARVALUES:0.158085,0.257259,0.085122,0.028374,0.000000,117.000000,108.000000,9.000000,3.000000,0.000000,0.000000,0.000000,0.000000,0.000000,0.158085,0.257259,0.085122,0.028374,0.000000,117.000000,108.000000,9.000000,3.000000,0.000000,0.000000,0.000000,0.000000,0.000000;
#CREDIT:led_light;
#NOTES:
0000
0000
0000
0000
,
0000
0000
0000
0000
,
0000
0000
0000
0000
,
0000
0000
0000
0000
,
0000
0000
0000
0000
,
0000
0000
0000
0000
,
0000
0000
0000
0000
,
0000
0000
0000
0000
,
1000
0000
1000
0000
,
1000
1000
1000
0000
,
0001
0000
0001
0000
,
0010
0000
0001
0000
,
0100
0000
0100
0000
,
0100
0100
0100
0000
,
0010
0010
0010
0000
,
1000
1000
1000
0000
,
0001
0000
0000
0000
,
1001
0000
0000
0000
,
0000
0000
0000
0000
,
0110
0000
0000
0000
,
0000
0000
0000
0000
,
1001
0000
0000
0000
,
0110
0000
0000
0000
,
1001
0000
0110
0000
,
1001
0000
0000
0000
,
0001
0000
0001
0000
,
1000
0000
0000
0000
,
1000
0000
1000
0000
,
0001
0000
0000
0000
,
0010
0000
0000
0000
,
0010
0000
0000
0000
,
0100
0000
0010
0000
,
0100
0000
0000
0000
,
2000
0000
3000
0000
,
1000
0000
0000
0000
,
0002
0000
0003
0000
,
0001
0000
0000
0000
,
0010
0010
0010
0000
,
0001
0001
0001
0000
,
0100
0000
0001
0000
,
1000
0000
0010
0000
,
0100
0000
0100
0000
,
0110
0000
0000
0000
,
0010
0010
0010
0000
,
0100
0100
0100
0000
,
0000
1000
1000
0000
,
0001
0000
0000
0000
,
0100
0100
0100
0000
,
0010
0010
0010
0000
,
0000
0001
0001
0000
,
1000
0000
0000
0000
,
0010
0000
1000
0000
,
0010
0000
0000
0000
,
1000
0000
0100
0000
,
1000
0000
0000
0000
,
0001
0000
0001
0000
,
0100
0000
0100
0000
,
0020
0000
0000
0000
,
0030
0000
0000
0000
,
1000
0000
1000
0000
,
1000
1000
1000
0000
,
0001
0000
0001
0000
,
0010
0000
0001
0000
,
0100
0000
0100
0000
,
0100
0100
0100
0000
,
0010
0010
0010
0000
,
1000
1000
1000
0000
,
0001
0000
0001
0000
,
1001
0000
0000
0000
;

//---------------dance-double - ----------------
#NOTEDATA:;
#CHARTNAME:;
#STEPSTYPE:dance-double;
#DESCRIPTION:;
#CHARTSTYLE:;
#DIFFICULTY:Hard;
#METER:12;
#RADARVALUES:0.503979,0.546676,0.226993,0.094581,0.118226,373.000000,349.000000,24.000000,10.000000,0.000000,0.000000,0.000000,0.000000,0.000000,0.503979,0.546676,0.226993,0.094581,0.118226,373.000000,349.000000,24.000000,10.000000,0.000000,0.000000,0.000000,0.000000,0.000000;
#CREDIT:led_light;
#NOTES:
// measure 0
00000000
00000000
00000000
00000000
,  // measure 1
00000000
00000000
00000000
00000000
,  // measure 2
00000000
00000000
00000000
00000000
,  // measure 3
00000000
00000000
00000000
00000000
,  // measure 4
00000000
00000000
00000000
00000000
,  // measure 5
00000000
00000000
00000000
00000000
,  // measure 6
00000000
00000000
00000000
00000000
,  // measure 7
00000000
00000000
00000000
00000000
,  // measure 8
00100000
00000000
00000000
00100000
00001000
00000000
00010000
00000000
00000100
00000000
00000000
00000100
00010000
00000000
00001000
00000000
,  // measure 9
00100000
00010000
01000000
00001000
00010000
00000100
00001000
00000000
,  // measure 10
00000010
00000000
00000000
00000010
00000100
00000000
00001000
00000000
00010000
00000000
00000000
00010000
00001000
00000000
00100000
00000000
,  // measure 11
01000000
00010000
01000000
00100000
01000000
10000000
00010000
00000000
,  // measure 12
00100000
00000000
00000000
00100000
00010000
00000000
01000000
00000000
00001000
00000000
00000000
00001000
00010000
00000000
00000100
00000000
,  // measure 13
00000010
00000100
00000010
00000001
00000100
00000010
00001000
00000000
,  // measure 14
00000001
00000010
00000001
00000010
00000100
00001000
00000010
00000000
,  // measure 15
00001000
00000100
00001000
00000100
00000010
00001000
00010000
00000000
,  // measure 16
00001000
00000000
00000000
00000000
,  // measure 17
00011000
00000010
00000010
00000010
,  // measure 18
00000001
00000001
00001000
00010100
,  // measure 19
00011000
00100000
00100000
00100000
,  // measure 20
10000000
10000000
00010000
01001000
,  // measure 21
00011000
00000100
00000000
00000100
,  // measure 22
00001001
00000010
00000000
00000010
,  // measure 23
00011000
00000000
10010000
00000000
,  // measure 24
00010000
01000000
00100000
10000000
01000000
00100000
00010000
00000000
,  // measure 25
10000000
01000000
10000000
00010000
01000000
00010000
01000000
00100000
,  // measure 26
10000000
00010000
00100000
01000000
00000000
00100000
00010000
10000000
,  // measure 27
01000000
00010000
00001000
00000000
00010000
00001000
00000100
00000000
,  // measure 28
00000001
00000100
00000010
00001000
00000002
00000000
00000103
00000000
,  // measure 29
00000001
00000010
00000100
00000010
00000001
00000000
00001100
00000000
,  // measure 30
00010000
00001000
00000100
00001000
00010000
00000000
00011000
00000000
,  // measure 31
00001000
00000000
01000000
00001000
00000000
00010000
00000000
00011000
,  // measure 32
00000000
00001000
00010000
01000000
10000000
01000000
00100000
00000000
,  // measure 33
00002000
00003000
00011000
00000000
,  // measure 34
00000100
00000000
00000000
00000100
00000000
00000000
00000010
00000000
00000011
00000000
00000000
00000000
00000000
00000000
00000000
00000000
,  // measure 35
00001000
00000000
00001010
00000000
,  // measure 36
00010000
00001000
00100000
00000000
00001000
00001000
00010000
00100000
,  // measure 37
10000000
01000000
00100000
01000000
10000000
00000000
00110000
00000000
,  // measure 38
00001000
00010000
00100000
00010000
00001000
00000000
00011000
00000000
,  // measure 39
00020000
00032000
00003020
00000032
,  // measure 40
00000203
00000000
00001300
00001000
00020000
00000000
02030000
00000000
,  // measure 41
13000000
00000000
10010000
00000000
00100000
00010000
00100000
00000000
,  // measure 42
00011000
00000000
00000000
00000000
,  // measure 43
00100000
00010000
00000000
00100000
00010000
00000000
10000000
01000000
00000000
00000000
00010000
00000000
00001000
00000000
00000000
00000000
,  // measure 44
00000100
00000010
00000000
00000100
00000010
00000000
00001000
00000001
00000000
00000000
00000100
00000000
00000010
00000000
00000000
00000000
,  // measure 45
00001000
00000100
00000010
00000001
00000010
00000100
00001000
00000001
,  // measure 46
00000100
00000010
00001000
00000100
00010000
00001000
00010000
00000000
,  // measure 47
00000010
00001000
00000000
00000010
00001000
00000000
00000001
00000100
00000000
00000000
00001000
00000000
00010000
00000000
00000000
00000000
,  // measure 48
01000000
00100000
00000000
01000000
00100000
00000000
00010000
10000000
00000000
00000000
01000000
00000000
00100000
00000000
00000000
00000000
,  // measure 49
00010000
01000000
00100000
10000000
00100000
01000000
00010000
10000000
,  // measure 50
01000000
00100000
00010000
01000000
00001000
00010000
00001000
00000000
,  // measure 51
00010000
01000000
00010000
01000000
00010000
00001000
00010000
00001000
,  // measure 52
00000100
00001000
00000100
00000001
00000100
00000000
00001001
00000000
,  // measure 53
00000010
00001000
00000010
00001000
00010000
00001000
00010000
00100000
,  // measure 54
01000000
00100000
01000000
10000000
01000000
00000000
00001000
00000000
,  // measure 55
00011000
00000000
00010100
00000000
,  // measure 56
00001010
00000000
00110000
00001000
,  // measure 57
00010000
01000000
00000000
10000000
00000000
00100000
00000000
00010000
,  // measure 58
00002000
00000000
00003000
00000000
,  // measure 59
00100000
00000000
00000000
00100000
00001000
00000000
00010000
00000000
00000100
00000000
00000000
00000100
00010000
00000000
00001000
00000000
,  // measure 60
00100000
00010000
01000000
00001000
00010000
00000100
00001000
00000000
,  // measure 61
00000010
00000000
00000000
00000010
00000100
00000000
00001000
00000000
00010000
00000000
00000000
00010000
00001000
00000000
00100000
00000000
,  // measure 62
01000000
00010000
01000000
00100000
01000000
10000000
00010000
00000000
,  // measure 63
00100000
00000000
00000000
00100000
00010000
00000000
01000000
00000000
00001000
00000000
00000000
00001000
00010000
00000000
00000100
00000000
,  // measure 64
00000010
00000100
00000010
00000001
00000100
00000010
00001000
00000000
,  // measure 65
00000001
00000010
00000001
00000010
00000100
00001000
00000010
00000000
,  // measure 66
00001000
00000100
00001000
00000100
00000010
00001000
00010000
00000000
,  // measure 67
00001000
00000000
00001000
00000000
00100000
00010000
01000000
00000000
,  // measure 68
01100000
00000000
00000000
00000000
;

//---------------dance-double - ----------------
#NOTEDATA:;
#CHARTNAME:;
#STEPSTYPE:dance-double;
#DESCRIPTION:;
#CHARTSTYLE:;
#DIFFICULTY:Medium;
#METER:9;
#RADARVALUES:0.381024,0.418046,0.189161,0.122955,0.018916,282.000000,262.000000,20.000000,13.000000,0.000000,0.000000,0.000000,0.000000,0.000000,0.381024,0.418046,0.189161,0.122955,0.018916,282.000000,262.000000,20.000000,13.000000,0.000000,0.000000,0.000000,0.000000,0.000000;
#CREDIT:led_light;
#NOTES:
// measure 0
00000000
00000000
00000000
00000000
,  // measure 1
00000000
00000000
00000000
00000000
,  // measure 2
00000000
00000000
00000000
00000000
,  // measure 3
00000000
00000000
00000000
00000000
,  // measure 4
00000000
00000000
00000000
00000000
,  // measure 5
00000000
00000000
00000000
00000000
,  // measure 6
00000000
00000000
00000000
00000000
,  // measure 7
00000000
00000000
00000000
00000000
,  // measure 8
00010000
00010000
00001000
00001000
,  // measure 9
00100000
00010000
01000000
00000000
00200000
00000000
00310000
00000000
,  // measure 10
00001000
00001000
00010000
00010000
,  // measure 11
00000100
00001000
00000100
00000000
00000010
00000001
00000010
00000000
,  // measure 12
00001000
00001000
00010000
00010000
,  // measure 13
00000100
00001000
00000010
00000000
00000200
00000000
00001300
00000000
,  // measure 14
00010000
00100000
00010000
00000000
00100000
01000000
00001000
00000000
,  // measure 15
00010000
00001000
00010000
00000000
00000100
00000010
00001000
00000000
,  // measure 16
00010000
00000000
00000000
00000000
,  // measure 17
00011000
00001000
00001000
00001000
,  // measure 18
00000100
00000100
00000001
00000010
,  // measure 19
00000110
00001000
00001000
00001000
,  // measure 20
00010000
00010000
00100000
10000000
,  // measure 21
10010000
01000000
00000000
01000000
,  // measure 22
00011000
00000010
00000000
00000010
,  // measure 23
00001001
00000000
00000110
00000000
,  // measure 24
00001000
00000100
00000010
00000001
00002000
00000000
00003100
00000000
,  // measure 25
00001000
00000000
00001000
00000000
00000100
00000010
00000100
00000000
,  // measure 26
00001000
00000010
00001000
00000010
00000000
00000100
00000001
00000000
,  // measure 27
00001000
00000000
00001000
00000000
00000100
00010000
00001000
00000000
,  // measure 28
00100000
00010000
10000000
00020000
00000000
01030000
00100000
00000000
,  // measure 29
01000000
00010000
01000000
00000000
00001000
00000000
00011000
00000000
,  // measure 30
00100000
00010000
00100000
00000000
10000000
00000000
01100000
00000000
,  // measure 31
00010000
00000000
10000000
01000000
00000000
10000000
00000000
00100000
,  // measure 32
00000000
00010000
00001000
00000000
00001000
01000000
00001000
00000000
,  // measure 33
00022000
00033000
00001100
00000000
,  // measure 34
00000010
00000000
00001010
00000000
,  // measure 35
00100000
00000000
01010000
00000000
,  // measure 36
10000000
00000000
00000000
00000000
00100000
01000000
00100000
00000000
,  // measure 37
01000000
00010000
01000000
00000000
00001000
00000000
00011000
00000000
,  // measure 38
00100000
00010000
00100000
00000000
10000000
00000000
01100000
00000000
,  // measure 39
00020000
02030000
03002000
00023000
,  // measure 40
00030100
00000000
00001000
00000010
00000100
00000000
00000001
00000000
,  // measure 41
00000010
00000000
00000010
00000000
00000100
00000010
00000100
00000000
,  // measure 42
00001001
00000000
00000000
00000000
,  // measure 43
00000010
00000000
00000000
00000010
00000000
00000000
00000010
00000000
00000000
00000000
00000001
00000000
00000100
00000000
00000000
00000000
,  // measure 44
00001000
00000000
00000000
00001000
00000000
00000000
00001000
00000000
00000000
00000000
00010000
00000000
00001000
00000000
00000000
00000000
,  // measure 45
01000000
01000000
00100000
01000000
,  // measure 46
10000000
00000000
01000000
00010000
00000000
00010000
01000000
00000000
,  // measure 47
00100000
00000000
00000000
00100000
00000000
00000000
00100000
00000000
00000000
00000000
10000000
00000000
01000000
00000000
00000000
00000000
,  // measure 48
00010000
00000000
00000000
00010000
00000000
00000000
00010000
00000000
00000000
00000000
00001000
00000000
00010000
00000000
00000000
00000000
,  // measure 49
00000100
00000010
00000100
00000000
00001000
00000000
00001000
00000000
,  // measure 50
00000001
00000000
00000100
00000010
00000000
00000010
00001000
00000000
,  // measure 51
00000001
00000100
00000001
00000000
00000010
00000000
00000100
00000000
,  // measure 52
00001000
00000100
00001000
00000000
00000001
00000000
00000000
00000000
,  // measure 53
00001000
00000100
00001000
00000000
00000010
00000000
00000100
00000000
,  // measure 54
00001000
00010000
00001000
00000000
01000000
00000000
00000000
00000000
,  // measure 55
00110000
00000000
11000000
00000000
,  // measure 56
01010000
00000000
00011000
00000100
,  // measure 57
00000010
00000100
00000000
00010000
00000000
00001000
00000000
01000000
,  // measure 58
00200000
00000000
00300000
00000000
,  // measure 59
00010000
00010000
00001000
00001000
,  // measure 60
00100000
00010000
01000000
00000000
00200000
00000000
00310000
00000000
,  // measure 61
00001000
00001000
00010000
00010000
,  // measure 62
00000100
00001000
00000100
00000000
00000010
00000001
00000010
00000000
,  // measure 63
00001000
00001000
00010000
00010000
,  // measure 64
00000100
00001000
00000010
00000000
00000200
00000000
00001300
00000000
,  // measure 65
00010000
00100000
00010000
00000000
00100000
01000000
00001000
00000000
,  // measure 66
00010000
00001000
00010000
00000000
00000100
00000010
00001000
00000000
,  // measure 67
00010000
00000000
00010000
00000000
01000000
00100000
01000000
00000000
,  // measure 68
10010000
00000000
00000000
00000000
;

//---------------dance-double - ----------------
#NOTEDATA:;
#CHARTNAME:;
#STEPSTYPE:dance-double;
#DESCRIPTION:;
#CHARTSTYLE:;
#DIFFICULTY:Easy;
#METER:6;
#RADARVALUES:0.258070,0.321574,0.132413,0.094581,0.000000,191.000000,177.000000,14.000000,10.000000,0.000000,0.000000,0.000000,0.000000,0.000000,0.258070,0.321574,0.132413,0.094581,0.000000,191.000000,177.000000,14.000000,10.000000,0.000000,0.000000,0.000000,0.000000,0.000000;
#CREDIT:led_light;
#NOTES:
00000000
00000000
00000000
00000000
,
00000000
00000000
00000000
00000000
,
00000000
00000000
00000000
00000000
,
00000000
00000000
00000000
00000000
,
00000000
00000000
00000000
00000000
,
00000000
00000000
00000000
00000000
,
00000000
00000000
00000000
00000000
,
00000000
00000000
00000000
00000000
,
00000100
00010000
00001000
00010000
,
00000010
00000100
00000010
00000000
,
00001000
00000001
00000100
00000001
,
00000010
00000000
00000010
00001000
,
00100000
00001000
00010000
00001000
,
01000000
00100000
01000000
00000000
,
00010000
00010000
10000000
01000000
,
10000000
10000000
00100000
01000000
,
00001000
00000000
00000000
00000000
,
00011000
00001000
00010000
00001000
,
01000000
00001000
00010000
00000000
,
00001100
00000100
00001000
00000100
,
00000010
00000100
00001000
00000000
,
00000001
00000001
00000001
00000000
,
00001000
00001000
00001000
00000000
,
00000010
00000000
00001001
00000000
,
00000001
00000100
00000002
00000003
,
00001000
00000100
00001000
00000010
,
00010000
00001000
00010000
00000000
,
01000000
00010000
01000000
10000000
,
00100000
01000000
00100000
00000000
,
10000000
01000000
00010000
00000000
,
00001000
00000100
00000001
00000000
,
00001000
00000000
00000001
00000000
,
00001001
00000000
00000000
00000000
,
00000002
00000000
00001003
00000000
,
00002000
00000000
00003100
00000000
,
00020000
00000000
00031000
00000000
,
00002000
00000000
00003100
00000000
,
00000001
00000100
00001000
00000000
,
00010000
01000000
10000000
00000000
,
02000000
03000000
00020000
00030000
,
00200000
00300000
20000000
30000000
,
01000000
01000000
01000000
00000000
,
01100000
00000000
00000000
00000000
,
00010000
00010000
00000000
00101000
,
00010000
00010000
00000000
01001000
,
00000000
00100000
10000000
00010000
,
00100000
01000000
00100000
00000000
,
00001000
00001000
00000000
00010100
,
00001000
00001000
00000000
00010010
,
00000000
00000100
00000001
00001000
,
00000100
00000010
00000100
00000000
,
00010000
00001000
00000010
00001000
,
00010000
00001000
00000100
00000000
,
00000001
00000100
00001000
00000100
,
00000001
00000010
00001000
00000000
,
00011000
00000000
01100000
00000000
,
11000000
00000000
00110000
00000000
,
00002000
00000000
00000000
00000000
,
00003000
00000000
00000000
00000000
,
01000000
00001000
00010000
00001000
,
00100000
01000000
00100000
00000000
,
00010000
10000000
01000000
10000000
,
00100000
00000000
00100000
00010000
,
00000010
00010000
00001000
00010000
,
00000100
00000010
00000100
00000000
,
00001000
00001000
00000001
00000100
,
00000001
00000001
00000010
00000100
,
00010000
00010000
00001000
00010000
,
00011000
00000000
00000000
00000000
;
