#TITLE:鳥の願い;
#SUBTITLE:;
#ARTIST:Enna Alouette;
#TITLETRANSLIT:Wish of this Songbird;
#SUBTITLETRANSLIT:;
#ARTISTTRANSLIT:;
#GENRE:にじさんじ;
#CREDIT:;
#BANNER:Wish of this Songbird.png;
#BACKGROUND:Wish of this Songbird-bg.png;
#LYRICSPATH:;
#CDTITLE:../cdtitle.png;
#MUSIC:Wish of this Songbird.ogg;
#OFFSET:2.170999;
#SAMPLESTART:0.229000;
#SAMPLELENGTH:15.000000;
#LASTBEATHINT:1.463749;
#SELECTABLE:YES;
#BPMS:0.000000=75.000000
;
#STOPS:
;
#BGCHANGES:1.500=Wish of this Songbird.avi=1.000=0=0=0=StretchNoLoop====,
99999=-nosongbg-=1.000=0=0=0 // don't automatically add -songbackground-
;
#KEYSOUNDS:;
#ATTACKS:;

//---------------dance-single - ----------------
#NOTES:
     dance-single:
     :
     Beginner:
     1:
     0.043633,0.078367,0.008038,0.088414,0.000000,38.000000,37.000000,1.000000,11.000000,0.000000,0.000000,0.043633,0.078367,0.008038,0.088414,0.000000,38.000000,37.000000,1.000000,11.000000,0.000000,0.000000:
0000
0000
0000
0000
,
0000
0000
0000
0000
,
0000
0000
0000
0000
,
0000
0000
0000
0001
,
0000
0000
0010
0000
,
0000
0100
0000
0000
,
1000
0000
0000
2000
,
0000
0000
3000
0000
,
0000
0002
0000
0000
,
0003
0000
0000
2000
,
0000
0000
3000
0000
,
0000
0100
0000
0000
,
0020
0000
0000
0030
,
0000
0000
0000
0000
0000
0000
0000
0002
,
0000
0000
0000
0000
,
0000
0000
0000
0003
0000
0000
0000
0000
,
0000
0000
0000
0000
0000
0000
0000
1000
,
0000
0000
0000
0000
,
0000
0000
0000
1000
0000
0000
0000
0000
,
0000
0000
0000
0000
0000
0000
0000
0002
,
0000
0000
0000
0000
0000
0003
0000
0000
,
0001
0000
0000
2000
0000
0000
0000
0000
,
0000
0000
0000
0000
3000
0000
0000
1001
,
0000
0200
0000
0000
,
0300
0000
0000
0100
0000
0000
0020
0000
,
0000
0000
0000
0000
0030
0000
0000
0010
,
0000
0000
2000
0000
0000
3000
0000
0000
,
0002
0000
0000
0003
,
0000
0000
1000
0000
,
0000
1000
0000
0000
,
0100
0000
0000
0010
,
0000
0000
0001
0000
,
0000
0001
0000
0000
,
0010
0000
0000
0100
,
0000
0000
1000
0000
,
0000
1000
0000
0000
,
0010
0000
0000
0010
,
0000
0000
0100
0000
,
0000
0100
0000
0000
,
0001
0000
0000
0000
;

//---------------dance-single - ----------------
#NOTES:
     dance-single:
     :
     Easy:
     2:
     0.078080,0.094040,0.008038,0.208978,0.000000,68.000000,67.000000,1.000000,26.000000,0.000000,0.000000,0.078080,0.094040,0.008038,0.208978,0.000000,68.000000,67.000000,1.000000,26.000000,0.000000,0.000000:
// measure 0
0000
0000
0000
0000
,  // measure 1
0000
0000
0000
0000
,  // measure 2
0000
0000
0000
0000
,  // measure 3
0000
0000
0000
0001
,  // measure 4
0000
0010
0000
0000
0200
0000
0000
0310
,  // measure 5
0000
0000
0200
0000
0000
0300
0000
0000
,  // measure 6
2000
0000
0000
3000
0000
0000
0002
0000
,  // measure 7
0000
0103
0000
0000
2000
0000
0000
3100
,  // measure 8
0000
0000
0200
0000
0000
0310
0000
0000
,  // measure 9
0200
0000
0000
0300
0000
0000
0002
0000
,  // measure 10
0000
0013
0000
0000
2000
0000
0000
3010
,  // measure 11
0000
0000
0100
0000
0000
0001
0000
0000
,  // measure 12
0100
0000
0000
0020
0000
0000
0030
0000
,  // measure 13
0000
0000
0000
0000
0000
0000
0000
0002
,  // measure 14
0000
0000
0000
0003
0000
2000
0000
0000
,  // measure 15
0000
0000
0000
3000
0000
0000
0000
0000
,  // measure 16
0000
0000
0000
0000
0000
0000
0000
0100
,  // measure 17
0000
0000
0000
0000
0000
0100
0000
0000
,  // measure 18
0000
0000
0000
0010
0000
0000
0000
0000
,  // measure 19
0000
0010
0000
0000
0000
0000
0000
0002
,  // measure 20
0000
0000
0000
0000
,  // measure 21
0010
0000
0000
0023
0000
0000
0000
0000
,  // measure 22
0000
0000
0000
0000
0130
0000
0000
0010
,  // measure 23
0000
2002
0000
0000
,  // measure 24
0000
0000
3003
0100
0000
0000
2000
0000
,  // measure 25
0000
0001
0000
0000
0001
0000
0000
0001
,  // measure 26
0000
0000
3001
0000
0000
0100
0000
0000
,  // measure 27
0010
0000
0000
2000
0000
0000
3000
0000
,  // measure 28
0000
0000
0000
0000
0002
0000
0000
0003
,  // measure 29
0000
0000
0020
0000
0000
0130
0000
0000
,  // measure 30
2000
0000
0000
3000
0000
0000
2000
0000
,  // measure 31
0000
3001
0000
0000
2000
0000
0000
3000
,  // measure 32
0000
0000
0020
0000
0000
0130
0000
0000
,  // measure 33
0002
0000
0000
0003
0000
0000
0002
0000
,  // measure 34
0000
1003
0000
0000
0001
0000
0000
0000
,  // measure 35
0010
0001
0000
1000
,  // measure 36
0100
0000
1000
0010
,  // measure 37
0000
0100
0001
0000
,  // measure 38
1000
0001
0000
0010
,  // measure 39
0010
0000
0000
0000
;

//---------------dance-single - ----------------
#NOTES:
     dance-single:
     :
     Medium:
     5:
     0.151566,0.203754,0.032150,0.281317,0.000000,132.000000,128.000000,4.000000,35.000000,0.000000,0.000000,0.151566,0.203754,0.032150,0.281317,0.000000,132.000000,128.000000,4.000000,35.000000,0.000000,0.000000:
// measure 0
0000
0000
0000
0000
,  // measure 1
0000
0000
0000
0000
,  // measure 2
0000
0000
0000
0000
,  // measure 3
0000
0000
0000
0000
0000
0000
1000
0100
,  // measure 4
0000
0001
0100
0000
2000
3000
0100
0020
,  // measure 5
0030
0001
2000
0000
0000
3000
0000
0001
,  // measure 6
0200
0000
0000
0300
1000
0100
0020
0000
,  // measure 7
0000
2030
0000
0000
3002
0000
0003
0020
,  // measure 8
0000
0000
0200
0000
0330
2000
0000
0000
,  // measure 9
0002
0000
0000
3003
0001
0010
0002
0000
,  // measure 10
0003
0200
0000
0000
0320
0000
0000
0030
,  // measure 11
0100
0001
0002
0003
1000
2000
3000
0100
,  // measure 12
0200
0300
0010
0020
0000
0000
0030
0000
,  // measure 13
0000
0000
0000
0000
0000
0000
0000
0002
,  // measure 14
0000
0000
0000
0003
0000
2000
0000
0000
,  // measure 15
0000
0000
0000
3000
0000
0000
0000
0000
,  // measure 16
0000
0000
0000
0000
0000
0000
0000
0001
,  // measure 17
0000
0001
0100
0000
0000
0010
0000
0010
,  // measure 18
1000
0000
0000
0100
0000
1000
0001
0000
,  // measure 19
0100
0020
0000
0000
0030
0000
0000
0220
,  // measure 20
0000
0000
0000
0000
0000
0030
0000
0000
,  // measure 21
0302
0000
1003
0200
0000
0000
0010
0000
,  // measure 22
0000
0001
0000
0000
0010
0010
0300
0100
,  // measure 23
0100
0000
1002
0000
0000
0100
0000
0000
,  // measure 24
1000
0000
0000
0103
0000
0001
2000
0000
,  // measure 25
0000
0100
0000
0000
0001
0000
0000
0100
,  // measure 26
0000
0000
3001
0010
0100
1000
0000
0001
,  // measure 27
0001
0000
0100
0001
1000
0100
0100
0000
,  // measure 28
0000
0000
0012
0000
,  // measure 29
0003
1000
0020
0000
0000
0130
0010
0100
,  // measure 30
0020
0000
0000
1030
0001
2000
0000
0000
,  // measure 31
3000
0001
0010
0100
2100
0000
0000
0000
,  // measure 32
3000
0001
0200
0000
0000
0310
0100
0010
,  // measure 33
0200
0000
0000
0301
1000
0002
0000
0000
,  // measure 34
0003
1000
0100
0010
0001
0001
0000
0000
,  // measure 35
0010
0001
0001
0010
0000
0000
0100
1000
,  // measure 36
1000
0100
0000
0000
1000
0010
0010
1000
,  // measure 37
0000
0000
0001
0100
0100
0001
0000
0000
,  // measure 38
0010
0100
0100
0010
0000
0000
0001
1000
,  // measure 39
0001
0000
0000
0000
;

//---------------dance-single - ----------------
#NOTES:
     dance-single:
     :
     Hard:
     8:
     0.257204,0.407507,0.080376,0.466182,0.180846,224.000000,214.000000,10.000000,58.000000,0.000000,0.000000,0.257204,0.407507,0.080376,0.466182,0.180846,224.000000,214.000000,10.000000,58.000000,0.000000,0.000000:
// measure 0
0000
0000
0000
0000
,  // measure 1
0000
0000
0000
0000
,  // measure 2
0000
0000
0000
0000
,  // measure 3
0000
0000
0000
0000
0000
0000
0002
0103
,  // measure 4
0000
2000
3100
0000
0002
0003
1000
0200
,  // measure 5
0300
0000
0010
0001
0020
0000
0000
0000
0000
0000
0030
0000
0000
0010
0100
1000
,  // measure 6
0002
0000
0000
0000
0000
0000
0003
0000
1000
0100
0010
0001
0200
0000
0000
0000
,  // measure 7
0300
0000
0002
0000
0000
0000
0003
0100
0020
0000
0000
0000
0030
0000
2000
0000
,  // measure 8
0000
0000
0000
3001
0200
0000
0000
0000
0300
0000
0020
0000
0000
0000
0000
1030
,  // measure 9
0002
0000
0000
0003
0001
0010
0002
0000
,  // measure 10
0003
0000
0020
0000
0000
0000
0000
0130
2000
0000
0000
0000
0000
0000
3000
0100
,  // measure 11
0010
0100
0010
0001
2000
0000
3000
0100
0001
0100
2000
0000
3000
0010
0001
0010
,  // measure 12
2000
0000
3000
0001
0010
0100
0020
0000
0000
0000
0000
0000
0030
0000
0000
0000
,  // measure 13
0000
0000
0000
0000
0000
0000
0000
0002
,  // measure 14
0000
0000
0000
0000
0000
2000
0000
0000
,  // measure 15
0000
0000
0000
3003
0000
0000
0000
0000
,  // measure 16
0000
0000
0000
0000
0000
0000
0000
0001
,  // measure 17
0100
0001
0100
0000
0100
0010
1000
0100
,  // measure 18
1000
0000
0000
0000
1000
0000
0001
0000
0000
1000
0100
0000
0010
0000
0001
0000
,  // measure 19
1000
0002
0000
0000
0003
0000
0000
2001
,  // measure 20
0000
0000
0100
0000
0000
0100
0001
0000
,  // measure 21
3020
0000
1030
0002
0000
0100
0100
0000
,  // measure 22
0010
0010
0000
1000
0103
0110
0000
1001
,  // measure 23
0101
0000
0000
0000
2100
0000
0000
0000
3001
0010
0001
0000
0000
0100
0010
1000
,  // measure 24
0001
0100
0001
0102
0000
1003
0200
0000
,  // measure 25
0310
0100
0020
0000
0030
0100
1000
0100
2000
0000
3000
0000
1000
0000
0001
0100
,  // measure 26
0001
0000
1000
0000
0010
0100
0001
1000
0100
1000
0001
0000
0000
0010
0100
1000
,  // measure 27
0001
0000
0000
0100
0001
0010
0100
0000
1100
0000
0110
0001
1000
0000
0000
0000
,  // measure 28
0000
0000
0000
0000
0102
0000
0000
1003
,  // measure 29
0001
0000
0100
0010
0200
0000
0000
0000
0310
0000
0002
0000
0023
0000
2030
0000
,  // measure 30
3002
0000
0000
0000
0013
0000
0100
0010
0100
0010
0200
0000
2000
0000
0000
0000
,  // measure 31
3300
0001
0200
0000
0302
0000
1003
0000
2100
0000
0000
0000
0000
0000
3001
0000
,  // measure 32
1000
0000
0100
0010
0200
0000
0000
0000
0310
0000
2000
0000
3020
0000
0032
0000
,  // measure 33
2003
0000
0000
0000
3010
0000
0100
0010
0100
0010
0200
0000
0002
0000
0000
0000
,  // measure 34
0303
1000
0200
0000
2300
0000
3001
0000
0010
0000
0001
0000
0002
0000
0013
0000
,  // measure 35
0001
0010
0001
0000
0100
0000
0001
0000
0002
0000
0103
0000
0001
0100
0001
0000
,  // measure 36
1000
0000
0010
0000
0020
0000
1030
0000
0010
1000
0010
0000
1000
0000
0100
0000
,  // measure 37
0200
1300
0100
1000
0010
0100
0100
0020
,  // measure 38
0100
0130
0002
1000
1003
2000
0001
0001
,  // measure 39
3000
0000
0000
0000
;

//---------------dance-double - ----------------
#NOTES:
     dance-double:
     :
     Easy:
     2:
     0.078080,0.094040,0.008038,0.112527,0.000000,68.000000,67.000000,1.000000,14.000000,0.000000,0.000000,0.078080,0.094040,0.008038,0.112527,0.000000,68.000000,67.000000,1.000000,14.000000,0.000000,0.000000:
00000000
00000000
00000000
00000000
,
00000000
00000000
00000000
00000000
,
00000000
00000000
00000000
00000000
,
00000000
00000000
00000000
00001000
,
00000000
00010000
00000000
00000000
00002000
00000000
00000000
00003000
,
00000000
00000000
00200000
00000000
00000000
00300000
00000000
00000000
,
00000020
00000000
00000000
00000030
00000000
00000000
00001000
00000000
,
00000000
00000100
00000000
00000000
00000010
00000000
00000000
00000001
,
00000000
00000000
00001000
00000000
00000000
00000001
00000000
00000000
,
00001000
00000000
00000000
00000010
,
00000000
00001000
00000000
00000000
00000100
00000000
00000000
00000000
,
00000000
00000000
00010000
00000000
00000000
00001000
00000000
00000000
,
00100000
00000000
00000000
02000000
00000000
00000000
03000000
00000000
,
00000000
00000000
00000000
00000000
00000000
00000000
00000000
20000000
,
00000000
00000000
00000000
30000000
00000000
00020000
00000000
00000000
,
00000000
00000000
00000000
00030000
00000000
00000000
00000000
00000000
,
00000000
00000000
00000000
00000000
00000000
00000000
00000000
10000000
,
00000000
00000000
00000000
00000000
00000000
01000000
00000000
00000000
,
00000000
00000000
00000000
00100000
00000000
00000000
00000000
00000000
,
00000000
00010000
00000000
00000000
00000000
00000000
00000000
00000020
,
00000000
00000000
00000000
00000000
,
00000031
00000000
00000000
00002000
00000000
00000000
00000000
00000000
,
00000000
00000000
00000000
00000000
00003100
00000000
00000000
00010000
,
00000000
00022000
00000000
00000000
,
00003000
00000000
00000000
00031000
00000000
00000000
00020000
00000000
,
00000000
00000100
00000000
00000000
00000100
00000000
00000000
00000100
,
00000000
00000000
00031000
00000000
00000000
00010000
00000000
00000000
,
00000010
00000000
00000000
00000200
00000000
00000000
00000300
00000000
,
00000000
00000000
00000000
00000000
00000002
00000000
00000000
00000003
,
00000000
00000000
00000010
00000000
00000000
00000100
00000000
00000000
,
00001000
00000000
00000000
00010000
00000000
00000000
00100000
00000000
,
00000000
01000000
00000000
00000000
20000000
00000000
00000000
30000000
,
00000000
00000000
00100000
00000000
00000000
01000000
00000000
00000000
,
00010000
00000000
00000000
00001000
00000000
00000000
00000010
00000000
,
00000000
00000100
00000000
00000000
00000001
00000000
00000000
00000000
,
00001000
00001000
00000000
00000100
,
00000100
00000000
00010000
00010000
,
00000000
00001000
00001000
00000000
,
00100000
00100000
00000000
01000000
,
01000000
00000000
00000000
00000000
;

//---------------dance-double - ----------------
#NOTES:
     dance-double:
     :
     Medium:
     5:
     0.151566,0.203754,0.032150,0.281317,0.000000,132.000000,128.000000,4.000000,35.000000,0.000000,0.000000,0.151566,0.203754,0.032150,0.281317,0.000000,132.000000,128.000000,4.000000,35.000000,0.000000,0.000000:
00000000
00000000
00000000
00000000
,
00000000
00000000
00000000
00000000
,
00000000
00000000
00000000
00000000
,
00000000
00000000
00000000
00000000
00000000
00000000
10000000
01000000
,
00000000
00010000
01000000
00000000
20000000
30000000
01000000
00200000
,
00300000
00001000
00020000
00000000
00000000
00030000
00000000
00000010
,
00002000
00000000
00000000
00003000
00000100
00000010
00000002
00000000
,
00000000
00002003
00000000
00000000
00003020
00000000
00000030
00000200
,
00000000
00000000
00002000
00000000
00003300
00020000
00000000
00000000
,
00002000
00000000
00000000
00033000
00100000
00010000
00200000
00000000
,
00300000
02000000
00000000
00000000
23000000
00000000
00000000
30000000
,
00010000
00100000
00020000
00030000
01000000
02000000
03000000
00001000
,
00002000
00003000
00010000
00020000
00000000
00000000
00030000
00000000
,
00000000
00000000
00000000
00000000
00000000
00000000
00000000
00002000
,
00000000
00000000
00000000
00003000
00000000
00020000
00000000
00000000
,
00000000
00000000
00000000
00030000
00000000
00000000
00000000
00000000
,
00000000
00000000
00000000
00000000
00000000
00000000
00000000
00001000
,
00000000
00001000
00000010
00000000
00000000
00000001
00000000
00000001
,
00000100
00000000
00000000
00001000
00000000
00001000
00000100
00000000
,
00000100
00000020
00000000
00000000
00000030
00000000
00000000
00002002
,
00000000
00000000
00000000
00000000
00000000
00003000
00000000
00000000
,
00000023
00000000
00001030
00020000
00000000
00000000
00001000
00000000
,
00000000
01000000
00000000
00000000
00031000
00001000
00000000
01000000
,
01000000
00000000
20010000
00000000
00000000
01000000
00000000
00000000
,
00010000
00000000
00000000
31000000
00000000
10000000
00200000
00000000
,
00000000
01000000
00000000
00000000
10000000
00000000
00000000
01000000
,
00000000
00000000
10300000
00100000
01000000
00010000
00000000
00001000
,
00001000
00000000
00000010
00000100
00000001
00001000
00001000
00000000
,
00000000
00000000
00000012
00000000
,
00000003
00001000
00000020
00000000
00000030
00000010
00000010
00010000
,
00002000
00000000
00003000
00001000
00100000
00002000
00000000
00000000
,
00003000
00010000
01000000
10000000
21000000
00000000
00000000
00000000
,
30000000
00010000
02000000
00000000
03000000
01000000
01000000
00001000
,
00020000
00000000
00030000
00010000
00000100
00020000
00000000
00000000
,
00030000
00001000
00000010
00000001
00000010
00000010
00000000
00000000
,
00001000
00010000
00010000
00001000
00000000
00000000
00100000
00010000
,
00010000
00100000
00000000
00000000
01000000
10000000
10000000
01000000
,
00000000
00000000
00100000
00010000
00010000
10000000
00000000
00000000
,
00100000
01000000
01000000
00100000
00000000
00000000
00010000
00001000
,
00010000
00000000
00000000
00000000
;

//---------------dance-double - ----------------
#NOTES:
     dance-double:
     :
     Hard:
     8:
     0.248018,0.360487,0.072339,0.466182,0.168790,216.000000,207.000000,9.000000,58.000000,0.000000,0.000000,0.248018,0.360487,0.072339,0.466182,0.168790,216.000000,207.000000,9.000000,58.000000,0.000000,0.000000:
00000000
00000000
00000000
00000000
,
00000000
00000000
00000000
00000000
,
00000000
00000000
00000000
00000000
,
00000000
00000000
00000000
00000000
00000000
00000000
20000000
30010000
,
00000000
00020000
00031000
00000000
00002000
00003000
00000001
00000002
,
00000003
00000000
00000010
00000100
00000020
00000000
00000000
00000000
00000000
00000000
00000030
00000000
00000000
00000001
00000010
00000100
,
00002000
00000000
00000000
00000000
00000000
00000000
00003000
00000000
00000010
00001000
00000010
00010000
00002000
00000000
00000000
00000000
,
00003000
00000000
02000000
00000000
00000000
00000000
03000000
00001000
00020000
00000000
00000000
00000000
00030000
00000000
00002000
00000000
,
00000000
00000000
00000000
00103000
00020000
00000000
00000000
00000000
00030000
00000000
20000000
00000000
00000000
00000000
00000000
30010000
,
02000000
00000000
00000000
03000000
00100000
01000000
00200000
00000000
,
00300000
00000000
20000000
00000000
00000000
00000000
00000000
30010000
00200000
00000000
00000000
00000000
00000000
00000000
00300000
01000000
,
10000000
01000000
00100000
00010000
00200000
00000000
00300000
00001000
00010000
00001000
00020000
00000000
00030000
00000100
00001000
00000100
,
00002000
00000000
00003000
00000010
00000100
00000010
00000200
00000000
00000000
00000000
00000000
00000000
00000300
00000000
00000000
00000000
,
00000000
00000000
00000000
00000000
00000000
00000000
00000000
00000002
,
00000000
00000000
00000000
00000000
00000000
00002000
00000000
00000000
,
00000000
00000000
00000000
00003003
00000000
00000000
00000000
00000000
,
00000000
00000000
00000000
00000000
00000000
00000000
00000000
00000001
,
00000010
00000001
00000010
00000000
00000010
00000100
00010000
00000100
,
00010000
00000000
00010000
00001000
00000000
00001000
00100000
00010000
,
01000000
00002000
00000000
00000000
00003000
00000000
00000000
00021000
,
00000000
00000000
00000100
00000000
00000000
01000000
01000000
00000000
,
00030020
00000000
00001030
00000002
00000000
00000100
00000100
00000000
,
00000010
00000010
00000000
00001000
00000103
00001010
00000000
00011000
,
00110000
00000000
00000000
00000000
20010000
00000000
00000000
00000000
31000000
00100000
01000000
00000000
00000000
10000000
01000000
00010000
,
00001000
00001000
00010000
00021000
00000000
00031000
00000200
00000000
,
00000310
00000100
00000020
00000000
00000030
00001000
00000001
00000010
00000002
00000000
00000003
00000000
00001000
00000000
00000100
00000010
,
00000100
00000000
00010000
00000000
00001000
00000000
00001000
00000000
00100000
00010000
00100000
00000000
00000000
01000000
10000000
01000000
,
10000000
00000000
00000000
01000000
00010000
00001000
00010000
00000000
00011000
00000000
00001000
00010000
00001000
00000000
00000000
00000000
,
00000000
00000000
00000210
00000000
,
00000300
00000000
00000001
00000100
00000002
00000000
00000000
00000000
00000013
00000000
00000200
00000000
00002300
00000000
00003200
00000000
,
00020300
00000000
00000000
00000000
01030000
00000000
00010000
00001000
00010000
00001000
00020000
00000000
00002000
00000000
00000000
00000000
,
00033000
00100000
00020000
00000000
20030000
00000000
30100000
00000000
01200000
00000000
00000000
00000000
00000000
00000000
00000000
00000000
,
00300000
00000000
10000000
00100000
20000000
00000000
00000000
00000000
31000000
00000000
00200000
00000000
00320000
00000000
00230000
00000000
,
00302000
00000000
00000000
00000000
00003010
00000000
00001000
00010000
00001000
00010000
00002000
00000000
00020000
00000000
00000000
00000000
,
00033000
00000100
00002000
00000000
00003002
00000000
00000103
00000000
00000010
00000000
00000010
00000000
00000200
00000000
00000310
00000000
,
00000100
00000010
00000100
00000000
00001000
00000000
00001000
00000000
00020000
00000000
00031000
00000000
00010000
00001000
00010000
00000000
,
01000000
00000000
01000000
00000000
00200000
00000000
01300000
00000000
00100000
01000000
00100000
00000000
00010000
00000000
10000000
00000000
,
20000000
30010000
10000000
00010000
00100000
00001000
00001000
00000020
,
00001000
00001030
00020000
00001000
00031000
00000200
00000010
00000010
,
00000300
00000000
00000000
00000000
;
